999
DXF file: lochscheibe.dxf
999
Pro/ENGINEER 2013230 by Parametric Technology Corporation
  0
SECTION
  2
HEADER
  9
$ACADVER
  1
AC1015
  9
$DWGCODEPAGE
  3
ANSI_1252
  9
$EXTMAX
 10
297.0
 20
210.0
 30
0.0
  9
$EXTMIN
 10
0.0
 20
0.0
 30
0.0
  9
$LIMMIN
 10
0.0
 20
0.0
  9
$LIMMAX
 10
297.0
 20
210.0
  9
$VIEWCTR
 10
148.5
 20
105.0
  9
$VIEWSIZE
 40
210.0
  9
$CLAYER
  8
0
  9
$LTSCALE
 40
16.335
  9
$CELTYPE
  6
BYLAYER
  9
$DIMSCALE
 40
1.0
  9
$DIMASZ
 40
3.5
  9
$DIMEXO
 40
0.0
  9
$DIMDLI
 40
11.286
  9
$DIMEXE
 40
0.3
  9
$DIMCEN
 40
2.673
  9
$DIMLFAC
 40
1.0
  9
$DIMBLK
  1
_FILLED
  9
$DIMTXT
 40
3.5
  9
$DIMTOL
 70
1
  9
$DIMLIM
 70
0
  9
$DIMTFAC
 40
1.0
  9
$DIMTP
 40
0.001
  9
$DIMTM
 40
0.001
  9
$DIMGAP
 40
0.625
  9
$DIMDSEP
 70
46
  9
$PDMODE
 70
3
  9
$PDSIZE
 40
0.01
  9
$HANDSEED
  5
3D6
  9
$TILEMODE
 70
1
  9
$MEASUREMENT
 70
1
  9
$INSUNITS
 70
4
  0
ENDSEC
  0
SECTION
  2
CLASSES
  0
CLASS
  1
ACDBDICTIONARYWDFLT
  2
AcDbDictionaryWithDefault
  3
AutoCAD 2000
 90
0
280
0
281
0
  0
CLASS
  1
ACDBPLACEHOLDER
  2
AcDbPlaceHolder
  3
AutoCAD 2000
 90
0
280
0
281
0
  0
CLASS
  1
LAYOUT
  2
AcDbLayout
  3
AutoCAD 2000
 90
0
280
0
281
0
  0
ENDSEC
  0
SECTION
  2
TABLES
  0
TABLE
  2
VPORT
  5
8
100
AcDbSymbolTable
 70
2
  0
VPORT
  5
1F4
100
AcDbSymbolTableRecord
100
AcDbViewportTableRecord
  2
*ACTIVE
 70
0
 10
0.0
 20
0.0
 11
1.0
 21
1.0
 12
148.5
 22
105.0
 13
0.0
 23
0.0
 14
1.0
 24
1.0
 15
0.0
 25
0.0
 16
0.0
 26
0.0
 36
1.0
 17
0.0
 27
0.0
 37
0.0
 40
210.0
 41
1.4142857143
 42
50.0
 43
0.0
 44
0.0
 50
0.0
 51
0.0
 71
0
 72
100
 73
1
 74
1
 75
0
 76
0
 77
0
 78
0
  0
ENDTAB
  0
TABLE
  2
LTYPE
  5
5
100
AcDbSymbolTable
 70
6
  0
LTYPE
  5
14
100
AcDbSymbolTableRecord
100
AcDbLinetypeTableRecord
  2
BYBLOCK
 70
0
  3

 72
65
 73
0
 40
0.0
  0
LTYPE
  5
15
100
AcDbSymbolTableRecord
100
AcDbLinetypeTableRecord
  2
BYLAYER
 70
0
  3

 72
65
 73
0
 40
0.0
  0
LTYPE
  5
16
100
AcDbSymbolTableRecord
100
AcDbLinetypeTableRecord
  2
CONTINUOUS
 70
64
  3
Solid line
 72
65
 73
0
 40
0.0
  0
LTYPE
  5
1F5
100
AcDbSymbolTableRecord
100
AcDbLinetypeTableRecord
  2
CENTER
 70
64
  3
____ _ ____ _ ____ _ ____ _ ____ _ ____ _ ____
 72
65
 73
4
 40
0.6
 49
0.375
 74
0
 49
-0.075
 74
0
 49
0.075
 74
0
 49
-0.075
 74
0
  0
LTYPE
  5
1F6
100
AcDbSymbolTableRecord
100
AcDbLinetypeTableRecord
  2
HIDDEN
 70
64
  3
- - - - - - - - - - - - - - - - - - - -
 72
65
 73
2
 40
0.2
 49
0.1
 74
0
 49
-0.1
 74
0
  0
LTYPE
  5
1F7
100
AcDbSymbolTableRecord
100
AcDbLinetypeTableRecord
  2
PHANTOM
 70
64
  3
_____ _ _ _____ _ _ _____ _ _ _____
 72
65
 73
6
 40
0.8
 49
0.45
 74
0
 49
-0.05
 74
0
 49
0.1
 74
0
 49
-0.05
 74
0
 49
0.1
 74
0
 49
-0.05
 74
0
  0
LTYPE
  5
1F8
100
AcDbSymbolTableRecord
100
AcDbLinetypeTableRecord
  2
DOT
 70
64
  3
. . . . . . . . . . . . . . . . . . . .
 72
65
 73
2
 40
0.2
 49
0.1
 74
0
 49
-0.1
 74
0
  0
LTYPE
  5
1F9
100
AcDbSymbolTableRecord
100
AcDbLinetypeTableRecord
  2
DASHED
 70
64
  3
- - - - - - - - - - - - - - - - - - - -
 72
65
 73
2
 40
0.2
 49
0.1
 74
0
 49
-0.1
 74
0
  0
ENDTAB
  0
TABLE
  2
LAYER
  5
2
100
AcDbSymbolTable
 70
36
  0
LAYER
  5
10
100
AcDbSymbolTableRecord
100
AcDbLayerTableRecord
  2
0
 70
0
 62
7
  6
CONTINUOUS
370
-3
390
F
  0
LAYER
  5
1FA
100
AcDbSymbolTableRecord
100
AcDbLayerTableRecord
  2
DEFAULT_1
 70
0
 62
7
  6
CENTER
370
-3
390
F
  0
LAYER
  5
1FB
100
AcDbSymbolTableRecord
100
AcDbLayerTableRecord
  2
DEFAULT_2
 70
0
 62
8
  6
HIDDEN
370
-3
390
F
  0
LAYER
  5
1FC
100
AcDbSymbolTableRecord
100
AcDbLayerTableRecord
  2
DEFAULT_3
 70
0
 62
7
  6
PHANTOM
370
-3
390
F
  0
LAYER
  5
1FD
100
AcDbSymbolTableRecord
100
AcDbLayerTableRecord
  2
AENDERUNGEN
 70
0
 62
7
  6
CONTINUOUS
370
-3
390
F
  0
LAYER
  5
1FE
100
AcDbSymbolTableRecord
100
AcDbLayerTableRecord
  2
A_ACHSEN
 70
0
 62
7
  6
CONTINUOUS
370
-3
390
F
  0
LAYER
  5
1FF
100
AcDbSymbolTableRecord
100
AcDbLayerTableRecord
  2
A_EBENEN
 70
0
 62
7
  6
CONTINUOUS
370
-3
390
F
  0
LAYER
  5
200
100
AcDbSymbolTableRecord
100
AcDbLayerTableRecord
  2
A_KURVEN
 70
0
 62
7
  6
CONTINUOUS
370
-3
390
F
  0
LAYER
  5
201
100
AcDbSymbolTableRecord
100
AcDbLayerTableRecord
  2
COPY_GEOM
 70
0
 62
7
  6
CONTINUOUS
370
-3
390
F
  0
LAYER
  5
202
100
AcDbSymbolTableRecord
100
AcDbLayerTableRecord
  2
GEWINDE
 70
0
 62
7
  6
CONTINUOUS
370
-3
390
F
  0
LAYER
  5
203
100
AcDbSymbolTableRecord
100
AcDbLayerTableRecord
  2
IMPORTANT
 70
0
 62
7
  6
CONTINUOUS
370
-3
390
F
  0
LAYER
  5
204
100
AcDbSymbolTableRecord
100
AcDbLayerTableRecord
  2
STUECKLISTE
 70
0
 62
7
  6
CONTINUOUS
370
-3
390
F
  0
LAYER
  5
205
100
AcDbSymbolTableRecord
100
AcDbLayerTableRecord
  2
TEXTE-NOTES
 70
0
 62
7
  6
CONTINUOUS
370
-3
390
F
  0
LAYER
  5
206
100
AcDbSymbolTableRecord
100
AcDbLayerTableRecord
  2
T_STD_BEZUEGE
 70
0
 62
7
  6
CONTINUOUS
370
-3
390
F
  0
ENDTAB
  0
TABLE
  2
STYLE
  5
3
100
AcDbSymbolTable
 70
1
  0
STYLE
  5
11
100
AcDbSymbolTableRecord
100
AcDbTextStyleTableRecord
  2
STANDARD
 70
0
 40
0.0
 41
0.8
 50
0.0
 71
0
 42
0.2
  3
txt
  4

  0
STYLE
  5
207
100
AcDbSymbolTableRecord
100
AcDbTextStyleTableRecord
  2
TEXTSTYLE_1
 70
0
 40
0.0
 41
0.8
 50
0.0
 71
0
 42
0.2
  3
gdt
  4

  0
ENDTAB
  0
TABLE
  2
VIEW
  5
6
100
AcDbSymbolTable
 70
0
  0
ENDTAB
  0
TABLE
  2
UCS
  5
7
100
AcDbSymbolTable
 70
0
  0
ENDTAB
  0
TABLE
  2
APPID
  5
9
100
AcDbSymbolTable
 70
1
  0
APPID
  5
208
100
AcDbSymbolTableRecord
100
AcDbRegAppTableRecord
  2
ACAD
 70
0
  0
ENDTAB
  0
TABLE
  2
BLOCK_RECORD
  5
1
100
AcDbSymbolTable
 70
0
  0
BLOCK_RECORD
  5
209
100
AcDbSymbolTableRecord
100
AcDbBlockTableRecord
  2
*Model_Space
  0
BLOCK_RECORD
  5
20A
100
AcDbSymbolTableRecord
100
AcDbBlockTableRecord
  2
*Paper_Space
  0
BLOCK_RECORD
  5
20B
100
AcDbSymbolTableRecord
100
AcDbBlockTableRecord
  2
_FILLED
  0
BLOCK_RECORD
  5
20C
100
AcDbSymbolTableRecord
100
AcDbBlockTableRecord
  2
*D0
  0
BLOCK_RECORD
  5
20D
100
AcDbSymbolTableRecord
100
AcDbBlockTableRecord
  2
*D1
  0
BLOCK_RECORD
  5
20E
100
AcDbSymbolTableRecord
100
AcDbBlockTableRecord
  2
*D2
  0
BLOCK_RECORD
  5
20F
100
AcDbSymbolTableRecord
100
AcDbBlockTableRecord
  2
*D3
  0
BLOCK_RECORD
  5
210
100
AcDbSymbolTableRecord
100
AcDbBlockTableRecord
  2
*D4
  0
ENDTAB
  0
TABLE
  2
DIMSTYLE
  5
A
100
AcDbSymbolTable
 70
1
100
AcDbDimStyleTable
 71
0
  0
DIMSTYLE
105
211
100
AcDbSymbolTableRecord
100
AcDbDimStyleTableRecord
  2
STANDARD
 70
0
  3

  4

 40
1.0
 41
3.5
 42
0.0
 43
0.38
 44
0.3
 45
0.0
 46
0.0
 47
0.001
 48
0.001
140
3.5
141
0.09
142
0.0
143
25.4
144
1.0
145
0.0
146
1.0
147
0.625
 71
1.0
 72
0.0
 73
0
 74
0
 75
0
 76
0
 77
1
 78
8
170
0
171
2
172
0
173
0
174
0
175
0
176
0
177
0
178
5
270
2
271
3
272
3
273
2
274
2
275
0
280
0
281
0
282
0
283
1
284
8
285
0
286
0
287
3
288
0
340
11
278
46
341
20B
342
20B
343
20B
344
20B
  0
DIMSTYLE
105
212
100
AcDbSymbolTableRecord
100
AcDbDimStyleTableRecord
  2
DIMSTYLE_1
 70
0
  3

  4

 40
1.0
 41
3.5
 42
0.0
 43
0.38
 44
0.3
 45
0.0
 46
0.0
 47
0.0
 48
0.0
140
3.5
141
0.09
142
0.0
143
25.4
144
1.0
145
0.0
146
1.0
147
0.875
 71
0.0
 72
0.0
 73
0
 74
0
 75
0
 76
0
 77
1
 78
8
170
0
171
2
172
0
173
0
174
0
175
0
176
0
177
0
178
0
270
2
271
3
272
3
273
2
274
2
275
0
280
0
281
0
282
0
283
1
284
8
285
0
286
0
287
3
288
0
340
11
278
46
341
20B
342
20B
343
20B
344
20B
  0
DIMSTYLE
105
213
100
AcDbSymbolTableRecord
100
AcDbDimStyleTableRecord
  2
DIMSTYLE_2
 70
0
  3
<>
  4

 40
1.0
 41
3.5
 42
0.0
 43
0.38
 44
0.3
 45
0.0
 46
0.0
 47
0.0
 48
0.0
140
3.5
141
0.09
142
0.0
143
25.4
144
1.0
145
0.0
146
1.0
147
0.625
 71
0.0
 72
0.0
 73
0
 74
0
 75
0
 76
0
 77
1
 78
8
170
0
171
2
172
1
173
0
174
0
175
0
176
0
177
0
178
5
270
2
271
3
272
3
273
2
274
2
275
0
280
0
281
0
282
0
283
1
284
8
285
0
286
0
287
3
288
1
340
11
278
46
289
2
341
20B
342
20B
343
20B
344
20B
  0
ENDTAB
  0
ENDSEC
  0
SECTION
  2
BLOCKS
  0
BLOCK
  5
20
100
AcDbEntity
  8
0
100
AcDbBlockBegin
  2
*Model_Space
 70
0
 10
0.0
 20
0.0
 30
0.0
  3
*Model_Space
  1

  0
ENDBLK
  5
21
100
AcDbEntity
  8
0
100
AcDbBlockEnd
  0
BLOCK
  5
1C
100
AcDbEntity
  8
0
100
AcDbBlockBegin
  2
*Paper_Space
 70
0
 10
0.0
 20
0.0
 30
0.0
  3
*Paper_Space
  1

  0
ENDBLK
  5
1D
100
AcDbEntity
  8
0
100
AcDbBlockEnd
  0
BLOCK
  5
214
100
AcDbEntity
  8
0
100
AcDbBlockBegin
  2
_FILLED
 70
64
 10
0.0
 20
0.0
  3
_FILLED
  1

  0
SOLID
  5
215
100
AcDbEntity
  8
0
  6
BYBLOCK
 62
0
100
AcDbTrace
 10
0.0
 20
0.0
 11
-1.0
 21
0.1428571429
 12
-1.0
 22
-0.1428571429
 13
-1.0
 23
-0.1428571429
  0
ENDBLK
  5
216
100
AcDbEntity
  8
0
  6
BYBLOCK
 62
0
100
AcDbBlockEnd
  0
BLOCK
  5
217
100
AcDbEntity
  8
0
100
AcDbBlockBegin
 62
1
  6
CONTINUOUS
  2
*D0
 70
65
 10
0.0
 20
0.0
  3
*D0
  1

  0
MTEXT
  5
218
100
AcDbEntity
  8
0
100
AcDbMText
 62
1
  6
CONTINUOUS
  7
STANDARD
 71
1
 72
1
 10
201.5816342957
 20
179.607942255
 30
0.0
 11
1.0
 21
0.0
 31
0.0
 44
0.9
  1
2.5
 40
3.5
 41
10.875
  0
LINE
  5
219
100
AcDbEntity
  8
0
100
AcDbLine
 62
1
  6
CONTINUOUS
 10
193.4750911568
 20
115.8269051234
 11
193.4750911568
 21
175.532942255
  0
LINE
  5
21A
100
AcDbEntity
  8
0
100
AcDbLine
 62
1
  6
CONTINUOUS
 10
195.9750911568
 20
115.8269051234
 11
195.9750911568
 21
175.532942255
  0
LINE
  5
21B
100
AcDbEntity
  8
0
100
AcDbLine
 62
1
  6
CONTINUOUS
 10
193.4750911568
 20
175.232942255
 11
188.4750911568
 21
175.232942255
  0
LINE
  5
21C
100
AcDbEntity
  8
0
100
AcDbLine
 62
1
  6
CONTINUOUS
 10
188.4750911568
 20
175.232942255
 11
194.7250911568
 21
175.232942255
  0
LINE
  5
21D
100
AcDbEntity
  8
0
100
AcDbLine
 62
1
  6
CONTINUOUS
 10
195.9750911568
 20
175.232942255
 11
208.8316342957
 21
175.232942255
  0
LINE
  5
21E
100
AcDbEntity
  8
0
100
AcDbLine
 62
1
  6
CONTINUOUS
 10
208.8316342957
 20
175.232942255
 11
194.7250911568
 21
175.232942255
  0
INSERT
  5
21F
100
AcDbEntity
  8
0
100
AcDbBlockReference
 62
1
  6
CONTINUOUS
  2
_FILLED
 10
193.4750911568
 20
175.232942255
 41
3.5
 42
3.5
 43
3.5
  0
INSERT
  5
220
100
AcDbEntity
  8
0
100
AcDbBlockReference
 62
1
  6
CONTINUOUS
  2
_FILLED
 10
195.9750911568
 20
175.232942255
 41
3.5
 42
3.5
 43
3.5
 50
180.0
  0
ENDBLK
  5
221
100
AcDbEntity
  8
0
  6
BYBLOCK
 62
0
100
AcDbBlockEnd
  0
BLOCK
  5
222
100
AcDbEntity
  8
0
100
AcDbBlockBegin
 62
2
  6
CONTINUOUS
  2
*D1
 70
65
 10
0.0
 20
0.0
  3
*D1
  1

  0
MTEXT
  5
223
100
AcDbEntity
  8
0
100
AcDbMText
 62
5
  6
CONTINUOUS
  7
TEXTSTYLE_1
 71
2
 72
1
 10
79.5911708556
 20
133.1070724283
 30
0.0
 11
0.761549668
 21
-0.6481065523
 31
0.0
 44
0.9
  1
{\Fgdt;n}\Ftxt;72
 40
3.5
 41
15.25
  0
LINE
  5
224
100
AcDbEntity
  8
0
100
AcDbLine
 62
2
  6
CONTINUOUS
 10
65.7297985784
 20
139.1587410073
 11
93.1455866263
 21
115.8269051234
  0
LINE
  5
225
100
AcDbEntity
  8
0
100
AcDbLine
 62
2
  6
CONTINUOUS
 10
120.5613746742
 20
92.4950692396
 11
93.1455866263
 21
115.8269051234
  0
INSERT
  5
226
100
AcDbEntity
  8
0
100
AcDbBlockReference
 62
2
  6
CONTINUOUS
  2
_FILLED
 10
65.7297985784
 20
139.1587410073
 41
3.5
 42
3.5
 43
3.5
 50
139.6010043098
  0
INSERT
  5
227
100
AcDbEntity
  8
0
100
AcDbBlockReference
 62
2
  6
CONTINUOUS
  2
_FILLED
 10
120.5613746742
 20
92.4950692396
 41
3.5
 42
3.5
 43
3.5
 50
319.6010043098
  0
ENDBLK
  5
228
100
AcDbEntity
  8
0
  6
BYBLOCK
 62
0
100
AcDbBlockEnd
  0
BLOCK
  5
229
100
AcDbEntity
  8
0
100
AcDbBlockBegin
 62
2
  6
CONTINUOUS
  2
*D2
 70
65
 10
0.0
 20
0.0
  3
*D2
  1

  0
MTEXT
  5
22A
100
AcDbEntity
  8
0
100
AcDbMText
 62
5
  6
CONTINUOUS
  7
TEXTSTYLE_1
 71
2
 72
1
 10
73.6256778037
 20
126.9051683947
 30
0.0
 11
0.949227283
 21
-0.314591108
 31
0.0
 44
0.9
  1
{\Fgdt;n}\Ftxt;103
 40
3.5
 41
17.875
  0
LINE
  5
22B
100
AcDbEntity
  8
0
100
AcDbLine
 62
2
  6
CONTINUOUS
 10
44.2603815529
 20
132.0283471869
 11
93.1455866263
 21
115.8269051234
  0
LINE
  5
22C
100
AcDbEntity
  8
0
100
AcDbLine
 62
2
  6
CONTINUOUS
 10
142.0307916997
 20
99.62546306
 11
93.1455866263
 21
115.8269051234
  0
INSERT
  5
22D
100
AcDbEntity
  8
0
100
AcDbBlockReference
 62
2
  6
CONTINUOUS
  2
_FILLED
 10
44.2603815529
 20
132.0283471869
 41
3.5
 42
3.5
 43
3.5
 50
161.6638688695
  0
INSERT
  5
22E
100
AcDbEntity
  8
0
100
AcDbBlockReference
 62
2
  6
CONTINUOUS
  2
_FILLED
 10
142.0307916997
 20
99.62546306
 41
3.5
 42
3.5
 43
3.5
 50
341.6638688695
  0
ENDBLK
  5
22F
100
AcDbEntity
  8
0
  6
BYBLOCK
 62
0
100
AcDbBlockEnd
  0
BLOCK
  5
230
100
AcDbEntity
  8
0
100
AcDbBlockBegin
 62
2
  6
CONTINUOUS
  2
*D3
 70
65
 10
0.0
 20
0.0
  3
*D3
  1

  0
MTEXT
  5
231
100
AcDbEntity
  8
0
100
AcDbMText
 62
5
  6
CONTINUOUS
  7
TEXTSTYLE_1
 71
1
 72
1
 10
119.3129695792
 20
170.201919595
 30
0.0
 11
0.8471285929
 21
0.5313879441
 31
0.0
 44
0.9
  1
{\Fgdt;n}\Ftxt;1.8
 40
3.5
 41
17.125
  0
LINE
  5
232
100
AcDbEntity
  8
0
100
AcDbLine
 62
2
  6
CONTINUOUS
 10
113.3368492954
 20
161.288705787
 11
112.5744335613
 21
160.810456637
  0
LINE
  5
233
100
AcDbEntity
  8
0
100
AcDbLine
 62
2
  6
CONTINUOUS
 10
112.5744335613
 20
160.810456637
 11
131.3091766033
 21
172.5624110296
  0
LINE
  5
234
100
AcDbEntity
  8
0
100
AcDbLine
 62
2
  6
CONTINUOUS
 10
111.8120178272
 20
160.332207487
 11
112.5744335613
 21
160.810456637
  0
LINE
  5
235
100
AcDbEntity
  8
0
100
AcDbLine
 62
2
  6
CONTINUOUS
 10
112.5744335613
 20
160.810456637
 11
107.5763748633
 21
157.6752677669
  0
INSERT
  5
236
100
AcDbEntity
  8
0
100
AcDbBlockReference
 62
2
  6
CONTINUOUS
  2
_FILLED
 10
113.3368492949
 20
161.2887057867
 41
3.5
 42
3.5
 43
3.5
 50
212.0969215399
  0
INSERT
  5
237
100
AcDbEntity
  8
0
100
AcDbBlockReference
 62
2
  6
CONTINUOUS
  2
_FILLED
 10
111.8120178277
 20
160.3322074873
 41
3.5
 42
3.5
 43
3.5
 50
32.0992439386
  0
ENDBLK
  5
238
100
AcDbEntity
  8
0
  6
BYBLOCK
 62
0
100
AcDbBlockEnd
  0
BLOCK
  5
239
100
AcDbEntity
  8
0
100
AcDbBlockBegin
 62
2
  6
CONTINUOUS
  2
*D4
 70
65
 10
0.0
 20
0.0
  3
*D4
  1

  0
MTEXT
  5
23A
100
AcDbEntity
  8
0
100
AcDbMText
 62
5
  6
CONTINUOUS
  7
TEXTSTYLE_1
 71
2
 72
1
 10
101.2895584152
 20
144.0002565731
 30
0.0
 11
0.417903072
 21
0.9084916194
 31
0.0
 44
0.9
  1
{\Fgdt;n}\Ftxt;98
 40
3.5
 41
15.25
  0
LINE
  5
23B
100
AcDbEntity
  8
0
100
AcDbLine
 62
2
  6
CONTINUOUS
 10
113.6228371528
 20
160.3429944718
 11
93.1455866263
 21
115.8269051234
  0
LINE
  5
23C
100
AcDbEntity
  8
0
100
AcDbLine
 62
2
  6
CONTINUOUS
 10
72.6683360998
 20
71.310815775
 11
93.1455866263
 21
115.8269051234
  0
INSERT
  5
23D
100
AcDbEntity
  8
0
100
AcDbBlockReference
 62
2
  6
CONTINUOUS
  2
_FILLED
 10
113.6228371528
 20
160.3429944718
 41
3.5
 42
3.5
 43
3.5
 50
65.2977297267
  0
INSERT
  5
23E
100
AcDbEntity
  8
0
100
AcDbBlockReference
 62
2
  6
CONTINUOUS
  2
_FILLED
 10
72.6683360998
 20
71.310815775
 41
3.5
 42
3.5
 43
3.5
 50
245.2977297267
  0
ENDBLK
  5
23F
100
AcDbEntity
  8
0
  6
BYBLOCK
 62
0
100
AcDbBlockEnd
  0
ENDSEC
  0
SECTION
  2
ENTITIES
  0
DIMENSION
  5
240
100
AcDbEntity
  8
0
100
AcDbDimension
 62
1
  6
CONTINUOUS
  2
*D0
 10
195.9750911568
 20
175.232942255
 11
205.2066342957
 21
175.232942255
 70
160
 71
1
 42
2.5
  3
DIMSTYLE_1
100
AcDbAlignedDimension
 13
193.4750911568
 23
115.8269051234
 14
195.9750911568
 24
115.8269051234
100
AcDbRotatedDimension
  0
DIMENSION
  5
241
100
AcDbEntity
  8
0
100
AcDbDimension
 62
2
  6
CONTINUOUS
  2
*D1
 10
65.7297985784
 20
139.1587410073
 11
78.4569843891
 21
131.7743605093
 70
163
 71
2
 42
72.0
  1
%%c<>
  3
DIMSTYLE_2
100
AcDbDiametricDimension
 15
120.5613746742
 25
92.4950692396
  0
DIMENSION
  5
242
100
AcDbEntity
  8
0
100
AcDbDimension
 62
2
  6
CONTINUOUS
  2
*D2
 10
44.2603815529
 20
132.0283471869
 11
73.0751433646
 21
125.2440206495
 70
163
 71
2
 42
103.0
  1
%%c<>
  3
DIMSTYLE_2
100
AcDbDiametricDimension
 15
142.0307916997
 25
99.62546306
  0
DIMENSION
  5
243
100
AcDbEntity
  8
0
100
AcDbDimension
 62
2
  6
CONTINUOUS
  2
*D3
 10
113.3368492949
 20
161.2887057867
 11
125.0785908657
 21
171.7527840717
 70
163
 71
1
 42
1.8
  1
%%c<>
  3
DIMSTYLE_2
100
AcDbDiametricDimension
 15
111.8120178277
 25
160.3322074873
  0
DIMENSION
  5
244
100
AcDbEntity
  8
0
100
AcDbDimension
 62
2
  6
CONTINUOUS
  2
*D4
 10
113.6228371528
 20
160.3429944718
 11
102.8794187491
 21
143.2689261972
 70
163
 71
2
 42
98.0
  1
%%c<>
  3
DIMSTYLE_2
100
AcDbDiametricDimension
 15
72.6683360998
 25
71.310815775
  0
LINE
  5
245
100
AcDbEntity
  8
0
100
AcDbLine
 62
7
  6
CONTINUOUS
 10
0.0
 20
0.0
 11
0.0
 21
210.0
  0
LINE
  5
246
100
AcDbEntity
  8
0
100
AcDbLine
 62
7
  6
CONTINUOUS
 10
0.0
 20
0.0
 11
297.0
 21
0.0
  0
LINE
  5
247
100
AcDbEntity
  8
0
100
AcDbLine
 62
7
  6
CONTINUOUS
 10
0.0
 20
210.0
 11
297.0
 21
210.0
  0
LINE
  5
248
100
AcDbEntity
  8
0
100
AcDbLine
 62
7
  6
CONTINUOUS
 10
297.0
 20
0.0
 11
297.0
 21
210.0
  0
LINE
  5
249
100
AcDbEntity
  8
0
100
AcDbLine
 62
7
  6
CONTINUOUS
 10
193.4750911568
 20
64.3269051234
 11
195.9750911568
 21
64.3269051234
  0
LINE
  5
24A
100
AcDbEntity
  8
0
100
AcDbLine
 62
7
  6
CONTINUOUS
 10
193.4750911568
 20
167.3269051234
 11
193.4750911568
 21
64.3269051234
  0
LINE
  5
24B
100
AcDbEntity
  8
0
100
AcDbLine
 62
7
  6
CONTINUOUS
 10
195.9750911568
 20
167.3269051234
 11
195.9750911568
 21
64.3269051234
  0
LINE
  5
24C
100
AcDbEntity
  8
0
100
AcDbLine
 62
7
  6
CONTINUOUS
 10
193.4750911568
 20
167.3269051234
 11
195.9750911568
 21
167.3269051234
  0
LINE
  5
24D
100
AcDbEntity
  8
DEFAULT_1
100
AcDbLine
 62
7
  6
CENTER
 10
89.214269331
 20
160.9434475505
 11
89.230545831
 21
160.7566553516
  0
LINE
  5
24E
100
AcDbEntity
  8
DEFAULT_1
100
AcDbLine
 62
7
  6
CENTER
 10
88.5697199318
 20
168.3404186246
 11
88.5534434318
 21
168.5272108235
  0
LINE
  5
24F
100
AcDbEntity
  8
DEFAULT_1
100
AcDbLine
 62
7
  6
CENTER
 10
96.459104644
 20
63.2186524001
 11
96.4708909305
 21
63.0315232109
  0
LINE
  5
250
100
AcDbEntity
  8
DEFAULT_1
100
AcDbLine
 62
7
  6
CENTER
 10
95.9923676977
 20
70.6289682924
 11
95.9805814111
 21
70.8160974816
  0
LINE
  5
251
100
AcDbEntity
  8
DEFAULT_1
100
AcDbLine
 62
7
  6
CENTER
 10
91.4497504907
 20
161.0826428376
 11
91.4567716174
 21
160.8952743403
  0
LINE
  5
252
100
AcDbEntity
  8
DEFAULT_1
100
AcDbLine
 62
7
  6
CENTER
 10
91.1717138734
 20
168.5024353306
 11
91.1646927467
 21
168.6898038279
  0
LINE
  5
253
100
AcDbEntity
  8
DEFAULT_1
100
AcDbLine
 62
7
  6
CENTER
 10
93.8539704477
 20
63.1191651926
 11
93.856490191
 21
62.9316821243
  0
LINE
  5
254
100
AcDbEntity
  8
DEFAULT_1
100
AcDbLine
 62
7
  6
CENTER
 10
93.7541886147
 20
70.5434946967
 11
93.7516688714
 21
70.730977765
  0
LINE
  5
255
100
AcDbEntity
  8
0
100
AcDbLine
 62
7
  6
CONTINUOUS
 10
93.1455866263
 20
116.5694051234
 11
93.1455866263
 21
115.0844051234
  0
LINE
  5
256
100
AcDbEntity
  8
DEFAULT_1
100
AcDbLine
 62
7
  6
CENTER
 10
93.1455866263
 20
112.1144051234
 11
93.1455866263
 21
60.6544607953
  0
LINE
  5
257
100
AcDbEntity
  8
DEFAULT_1
100
AcDbLine
 62
7
  6
CENTER
 10
93.1455866263
 20
119.5394051234
 11
93.1455866263
 21
170.9993494515
  0
LINE
  5
258
100
AcDbEntity
  8
DEFAULT_1
100
AcDbLine
 62
7
  6
CENTER
 10
93.6893797556
 20
161.1111401869
 11
93.687128335
 21
160.9236537044
  0
LINE
  5
259
100
AcDbEntity
  8
DEFAULT_1
100
AcDbLine
 62
7
  6
CENTER
 10
93.7785360125
 20
168.5356048923
 11
93.7807874332
 21
168.7230913747
  0
LINE
  5
25A
100
AcDbEntity
  8
DEFAULT_1
100
AcDbLine
 62
7
  6
CENTER
 10
91.247103507
 20
63.148603916
 11
91.2403505436
 21
62.9612255622
  0
LINE
  5
25B
100
AcDbEntity
  8
DEFAULT_1
100
AcDbLine
 62
7
  6
CENTER
 10
91.5145208589
 20
70.5687867278
 11
91.5212738223
 21
70.7561650816
  0
LINE
  5
25C
100
AcDbEntity
  8
DEFAULT_1
100
AcDbLine
 62
7
  6
CENTER
 10
95.9276788736
 20
161.0288698924
 11
95.9161604128
 21
160.8417240267
  0
LINE
  5
25D
100
AcDbEntity
  8
DEFAULT_1
100
AcDbLine
 62
7
  6
CENTER
 10
96.3838099239
 20
168.4398461753
 11
96.3953283847
 21
168.626992041
  0
LINE
  5
25E
100
AcDbEntity
  8
DEFAULT_1
100
AcDbLine
 62
7
  6
CENTER
 10
88.6448803568
 20
63.3068965617
 11
88.6288712048
 21
63.1200812597
  0
LINE
  5
25F
100
AcDbEntity
  8
DEFAULT_1
100
AcDbLine
 62
7
  6
CENTER
 10
89.2788427766
 20
70.7047825199
 11
89.2948519286
 21
70.8915978218
  0
LINE
  5
260
100
AcDbEntity
  8
DEFAULT_1
100
AcDbLine
 62
7
  6
CENTER
 10
98.1591728463
 20
160.8360331917
 11
98.13841552
 21
160.6496857114
  0
LINE
  5
261
100
AcDbEntity
  8
DEFAULT_1
100
AcDbLine
 62
7
  6
CENTER
 10
98.981162969
 20
168.2153934104
 11
99.0019202954
 21
168.4017408907
  0
LINE
  5
262
100
AcDbEntity
  8
DEFAULT_1
100
AcDbLine
 62
7
  6
CENTER
 10
86.0536661732
 20
63.5936559373
 11
86.0284399918
 21
63.4078606473
  0
LINE
  5
263
100
AcDbEntity
  8
DEFAULT_1
100
AcDbLine
 62
7
  6
CENTER
 10
87.0526229551
 20
70.95114942
 11
87.0778491364
 21
71.13694471
  0
LINE
  5
264
100
AcDbEntity
  8
DEFAULT_1
100
AcDbLine
 62
7
  6
CENTER
 10
100.3784033208
 20
160.5331017735
 11
100.3484579025
 21
160.3480084945
  0
LINE
  5
265
100
AcDbEntity
  8
DEFAULT_1
100
AcDbLine
 62
7
  6
CENTER
 10
101.5642418846
 20
167.8627956211
 11
101.5941873029
 21
168.0478889001
  0
LINE
  5
266
100
AcDbEntity
  8
DEFAULT_1
100
AcDbLine
 62
7
  6
CENTER
 10
83.4797992036
 20
64.0081806143
 11
83.4454176975
 21
63.8238598015
  0
LINE
  5
267
100
AcDbEntity
  8
DEFAULT_1
100
AcDbLine
 62
7
  6
CENTER
 10
84.8413068463
 20
71.3072848017
 11
84.8756883524
 21
71.4916056146
  0
LINE
  5
268
100
AcDbEntity
  8
DEFAULT_1
100
AcDbLine
 62
7
  6
CENTER
 10
102.5799419416
 20
160.1208166241
 11
102.5408816795
 21
159.9374302944
  0
LINE
  5
269
100
AcDbEntity
  8
DEFAULT_1
100
AcDbLine
 62
7
  6
CENTER
 10
104.1267283223
 20
167.3829152803
 11
104.1657885844
 21
167.5663016101
  0
LINE
  5
26A
100
AcDbEntity
  8
DEFAULT_1
100
AcDbLine
 62
7
  6
CENTER
 10
80.9295752634
 20
64.5494566433
 11
80.8861225315
 21
64.3670611661
  0
LINE
  5
26B
100
AcDbEntity
  8
DEFAULT_1
100
AcDbLine
 62
7
  6
CENTER
 10
82.6503034468
 20
71.772317539
 11
82.6937561787
 21
71.9547130162
  0
LINE
  5
26C
100
AcDbEntity
  8
DEFAULT_1
100
AcDbLine
 62
7
  6
CENTER
 10
104.7584036283
 20
159.6001862151
 11
104.7103240658
 21
159.4189554073
  0
LINE
  5
26D
100
AcDbEntity
  8
DEFAULT_1
100
AcDbLine
 62
7
  6
CENTER
 10
106.6623543043
 20
166.7769262008
 11
106.7104338668
 21
166.9581570086
  0
LINE
  5
26E
100
AcDbEntity
  8
DEFAULT_1
100
AcDbLine
 62
7
  6
CENTER
 10
78.4092323356
 20
65.2161600343
 11
78.3568146657
 21
65.0361360419
  0
LINE
  5
26F
100
AcDbEntity
  8
DEFAULT_1
100
AcDbLine
 62
7
  6
CENTER
 10
80.4849720674
 20
72.345110137
 11
80.5373897374
 21
72.5251341295
  0
LINE
  5
270
100
AcDbEntity
  8
DEFAULT_1
100
AcDbLine
 62
7
  6
CENTER
 10
106.9084597479
 20
158.9724840359
 11
106.8514784901
 21
158.7938520503
  0
LINE
  5
271
100
AcDbEntity
  8
DEFAULT_1
100
AcDbLine
 62
7
  6
CENTER
 10
109.1649175547
 20
166.0463106641
 11
109.2218988125
 21
166.2249426496
  0
LINE
  5
272
100
AcDbEntity
  8
DEFAULT_1
100
AcDbLine
 62
7
  6
CENTER
 10
75.9249353131
 20
66.0066599956
 11
75.8636809214
 21
65.829447836
  0
LINE
  5
273
100
AcDbEntity
  8
DEFAULT_1
100
AcDbLine
 62
7
  6
CENTER
 10
78.3506092235
 20
73.0242615146
 11
78.4118636151
 21
73.2014736742
  0
LINE
  5
274
100
AcDbEntity
  8
DEFAULT_1
100
AcDbLine
 62
7
  6
CENTER
 10
109.0248511489
 20
158.2392454794
 11
108.9591075751
 21
158.0636492593
  0
LINE
  5
275
100
AcDbEntity
  8
DEFAULT_1
100
AcDbLine
 62
7
  6
CENTER
 10
111.628296671
 20
165.1928557944
 11
111.6940402448
 21
165.3684520145
  0
LINE
  5
276
100
AcDbEntity
  8
DEFAULT_1
100
AcDbLine
 62
7
  6
CENTER
 10
73.4827609181
 20
66.9190229221
 11
73.4128196363
 21
66.7450560658
  0
LINE
  5
277
100
AcDbEntity
  8
DEFAULT_1
100
AcDbLine
 62
7
  6
CENTER
 10
76.25243568
 20
73.8081104316
 11
76.3223769618
 21
73.9820772879
  0
LINE
  5
278
100
AcDbEntity
  8
DEFAULT_1
100
AcDbLine
 62
7
  6
CENTER
 10
111.1024010257
 20
157.4022640861
 11
111.0280559481
 21
157.2301331492
  0
LINE
  5
279
100
AcDbEntity
  8
DEFAULT_1
100
AcDbLine
 62
7
  6
CENTER
 10
114.046466097
 20
164.2186491879
 11
114.1208111745
 21
164.3907801248
  0
LINE
  5
27A
100
AcDbEntity
  8
DEFAULT_1
100
AcDbLine
 62
7
  6
CENTER
 10
71.0886828391
 20
67.9510171257
 11
71.0102257471
 21
67.7807211048
  0
LINE
  5
27B
100
AcDbEntity
  8
DEFAULT_1
100
AcDbLine
 62
7
  6
CENTER
 10
74.1955836808
 20
74.6947395517
 11
74.2740407728
 21
74.8650355726
  0
LINE
  5
27C
100
AcDbEntity
  8
DEFAULT_1
100
AcDbLine
 62
7
  6
CENTER
 10
113.1360275808
 20
156.4635871569
 11
113.0532628515
 21
156.2953425446
  0
LINE
  5
27D
100
AcDbEntity
  8
DEFAULT_1
100
AcDbLine
 62
7
  6
CENTER
 10
116.4135108618
 20
163.1260738055
 11
116.4962755911
 21
163.2943184179
  0
LINE
  5
27E
100
AcDbEntity
  8
DEFAULT_1
100
AcDbLine
 62
7
  6
CENTER
 10
68.748557118
 20
69.1001182938
 11
68.6617761262
 21
68.9339096615
  0
LINE
  5
27F
100
AcDbEntity
  8
DEFAULT_1
100
AcDbLine
 62
7
  6
CENTER
 10
72.1850843952
 20
75.6819801332
 11
72.2718653871
 21
75.8481887655
  0
LINE
  5
280
100
AcDbEntity
  8
DEFAULT_1
100
AcDbLine
 62
7
  6
CENTER
 10
115.1207564558
 20
155.4255107455
 11
115.0297745217
 21
155.261563993
  0
LINE
  5
281
100
AcDbEntity
  8
DEFAULT_1
100
AcDbLine
 62
7
  6
CENTER
 10
118.7236410483
 20
161.9178021448
 11
118.8146229825
 21
162.0817488973
  0
LINE
  5
282
100
AcDbEntity
  8
DEFAULT_1
100
AcDbLine
 62
7
  6
CENTER
 10
66.4681078267
 20
70.3635156639
 11
66.3732152059
 21
70.2018009753
  0
LINE
  5
283
100
AcDbEntity
  8
DEFAULT_1
100
AcDbLine
 62
7
  6
CENTER
 10
70.2258556111
 20
76.7674173331
 11
70.320748232
 21
76.9291320217
  0
LINE
  5
284
100
AcDbEntity
  8
DEFAULT_1
100
AcDbLine
 62
7
  6
CENTER
 10
117.0517328984
 20
154.2905740418
 11
116.9527563061
 21
154.1313261716
  0
LINE
  5
285
100
AcDbEntity
  8
DEFAULT_1
100
AcDbLine
 62
7
  6
CENTER
 10
120.9712059554
 20
160.5967897022
 11
121.0701825478
 21
160.7560375724
  0
LINE
  5
286
100
AcDbEntity
  8
DEFAULT_1
100
AcDbLine
 62
7
  6
CENTER
 10
64.2529130653
 20
71.738118899
 11
64.1501409279
 21
71.5812937167
  0
LINE
  5
287
100
AcDbEntity
  8
DEFAULT_1
100
AcDbLine
 62
7
  6
CENTER
 10
68.3226897063
 20
77.9483961144
 11
68.4254618437
 21
78.1052212966
  0
LINE
  5
288
100
AcDbEntity
  8
DEFAULT_1
100
AcDbLine
 62
7
  6
CENTER
 10
118.9242336377
 20
153.0615531614
 11
118.8175044891
 21
152.9073937022
  0
LINE
  5
289
100
AcDbEntity
  8
DEFAULT_1
100
AcDbLine
 62
7
  6
CENTER
 10
123.15070792
 20
159.1662677445
 11
123.2574370685
 21
159.3204272037
  0
LINE
  5
28A
100
AcDbEntity
  8
DEFAULT_1
100
AcDbLine
 62
7
  6
CENTER
 10
62.1083913177
 20
73.2205656465
 11
61.9979910498
 21
73.0690135734
  0
LINE
  5
28B
100
AcDbEntity
  8
DEFAULT_1
100
AcDbLine
 62
7
  6
CENTER
 10
66.4802419256
 20
79.2220277402
 11
66.5906421934
 21
79.3735798133
  0
LINE
  5
28C
100
AcDbEntity
  8
DEFAULT_1
100
AcDbLine
 62
7
  6
CENTER
 10
120.7336784374
 20
151.7414543545
 11
120.6194577978
 21
151.5927603886
  0
LINE
  5
28D
100
AcDbEntity
  8
DEFAULT_1
100
AcDbLine
 62
7
  6
CENTER
 10
125.2568157644
 20
157.6297354043
 11
125.371036404
 21
157.7784293702
  0
LINE
  5
28E
100
AcDbEntity
  8
DEFAULT_1
100
AcDbLine
 62
7
  6
CENTER
 10
60.0397881981
 20
74.8072297629
 11
59.9220298447
 21
74.6613215034
  0
LINE
  5
28F
100
AcDbEntity
  8
DEFAULT_1
100
AcDbLine
 62
7
  6
CENTER
 10
64.703018994
 20
80.58519684
 11
64.8207773474
 21
80.7311050995
  0
LINE
  5
290
100
AcDbEntity
  8
DEFAULT_1
100
AcDbLine
 62
7
  6
CENTER
 10
122.4756412995
 20
150.333506653
 11
122.3542085586
 21
150.1906418937
  0
LINE
  5
291
100
AcDbEntity
  8
DEFAULT_1
100
AcDbLine
 62
7
  6
CENTER
 10
127.2843778371
 20
155.9909511212
 11
127.405810578
 21
156.1338158805
  0
LINE
  5
292
100
AcDbEntity
  8
DEFAULT_1
100
AcDbLine
 62
7
  6
CENTER
 10
58.0521636195
 20
76.4942301837
 11
57.9273352237
 21
76.354322637
  0
LINE
  5
293
100
AcDbEntity
  8
DEFAULT_1
100
AcDbLine
 62
7
  6
CENTER
 10
62.9953680933
 20
82.0345690298
 11
63.1201964891
 21
82.1744765764
  0
LINE
  5
294
100
AcDbEntity
  8
DEFAULT_1
100
AcDbLine
 62
7
  6
CENTER
 10
124.1458612902
 20
148.8411539716
 11
124.0175134791
 21
148.7044678737
  0
LINE
  5
295
100
AcDbEntity
  8
DEFAULT_1
100
AcDbLine
 62
7
  6
CENTER
 10
129.2284346136
 20
154.2539234488
 11
129.3567824248
 21
154.3906095467
  0
LINE
  5
296
100
AcDbEntity
  8
DEFAULT_1
100
AcDbLine
 62
7
  6
CENTER
 10
56.1503794172
 20
78.2774404161
 11
56.0187863159
 21
78.1438758036
  0
LINE
  5
297
100
AcDbEntity
  8
DEFAULT_1
100
AcDbLine
 62
7
  6
CENTER
 10
61.3614662283
 20
83.5665990682
 11
61.4930593296
 21
83.7001636807
  0
LINE
  5
298
100
AcDbEntity
  8
DEFAULT_1
100
AcDbLine
 62
7
  6
CENTER
 10
125.7402529629
 20
147.2680466843
 11
125.605304027
 21
147.1378735893
  0
LINE
  5
299
100
AcDbEntity
  8
DEFAULT_1
100
AcDbLine
 62
7
  6
CENTER
 10
131.0842308277
 20
152.4229012488
 11
131.2191797637
 21
152.5530743439
  0
LINE
  5
29A
100
AcDbEntity
  8
DEFAULT_1
100
AcDbLine
 62
7
  6
CENTER
 10
54.3390874564
 20
80.1524986332
 11
54.2010515334
 21
80.0256036611
  0
LINE
  5
29B
100
AcDbEntity
  8
DEFAULT_1
100
AcDbLine
 62
7
  6
CENTER
 10
59.8053100096
 20
85.1775395284
 11
59.9433459327
 21
85.3044345005
  0
LINE
  5
29C
100
AcDbEntity
  8
DEFAULT_1
100
AcDbLine
 62
7
  6
CENTER
 10
127.2549163508
 20
145.6180326951
 11
127.1136963823
 21
145.4946910132
  0
LINE
  5
29D
100
AcDbEntity
  8
DEFAULT_1
100
AcDbLine
 62
7
  6
CENTER
 10
132.8472271033
 20
150.5023632989
 11
132.9884470718
 21
150.6257049809
  0
LINE
  5
29E
100
AcDbEntity
  8
DEFAULT_1
100
AcDbLine
 62
7
  6
CENTER
 10
52.6227182534
 20
82.1148183431
 11
52.4785771518
 21
81.9949034032
  0
LINE
  5
29F
100
AcDbEntity
  8
DEFAULT_1
100
AcDbLine
 62
7
  6
CENTER
 10
58.3307058781
 20
86.8634499645
 11
58.4748469798
 21
86.9833649045
  0
LINE
  5
2A0
100
AcDbEntity
  8
DEFAULT_1
100
AcDbLine
 62
7
  6
CENTER
 10
128.6861465068
 20
143.8951480258
 11
128.5390009373
 21
143.7789394574
  0
LINE
  5
2A1
100
AcDbEntity
  8
DEFAULT_1
100
AcDbLine
 62
7
  6
CENTER
 10
134.513111058
 20
148.4970073369
 11
134.6602566275
 21
148.6132159054
  0
LINE
  5
2A2
100
AcDbEntity
  8
DEFAULT_1
100
AcDbLine
 62
7
  6
CENTER
 10
51.0054701384
 20
84.1595996076
 11
50.855576435
 21
84.0469580181
  0
LINE
  5
2A3
100
AcDbEntity
  8
DEFAULT_1
100
AcDbLine
 62
7
  6
CENTER
 10
56.9412607938
 20
88.62020655
 11
57.0911544972
 21
88.7328481395
  0
LINE
  5
2A4
100
AcDbEntity
  8
DEFAULT_1
100
AcDbLine
 62
7
  6
CENTER
 10
130.030442566
 20
142.1036069438
 11
129.8777313214
 21
141.9948157412
  0
LINE
  5
2A5
100
AcDbEntity
  8
DEFAULT_1
100
AcDbLine
 62
7
  6
CENTER
 10
136.0778078511
 20
146.4117385699
 11
136.2305190957
 21
146.5205297726
  0
LINE
  5
2A6
100
AcDbEntity
  8
DEFAULT_1
100
AcDbLine
 62
7
  6
CENTER
 10
49.4912989861
 20
86.281840783
 11
49.3360193289
 21
86.1767480713
  0
LINE
  5
2A7
100
AcDbEntity
  8
DEFAULT_1
100
AcDbLine
 62
7
  6
CENTER
 10
55.640373413
 20
90.4435121651
 11
55.7956530703
 21
90.5486048767
  0
LINE
  5
2A8
100
AcDbEntity
  8
DEFAULT_1
100
AcDbLine
 62
7
  6
CENTER
 10
131.2845163087
 20
140.2477916538
 11
131.1266129289
 21
140.1466839259
  0
LINE
  5
2A9
100
AcDbEntity
  8
DEFAULT_1
100
AcDbLine
 62
7
  6
CENTER
 10
137.5374901512
 20
144.2516576761
 11
137.6953935311
 21
144.352765404
  0
LINE
  5
2AA
100
AcDbEntity
  8
DEFAULT_1
100
AcDbLine
 62
7
  6
CENTER
 10
48.0839085397
 20
88.4763507548
 11
47.9236227509
 21
88.3790639832
  0
LINE
  5
2AB
100
AcDbEntity
  8
DEFAULT_1
100
AcDbLine
 62
7
  6
CENTER
 10
54.4312257755
 20
92.3289069072
 11
54.5915115643
 21
92.4261936788
  0
LINE
  5
2AC
100
AcDbEntity
  8
DEFAULT_1
100
AcDbLine
 62
7
  6
CENTER
 10
132.4453002041
 20
138.3322415784
 11
132.282590929
 21
138.2390646402
  0
LINE
  5
2AD
100
AcDbEntity
  8
DEFAULT_1
100
AcDbLine
 62
7
  6
CENTER
 10
138.8885874979
 20
142.0220483281
 11
139.051296773
 21
142.1152252662
  0
LINE
  5
2AE
100
AcDbEntity
  8
DEFAULT_1
100
AcDbLine
 62
7
  6
CENTER
 10
46.7867413509
 20
90.737761635
 11
46.6218414981
 21
90.6485187722
  0
LINE
  5
2AF
100
AcDbEntity
  8
DEFAULT_1
100
AcDbLine
 62
7
  6
CENTER
 10
53.3167755206
 20
94.2717790009
 11
53.4816753734
 21
94.3610218637
  0
LINE
  5
2B0
100
AcDbEntity
  8
DEFAULT_1
100
AcDbLine
 62
7
  6
CENTER
 10
133.5099549131
 20
136.3616422549
 11
133.3428377383
 21
136.2766240222
  0
LINE
  5
2B1
100
AcDbEntity
  8
DEFAULT_1
100
AcDbLine
 62
7
  6
CENTER
 10
140.1277950352
 20
139.7283642687
 11
140.29491221
 21
139.8133825013
  0
LINE
  5
2B2
100
AcDbEntity
  8
DEFAULT_1
100
AcDbLine
 62
7
  6
CENTER
 10
45.6029703595
 20
93.0605418926
 11
45.4338597966
 21
92.9795612313
  0
LINE
  5
2B3
100
AcDbEntity
  8
DEFAULT_1
100
AcDbLine
 62
7
  6
CENTER
 10
52.2997486527
 20
96.2673760778
 11
52.4688592157
 21
96.348356739
  0
LINE
  5
2B4
100
AcDbEntity
  8
DEFAULT_1
100
AcDbLine
 62
7
  6
CENTER
 10
134.4758762337
 20
134.3408138738
 11
134.3047599367
 21
134.2641623057
  0
LINE
  5
2B5
100
AcDbEntity
  8
DEFAULT_1
100
AcDbLine
 62
7
  6
CENTER
 10
141.2520815958
 20
137.3762159709
 11
141.4231978928
 21
137.452867539
  0
LINE
  5
2B6
100
AcDbEntity
  8
DEFAULT_1
100
AcDbLine
 62
7
  6
CENTER
 10
44.5354911323
 20
95.4390098836
 11
44.3625835125
 21
95.3664895069
  0
LINE
  5
2B7
100
AcDbEntity
  8
DEFAULT_1
100
AcDbLine
 62
7
  6
CENTER
 10
51.3826328737
 20
98.3108168014
 11
51.5555404934
 21
98.3833371781
  0
LINE
  5
2B8
100
AcDbEntity
  8
DEFAULT_1
100
AcDbLine
 62
7
  6
CENTER
 10
135.3407014711
 20
132.2746994888
 11
135.1660046114
 21
132.2066020791
  0
LINE
  5
2B9
100
AcDbEntity
  8
DEFAULT_1
100
AcDbLine
 62
7
  6
CENTER
 10
142.258697115
 20
134.9713569144
 11
142.4333939747
 21
135.0394543242
  0
LINE
  5
2BA
100
AcDbEntity
  8
DEFAULT_1
100
AcDbLine
 62
7
  6
CENTER
 10
43.58691478
 20
97.8673477491
 11
43.4106330447
 21
97.8034650456
  0
LINE
  5
2BB
100
AcDbEntity
  8
DEFAULT_1
100
AcDbLine
 62
7
  6
CENTER
 10
50.5676714973
 20
100.3971028072
 11
50.7439532326
 21
100.4609855107
  0
LINE
  5
2BC
100
AcDbEntity
  8
DEFAULT_1
100
AcDbLine
 62
7
  6
CENTER
 10
136.1023152168
 20
130.1683529253
 11
135.9244651122
 21
130.1089762438
  0
LINE
  5
2BD
100
AcDbEntity
  8
DEFAULT_1
100
AcDbLine
 62
7
  6
CENTER
 10
143.1451793577
 20
132.5196695122
 11
143.3230294623
 21
132.5790461937
  0
LINE
  5
2BE
100
AcDbEntity
  8
DEFAULT_1
100
AcDbLine
 62
7
  6
CENTER
 10
42.7595615709
 20
100.3396156456
 11
42.5803369146
 21
100.2845268758
  0
LINE
  5
2BF
100
AcDbEntity
  8
DEFAULT_1
100
AcDbLine
 62
7
  6
CENTER
 10
49.8568579624
 20
102.521130929
 11
50.0360826188
 21
102.5762196987
  0
LINE
  5
2C0
100
AcDbEntity
  8
DEFAULT_1
100
AcDbLine
 62
7
  6
CENTER
 10
136.7588545231
 20
128.0269264189
 11
136.5782862045
 21
127.9764157042
  0
LINE
  5
2C1
100
AcDbEntity
  8
DEFAULT_1
100
AcDbLine
 62
7
  6
CENTER
 10
143.9093599415
 20
130.0271507218
 11
144.0899282601
 21
130.0776614366
  0
LINE
  5
2C2
100
AcDbEntity
  8
DEFAULT_1
100
AcDbLine
 62
7
  6
CENTER
 10
42.0554552549
 20
102.8497662747
 11
41.8737260705
 21
102.8036061887
  0
LINE
  5
2C3
100
AcDbEntity
  8
DEFAULT_1
100
AcDbLine
 62
7
  6
CENTER
 10
49.2519309567
 20
104.6777056809
 11
49.4336601411
 21
104.723865767
  0
LINE
  5
2C4
100
AcDbEntity
  8
DEFAULT_1
100
AcDbLine
 62
7
  6
CENTER
 10
137.3087134601
 20
125.8556580125
 11
137.1258686071
 21
125.8141368165
  0
LINE
  5
2C5
100
AcDbEntity
  8
DEFAULT_1
100
AcDbLine
 62
7
  6
CENTER
 10
144.5493696399
 20
127.4998973766
 11
144.7322144929
 21
127.5414185727
  0
LINE
  5
2C6
100
AcDbEntity
  8
DEFAULT_1
100
AcDbLine
 62
7
  6
CENTER
 10
41.4763181133
 20
105.3916596745
 11
41.2925289201
 21
105.3545411823
  0
LINE
  5
2C7
100
AcDbEntity
  8
DEFAULT_1
100
AcDbLine
 62
7
  6
CENTER
 10
48.7543701637
 20
106.8615519668
 11
48.9381593569
 21
106.8986704591
  0
LINE
  5
2C8
100
AcDbEntity
  8
DEFAULT_1
100
AcDbLine
 62
7
  6
CENTER
 10
137.7505470436
 20
123.659858744
 11
137.5658729044
 21
123.6274286296
  0
LINE
  5
2C9
100
AcDbEntity
  8
DEFAULT_1
100
AcDbLine
 62
7
  6
CENTER
 10
145.0636429552
 20
124.9440912725
 11
145.2483170944
 21
124.9765213868
  0
LINE
  5
2CA
100
AcDbEntity
  8
DEFAULT_1
100
AcDbLine
 62
7
  6
CENTER
 10
41.0235667464
 20
107.9590782389
 11
40.8381671025
 21
107.9310921343
  0
LINE
  5
2CB
100
AcDbEntity
  8
DEFAULT_1
100
AcDbLine
 62
7
  6
CENTER
 10
48.3653926436
 20
109.0673279827
 11
48.5507922875
 21
109.0953140873
  0
LINE
  5
2CC
100
AcDbEntity
  8
DEFAULT_1
100
AcDbLine
 62
7
  6
CENTER
 10
138.0832745251
 20
121.4448996549
 11
137.8972228226
 21
121.4216399481
  0
LINE
  5
2CD
100
AcDbEntity
  8
DEFAULT_1
100
AcDbLine
 62
7
  6
CENTER
 10
145.4509219477
 20
122.3659840468
 11
145.6369736503
 21
122.3892437537
  0
LINE
  5
2CE
100
AcDbEntity
  8
DEFAULT_1
100
AcDbLine
 62
7
  6
CENTER
 10
40.698308608
 20
110.5457419257
 11
40.5117520108
 21
110.5269566641
  0
LINE
  5
2CF
100
AcDbEntity
  8
DEFAULT_1
100
AcDbLine
 62
7
  6
CENTER
 10
48.085949856
 20
111.2896382832
 11
48.2725064532
 21
111.3084235447
  0
LINE
  5
2D0
100
AcDbEntity
  8
DEFAULT_1
100
AcDbLine
 62
7
  6
CENTER
 10
138.3060820357
 20
119.2161986529
 11
138.119107862
 21
119.202166248
  0
LINE
  5
2D1
100
AcDbEntity
  8
DEFAULT_1
100
AcDbLine
 62
7
  6
CENTER
 10
145.7102593123
 20
119.7718818869
 11
145.897233486
 21
119.7859142918
  0
LINE
  5
2D2
100
AcDbEntity
  8
DEFAULT_1
100
AcDbLine
 62
7
  6
CENTER
 10
40.5013392969
 20
113.1453236181
 11
40.3140820738
 21
113.1357851494
  0
LINE
  5
2D3
100
AcDbEntity
  8
DEFAULT_1
100
AcDbLine
 62
7
  6
CENTER
 10
47.9167253329
 20
113.5230469793
 11
48.103982556
 21
113.532585448
  0
LINE
  5
2D4
100
AcDbEntity
  8
DEFAULT_1
100
AcDbLine
 62
7
  6
CENTER
 10
138.4184245762
 20
116.9792072589
 11
138.2309852803
 21
116.97443648
  0
LINE
  5
2D5
100
AcDbEntity
  8
DEFAULT_1
100
AcDbLine
 62
7
  6
CENTER
 10
145.8410206961
 20
117.1681301042
 11
146.028459992
 21
117.1729008832
  0
LINE
  5
2D6
100
AcDbEntity
  8
DEFAULT_1
100
AcDbLine
 62
7
  6
CENTER
 10
40.4331406104
 20
115.7514646012
 11
40.2456408024
 21
115.751196257
  0
LINE
  5
2D7
100
AcDbEntity
  8
DEFAULT_1
100
AcDbLine
 62
7
  6
CENTER
 10
47.8581330063
 20
115.7620910348
 11
48.0456328143
 21
115.762359379
  0
LINE
  5
2D8
100
AcDbEntity
  8
0
100
AcDbLine
 62
7
  6
CONTINUOUS
 10
93.8880866263
 20
115.8269051234
 11
92.4030866263
 21
115.8269051234
  0
LINE
  5
2D9
100
AcDbEntity
  8
DEFAULT_1
100
AcDbLine
 62
7
  6
CENTER
 10
89.4330866263
 20
115.8269051234
 11
37.9731422982
 21
115.8269051234
  0
LINE
  5
2DA
100
AcDbEntity
  8
DEFAULT_1
100
AcDbLine
 62
7
  6
CENTER
 10
96.8580866263
 20
115.8269051234
 11
148.3180309544
 21
115.8269051234
  0
LINE
  5
2DB
100
AcDbEntity
  8
DEFAULT_1
100
AcDbLine
 62
7
  6
CENTER
 10
138.4200273509
 20
114.7393972727
 11
138.2325814191
 21
114.7438997894
  0
LINE
  5
2DC
100
AcDbEntity
  8
DEFAULT_1
100
AcDbLine
 62
7
  6
CENTER
 10
145.8428862497
 20
114.5610976141
 11
146.0303321815
 21
114.5565950975
  0
LINE
  5
2DD
100
AcDbEntity
  8
DEFAULT_1
100
AcDbLine
 62
7
  6
CENTER
 10
40.4975554134
 20
118.4331410414
 11
40.3102847309
 21
118.4424115036
  0
LINE
  5
2DE
100
AcDbEntity
  8
DEFAULT_1
100
AcDbLine
 62
7
  6
CENTER
 10
47.9134744413
 20
118.0660307414
 11
48.1007451238
 21
118.0567602793
  0
LINE
  5
2DF
100
AcDbEntity
  8
DEFAULT_1
100
AcDbLine
 62
7
  6
CENTER
 10
138.3108864393
 20
112.5022473885
 11
138.1238923744
 21
112.5160121873
  0
LINE
  5
2E0
100
AcDbEntity
  8
DEFAULT_1
100
AcDbLine
 62
7
  6
CENTER
 10
145.71585141
 20
111.9571613563
 11
145.9028454749
 21
111.9433965575
  0
LINE
  5
2E1
100
AcDbEntity
  8
DEFAULT_1
100
AcDbLine
 62
7
  6
CENTER
 10
40.6908040808
 20
121.033001968
 11
40.5042207898
 21
121.0515202162
  0
LINE
  5
2E2
100
AcDbEntity
  8
DEFAULT_1
100
AcDbLine
 62
7
  6
CENTER
 10
48.0795024047
 20
120.2996793392
 11
48.2660856958
 21
120.281161091
  0
LINE
  5
2E3
100
AcDbEntity
  8
DEFAULT_1
100
AcDbLine
 62
7
  6
CENTER
 10
138.0912688058
 20
110.2732297936
 11
137.9051840052
 21
110.2962232052
  0
LINE
  5
2E4
100
AcDbEntity
  8
DEFAULT_1
100
AcDbLine
 62
7
  6
CENTER
 10
145.4602269109
 20
109.3626906973
 11
145.6463117115
 21
109.3396972858
  0
LINE
  5
2E5
100
AcDbEntity
  8
DEFAULT_1
100
AcDbLine
 62
7
  6
CENTER
 10
41.0123599319
 20
123.6201285052
 11
40.826920425
 21
123.6478492429
  0
LINE
  5
2E6
100
AcDbEntity
  8
DEFAULT_1
100
AcDbLine
 62
7
  6
CENTER
 10
48.3557644034
 20
122.5223872938
 11
48.5412039103
 21
122.4946665561
  0
LINE
  5
2E7
100
AcDbEntity
  8
DEFAULT_1
100
AcDbLine
 62
7
  6
CENTER
 10
137.7617116469
 20
108.0577967836
 11
137.5769912839
 21
108.0899625647
  0
LINE
  5
2E8
100
AcDbEntity
  8
DEFAULT_1
100
AcDbLine
 62
7
  6
CENTER
 10
145.0766380234
 20
106.7840318501
 11
145.2613583865
 21
106.751866069
  0
LINE
  5
2E9
100
AcDbEntity
  8
DEFAULT_1
100
AcDbLine
 62
7
  6
CENTER
 10
41.461436424
 20
126.1881924042
 11
41.2775942962
 21
126.2250478249
  0
LINE
  5
2EA
100
AcDbEntity
  8
DEFAULT_1
100
AcDbLine
 62
7
  6
CENTER
 10
48.7415846858
 20
124.7287177434
 11
48.9254268137
 21
124.6918623226
  0
LINE
  5
2EB
100
AcDbEntity
  8
DEFAULT_1
100
AcDbLine
 62
7
  6
CENTER
 10
137.3230210769
 20
105.861367425
 11
137.1401169872
 21
105.9026268966
  0
LINE
  5
2EC
100
AcDbEntity
  8
DEFAULT_1
100
AcDbLine
 62
7
  6
CENTER
 10
144.5660230265
 20
104.2274923511
 11
144.7489271162
 21
104.1862328796
  0
LINE
  5
2ED
100
AcDbEntity
  8
DEFAULT_1
100
AcDbLine
 62
7
  6
CENTER
 10
42.0369350922
 20
128.7309120443
 11
41.855140031
 21
128.7768119977
  0
LINE
  5
2EE
100
AcDbEntity
  8
DEFAULT_1
100
AcDbLine
 62
7
  6
CENTER
 10
49.2360195151
 20
126.9132738866
 11
49.4178145762
 21
126.8673739331
  0
LINE
  5
2EF
100
AcDbEntity
  8
DEFAULT_1
100
AcDbLine
 62
7
  6
CENTER
 10
136.7762701561
 20
103.689314301
 11
136.595629733
 21
103.7395665401
  0
LINE
  5
2F0
100
AcDbEntity
  8
DEFAULT_1
100
AcDbLine
 62
7
  6
CENTER
 10
143.9296309115
 20
101.6993256318
 11
144.1102713346
 21
101.6490733926
  0
LINE
  5
2F1
100
AcDbEntity
  8
DEFAULT_1
100
AcDbLine
 62
7
  6
CENTER
 10
42.7374482361
 20
131.2420677981
 11
42.558144922
 21
131.2969000106
  0
LINE
  5
2F2
100
AcDbEntity
  8
DEFAULT_1
100
AcDbLine
 62
7
  6
CENTER
 10
49.8378594772
 20
129.070712183
 11
50.0171627914
 21
129.0158799705
  0
LINE
  5
2F3
100
AcDbEntity
  8
DEFAULT_1
100
AcDbLine
 62
7
  6
CENTER
 10
136.1227962664
 20
101.5469503686
 11
135.9448613659
 21
101.6060724556
  0
LINE
  5
2F4
100
AcDbEntity
  8
DEFAULT_1
100
AcDbLine
 62
7
  6
CENTER
 10
143.1690183272
 20
99.2057157221
 11
143.3469532277
 21
99.1465936351
  0
LINE
  5
2F5
100
AcDbEntity
  8
DEFAULT_1
100
AcDbLine
 62
7
  6
CENTER
 10
50.5456324399
 20
131.1957554241
 11
50.7220054216
 21
131.1321250751
  0
LINE
  5
2F6
100
AcDbEntity
  8
DEFAULT_1
100
AcDbLine
 62
7
  6
CENTER
 10
43.5612623635
 20
133.7155172454
 11
43.3848893818
 21
133.7791475945
  0
LINE
  5
2F7
100
AcDbEntity
  8
DEFAULT_1
100
AcDbLine
 62
7
  6
CENTER
 10
135.3641978397
 20
99.4395159639
 11
135.1894036999
 21
99.5073632831
  0
LINE
  5
2F8
100
AcDbEntity
  8
DEFAULT_1
100
AcDbLine
 62
7
  6
CENTER
 10
142.2860457725
 20
96.7527621244
 11
142.4608399122
 21
96.6849148052
  0
LINE
  5
2F9
100
AcDbEntity
  8
DEFAULT_1
100
AcDbLine
 62
7
  6
CENTER
 10
51.3576071527
 20
133.2832056412
 11
51.5306183844
 21
133.2109327989
  0
LINE
  5
2FA
100
AcDbEntity
  8
DEFAULT_1
100
AcDbLine
 62
7
  6
CENTER
 10
44.5063623812
 20
136.1452101975
 11
44.3333511496
 21
136.2174830399
  0
LINE
  5
2FB
100
AcDbEntity
  8
DEFAULT_1
100
AcDbLine
 62
7
  6
CENTER
 10
134.5023304479
 20
97.3721659834
 11
134.3311046247
 21
97.4485725765
  0
LINE
  5
2FC
100
AcDbEntity
  8
DEFAULT_1
100
AcDbLine
 62
7
  6
CENTER
 10
141.2828730452
 20
94.3464648933
 11
141.4540988683
 21
94.2700583001
  0
LINE
  5
2FD
100
AcDbEntity
  8
DEFAULT_1
100
AcDbLine
 62
7
  6
CENTER
 10
52.2717974825
 20
135.3279568202
 11
52.4410237694
 21
135.2472182678
  0
LINE
  5
2FE
100
AcDbEntity
  8
DEFAULT_1
100
AcDbLine
 62
7
  6
CENTER
 10
45.5704365244
 20
138.5252034964
 11
45.4012102376
 21
138.6059420489
  0
LINE
  5
2FF
100
AcDbEntity
  8
DEFAULT_1
100
AcDbLine
 62
7
  6
CENTER
 10
133.5393022644
 20
95.3499572748
 11
133.3720635853
 21
95.4347362474
  0
LINE
  5
300
100
AcDbEntity
  8
DEFAULT_1
100
AcDbLine
 62
7
  6
CENTER
 10
140.1619539589
 20
91.9927099598
 11
140.3291926381
 21
91.9079309872
  0
LINE
  5
301
100
AcDbEntity
  8
DEFAULT_1
100
AcDbLine
 62
7
  6
CENTER
 10
53.2859672712
 20
137.3250073912
 11
53.4509946767
 21
137.2360006194
  0
LINE
  5
302
100
AcDbEntity
  8
DEFAULT_1
100
AcDbLine
 62
7
  6
CENTER
 10
46.7508820112
 20
140.8496755521
 11
46.5858546056
 21
140.9386823239
  0
LINE
  5
303
100
AcDbEntity
  8
DEFAULT_1
100
AcDbLine
 62
7
  6
CENTER
 10
132.4774689074
 20
93.3778362681
 11
132.314626447
 21
93.4707802462
  0
LINE
  5
304
100
AcDbEntity
  8
DEFAULT_1
100
AcDbLine
 62
7
  6
CENTER
 10
138.9260303413
 20
89.6972547334
 11
139.0888728018
 21
89.6043107553
  0
LINE
  5
305
100
AcDbEntity
  8
DEFAULT_1
100
AcDbLine
 62
7
  6
CENTER
 10
54.3976358055
 20
139.2694724623
 11
54.558060664
 21
139.1724151866
  0
LINE
  5
306
100
AcDbEntity
  8
DEFAULT_1
100
AcDbLine
 62
7
  6
CENTER
 10
48.0448114093
 20
143.1129405825
 11
47.8843865508
 21
143.2099978583
  0
LINE
  5
307
100
AcDbEntity
  8
DEFAULT_1
100
AcDbLine
 62
7
  6
CENTER
 10
131.3194276777
 20
91.4606268759
 11
131.1613797572
 21
91.5615085137
  0
LINE
  5
308
100
AcDbEntity
  8
DEFAULT_1
100
AcDbLine
 62
7
  6
CENTER
 10
137.5781253273
 20
87.4657140194
 11
137.7361732477
 21
87.3648323817
  0
LINE
  5
309
100
AcDbEntity
  8
DEFAULT_1
100
AcDbLine
 62
7
  6
CENTER
 10
55.6040838853
 20
141.1565957689
 11
55.759513789
 21
141.0517253963
  0
LINE
  5
30A
100
AcDbEntity
  8
DEFAULT_1
100
AcDbLine
 62
7
  6
CENTER
 10
49.4490596986
 20
145.3094625211
 11
49.2936297949
 21
145.4143328936
  0
LINE
  5
30B
100
AcDbEntity
  8
DEFAULT_1
100
AcDbLine
 62
7
  6
CENTER
 10
130.0680112055
 20
89.6030186943
 11
129.9151444187
 21
89.7115912299
  0
LINE
  5
30C
100
AcDbEntity
  8
DEFAULT_1
100
AcDbLine
 62
7
  6
CENTER
 10
136.121535964
 20
85.303546285
 11
136.2744027508
 21
85.1949737495
  0
LINE
  5
30D
100
AcDbEntity
  8
DEFAULT_1
100
AcDbLine
 62
7
  6
CENTER
 10
56.9023604743
 20
142.9817613069
 11
57.0524152335
 21
142.8693343561
  0
LINE
  5
30E
100
AcDbEntity
  8
DEFAULT_1
100
AcDbLine
 62
7
  6
CENTER
 10
50.9601920133
 20
147.4338685587
 11
50.8101372542
 21
147.5462955095
  0
LINE
  5
30F
100
AcDbEntity
  8
DEFAULT_1
100
AcDbLine
 62
7
  6
CENTER
 10
128.726280522
 20
87.8095555316
 11
128.5789687891
 21
87.9255533908
  0
LINE
  5
310
100
AcDbEntity
  8
DEFAULT_1
100
AcDbLine
 62
7
  6
CENTER
 10
134.5598251464
 20
83.2160403073
 11
134.7071368793
 21
83.1000424481
  0
LINE
  5
311
100
AcDbEntity
  8
DEFAULT_1
100
AcDbLine
 62
7
  6
CENTER
 10
58.2892899193
 20
144.7405046247
 11
58.4336024919
 21
144.620796098
  0
LINE
  5
312
100
AcDbEntity
  8
DEFAULT_1
100
AcDbLine
 62
7
  6
CENTER
 10
52.5745120435
 20
149.4809622852
 11
52.4301994709
 21
149.600670812
  0
LINE
  5
313
100
AcDbEntity
  8
DEFAULT_1
100
AcDbLine
 62
7
  6
CENTER
 10
127.2975175717
 20
86.0846242938
 11
127.156121225
 21
86.2077637397
  0
LINE
  5
314
100
AcDbEntity
  8
DEFAULT_1
100
AcDbLine
 62
7
  6
CENTER
 10
132.896812902
 20
81.2083022367
 11
133.0382092487
 21
81.0851627908
  0
LINE
  5
315
100
AcDbEntity
  8
DEFAULT_1
100
AcDbLine
 62
7
  6
CENTER
 10
59.761479717
 20
146.4285237427
 11
59.8996971069
 21
146.3018264534
  0
LINE
  5
316
100
AcDbEntity
  8
DEFAULT_1
100
AcDbLine
 62
7
  6
CENTER
 10
54.2880710766
 20
151.4457364007
 11
54.1498536867
 21
151.57243369
  0
LINE
  5
317
100
AcDbEntity
  8
DEFAULT_1
100
AcDbLine
 62
7
  6
CENTER
 10
125.7852171848
 20
84.4324442544
 11
125.6500820872
 21
84.5624240813
  0
LINE
  5
318
100
AcDbEntity
  8
DEFAULT_1
100
AcDbLine
 62
7
  6
CENTER
 10
131.1365670472
 20
79.2852431072
 11
131.2717021448
 21
79.1552632802
  0
LINE
  5
319
100
AcDbEntity
  8
DEFAULT_1
100
AcDbLine
 62
7
  6
CENTER
 10
61.3153288131
 20
148.0416896764
 11
61.4471129332
 21
147.9083135328
  0
LINE
  5
31A
100
AcDbEntity
  8
DEFAULT_1
100
AcDbLine
 62
7
  6
CENTER
 10
56.0966776563
 20
153.3233849633
 11
55.9648935362
 21
153.4567611069
  0
LINE
  5
31B
100
AcDbEntity
  8
DEFAULT_1
100
AcDbLine
 62
7
  6
CENTER
 10
124.1930785281
 20
82.8570567334
 11
124.0645352274
 21
82.9935590039
  0
LINE
  5
31C
100
AcDbEntity
  8
DEFAULT_1
100
AcDbLine
 62
7
  6
CENTER
 10
129.2833932368
 20
77.4515668235
 11
129.4119365375
 21
77.3150645531
  0
LINE
  5
31D
100
AcDbEntity
  8
DEFAULT_1
100
AcDbLine
 62
7
  6
CENTER
 10
62.9470364102
 20
149.5760565364
 11
63.0720649096
 21
149.4363277836
  0
LINE
  5
31E
100
AcDbEntity
  8
DEFAULT_1
100
AcDbLine
 62
7
  6
CENTER
 10
57.9959078349
 20
155.1093151451
 11
57.8708793355
 21
155.2490438978
  0
LINE
  5
31F
100
AcDbEntity
  8
DEFAULT_1
100
AcDbLine
 62
7
  6
CENTER
 10
122.5249960575
 20
81.3623152125
 11
122.4033589773
 21
81.5050060347
  0
LINE
  5
320
100
AcDbEntity
  8
DEFAULT_1
100
AcDbLine
 62
7
  6
CENTER
 10
127.3418244323
 20
75.7117586552
 11
127.4634615125
 21
75.5690678331
  0
LINE
  5
321
100
AcDbEntity
  8
DEFAULT_1
100
AcDbLine
 62
7
  6
CENTER
 10
64.6526112647
 20
151.0278711797
 11
64.770578317
 21
150.8821316018
  0
LINE
  5
322
100
AcDbEntity
  8
DEFAULT_1
100
AcDbLine
 62
7
  6
CENTER
 10
59.9811159943
 20
156.7991584658
 11
59.863148942
 21
156.9448980437
  0
LINE
  5
323
100
AcDbEntity
  8
DEFAULT_1
100
AcDbLine
 62
7
  6
CENTER
 10
125.3166098142
 20
74.0700742655
 11
125.431043143
 21
73.921543921
  0
LINE
  5
324
100
AcDbEntity
  8
DEFAULT_1
100
AcDbLine
 62
7
  6
CENTER
 10
120.7850499912
 20
79.9518759088
 11
120.6706166623
 21
80.1004062533
  0
LINE
  5
325
100
AcDbEntity
  8
DEFAULT_1
100
AcDbLine
 62
7
  6
CENTER
 10
66.4278814502
 20
152.3935823907
 11
66.5384985017
 21
152.2421884743
  0
LINE
  5
326
100
AcDbEntity
  8
DEFAULT_1
100
AcDbLine
 62
7
  6
CENTER
 10
62.0474462101
 20
158.388781479
 11
61.9368291586
 21
158.5401753954
  0
LINE
  5
327
100
AcDbEntity
  8
DEFAULT_1
100
AcDbLine
 62
7
  6
CENTER
 10
123.2127031649
 20
72.5305293016
 11
123.3196528324
 21
72.3765227478
  0
LINE
  5
328
100
AcDbEntity
  8
DEFAULT_1
100
AcDbLine
 62
7
  6
CENTER
 10
118.9774963297
 20
78.6291888316
 11
118.8705466622
 21
78.7831953854
  0
LINE
  5
329
100
AcDbEntity
  8
DEFAULT_1
100
AcDbLine
 62
7
  6
CENTER
 10
68.2685045613
 20
153.6698495673
 11
68.3715010369
 21
153.51317163
  0
LINE
  5
32A
100
AcDbEntity
  8
DEFAULT_1
100
AcDbLine
 62
7
  6
CENTER
 10
64.1898441289
 20
159.8742958824
 11
64.0868476533
 21
160.0309738196
  0
LINE
  5
32B
100
AcDbEntity
  8
DEFAULT_1
100
AcDbLine
 62
7
  6
CENTER
 10
121.0352507518
 20
71.0968895721
 11
121.1344551535
 21
70.9377835173
  0
LINE
  5
32C
100
AcDbEntity
  8
DEFAULT_1
100
AcDbLine
 62
7
  6
CENTER
 10
117.1067564453
 20
77.3974893439
 11
117.0075520436
 21
77.5565953987
  0
LINE
  5
32D
100
AcDbEntity
  8
DEFAULT_1
100
AcDbLine
 62
7
  6
CENTER
 10
70.1699783363
 20
154.8535508921
 11
70.265102301
 21
154.6919721765
  0
LINE
  5
32E
100
AcDbEntity
  8
DEFAULT_1
100
AcDbLine
 62
7
  6
CENTER
 10
66.4030693315
 20
161.2520680289
 11
66.3079453667
 21
161.4136467444
  0
LINE
  5
32F
100
AcDbEntity
  8
DEFAULT_1
100
AcDbLine
 62
7
  6
CENTER
 10
118.7895787392
 20
69.7726618361
 11
118.8807952158
 21
69.6088454621
  0
LINE
  5
330
100
AcDbEntity
  8
DEFAULT_1
100
AcDbLine
 62
7
  6
CENTER
 10
115.1774062671
 20
76.259790248
 11
115.0861897905
 21
76.423606622
  0
LINE
  5
331
100
AcDbEntity
  8
DEFAULT_1
100
AcDbLine
 62
7
  6
CENTER
 10
72.1276516692
 20
155.9417909688
 11
72.2146704449
 21
155.775706705
  0
LINE
  5
332
100
AcDbEntity
  8
DEFAULT_1
100
AcDbLine
 62
7
  6
CENTER
 10
68.6817081515
 20
162.5187278146
 11
68.5946893758
 21
162.6848120783
  0
LINE
  5
333
100
AcDbEntity
  8
DEFAULT_1
100
AcDbLine
 62
7
  6
CENTER
 10
116.4811801601
 20
68.5610852249
 11
116.5641855912
 21
68.3929592352
  0
LINE
  5
334
100
AcDbEntity
  8
DEFAULT_1
100
AcDbLine
 62
7
  6
CENTER
 10
113.194165088
 20
75.2188744162
 11
113.1111596569
 21
75.3870004059
  0
LINE
  5
335
100
AcDbEntity
  8
DEFAULT_1
100
AcDbLine
 62
7
  6
CENTER
 10
74.1367359872
 20
156.9319079045
 11
74.2154367213
 21
156.7617243434
  0
LINE
  5
336
100
AcDbEntity
  8
DEFAULT_1
100
AcDbLine
 62
7
  6
CENTER
 10
71.0201869175
 20
163.6711769224
 11
70.9414861834
 21
163.8413604835
  0
LINE
  5
337
100
AcDbEntity
  8
DEFAULT_1
100
AcDbLine
 62
7
  6
CENTER
 10
114.1157014799
 20
67.4651233192
 11
114.1902928299
 21
67.293098959
  0
LINE
  5
338
100
AcDbEntity
  8
DEFAULT_1
100
AcDbLine
 62
7
  6
CENTER
 10
111.1618840213
 20
74.2772879841
 11
111.0872926713
 21
74.4493123443
  0
LINE
  5
339
100
AcDbEntity
  8
DEFAULT_1
100
AcDbLine
 62
7
  6
CENTER
 10
76.1923169633
 20
157.8214798204
 11
76.2625071496
 21
157.6476132401
  0
LINE
  5
33A
100
AcDbEntity
  8
DEFAULT_1
100
AcDbLine
 62
7
  6
CENTER
 10
73.4127855861
 20
164.7065964006
 11
73.3425953998
 21
164.8804629809
  0
LINE
  5
33B
100
AcDbEntity
  8
DEFAULT_1
100
AcDbLine
 62
7
  6
CENTER
 10
111.6989287852
 20
66.4874569001
 11
111.7649235997
 21
66.31195495
  0
LINE
  5
33C
100
AcDbEntity
  8
DEFAULT_1
100
AcDbLine
 62
7
  6
CENTER
 10
109.0855341344
 20
73.437334122
 11
109.01953932
 21
73.612836072
  0
LINE
  5
33D
100
AcDbEntity
  8
DEFAULT_1
100
AcDbLine
 62
7
  6
CENTER
 10
78.2893665374
 20
158.6083307766
 11
78.350874487
 21
158.4312064639
  0
LINE
  5
33E
100
AcDbEntity
  8
DEFAULT_1
100
AcDbLine
 62
7
  6
CENTER
 10
75.853651734
 20
165.6224535583
 11
75.7921437844
 21
165.7995778709
  0
LINE
  5
33F
100
AcDbEntity
  8
DEFAULT_1
100
AcDbLine
 62
7
  6
CENTER
 10
109.2367736304
 20
65.6304773914
 11
109.2940104824
 21
65.4519271387
  0
LINE
  5
340
100
AcDbEntity
  8
DEFAULT_1
100
AcDbLine
 62
7
  6
CENTER
 10
106.9701942895
 20
72.7010674016
 11
106.9129574375
 21
72.8796176544
  0
LINE
  5
341
100
AcDbEntity
  8
DEFAULT_1
100
AcDbLine
 62
7
  6
CENTER
 10
80.4227552147
 20
159.2905360937
 11
80.4754304758
 21
159.1105873041
  0
LINE
  5
342
100
AcDbEntity
  8
DEFAULT_1
100
AcDbLine
 62
7
  6
CENTER
 10
78.3368148728
 20
166.41650816
 11
78.2841396117
 21
166.5964569496
  0
LINE
  5
343
100
AcDbEntity
  8
DEFAULT_1
100
AcDbLine
 62
7
  6
CENTER
 10
106.7352585775
 20
64.8962810107
 11
106.7835974628
 21
64.7151191986
  0
LINE
  5
344
100
AcDbEntity
  8
DEFAULT_1
100
AcDbLine
 62
7
  6
CENTER
 10
104.82103872
 20
72.0702887705
 11
104.7726998348
 21
72.2514505826
  0
LINE
  5
345
100
AcDbEntity
  8
DEFAULT_1
100
AcDbLine
 62
7
  6
CENTER
 10
82.5872646133
 20
159.8664270613
 11
82.6309783395
 21
159.6840939592
  0
LINE
  5
346
100
AcDbEntity
  8
DEFAULT_1
100
AcDbLine
 62
7
  6
CENTER
 10
80.8562010539
 20
167.0868179062
 11
80.8124873276
 21
167.2691510084
  0
LINE
  5
347
100
AcDbEntity
  8
DEFAULT_1
100
AcDbLine
 62
7
  6
CENTER
 10
104.2005024654
 20
64.2866636412
 11
104.2398251445
 21
64.1033334012
  0
LINE
  5
348
100
AcDbEntity
  8
DEFAULT_1
100
AcDbLine
 62
7
  6
CENTER
 10
102.6433243747
 20
71.5465411467
 11
102.6040016957
 21
71.7298713867
  0
LINE
  5
349
100
AcDbEntity
  8
DEFAULT_1
100
AcDbLine
 62
7
  6
CENTER
 10
84.7776002282
 20
160.3345950196
 11
84.8122454934
 21
160.1503236013
  0
LINE
  5
34A
100
AcDbEntity
  8
DEFAULT_1
100
AcDbLine
 62
7
  6
CENTER
 10
83.4056477246
 20
167.6317431836
 11
83.3710024594
 21
167.8160146019
  0
LINE
  5
34B
100
AcDbEntity
  8
DEFAULT_1
100
AcDbLine
 62
7
  6
CENTER
 10
101.6387054421
 20
63.8031164395
 11
101.6689157296
 21
63.618066207
  0
LINE
  5
34C
100
AcDbEntity
  8
DEFAULT_1
100
AcDbLine
 62
7
  6
CENTER
 10
100.4423780585
 20
71.1311056447
 11
100.4121677711
 21
71.3161558771
  0
LINE
  5
34D
100
AcDbEntity
  8
DEFAULT_1
100
AcDbLine
 62
7
  6
CENTER
 10
86.9884043822
 20
160.6938948047
 11
87.0138964423
 21
160.508135808
  0
LINE
  5
34E
100
AcDbEntity
  8
DEFAULT_1
100
AcDbLine
 62
7
  6
CENTER
 10
85.9789188032
 20
168.049951076
 11
85.9534267431
 21
168.2357100727
  0
LINE
  5
34F
100
AcDbEntity
  8
DEFAULT_1
100
AcDbLine
 62
7
  6
CENTER
 10
99.0561337992
 20
63.4468221876
 11
99.0771577991
 21
63.2605046054
  0
LINE
  5
350
100
AcDbEntity
  8
DEFAULT_1
100
AcDbLine
 62
7
  6
CENTER
 10
98.223583403
 20
70.8249984417
 11
98.2025594031
 21
71.0113160239
  0
CIRCLE
  5
351
100
AcDbEntity
  8
0
100
AcDbCircle
 62
7
  6
CONTINUOUS
 10
51.2575671576
 20
90.402628831
 40
0.9
  0
CIRCLE
  5
352
100
AcDbEntity
  8
0
100
AcDbCircle
 62
7
  6
CONTINUOUS
 10
52.5658361996
 20
88.362676474
 40
0.9
  0
CIRCLE
  5
353
100
AcDbEntity
  8
0
100
AcDbCircle
 62
7
  6
CONTINUOUS
 10
53.9733654661
 20
86.3899030788
 40
0.9
  0
CIRCLE
  5
354
100
AcDbEntity
  8
0
100
AcDbCircle
 62
7
  6
CONTINUOUS
 10
55.4767120658
 20
84.4891341538
 40
0.9
  0
CIRCLE
  5
355
100
AcDbEntity
  8
0
100
AcDbCircle
 62
7
  6
CONTINUOUS
 10
57.072198733
 20
82.6650190808
 40
0.9
  0
CIRCLE
  5
356
100
AcDbEntity
  8
0
100
AcDbCircle
 62
7
  6
CONTINUOUS
 10
58.7559228228
 20
80.9220197421
 40
0.9
  0
CIRCLE
  5
357
100
AcDbEntity
  8
0
100
AcDbCircle
 62
7
  6
CONTINUOUS
 10
60.5237658564
 20
79.2643996067
 40
0.9
  0
CIRCLE
  5
358
100
AcDbEntity
  8
0
100
AcDbCircle
 62
7
  6
CONTINUOUS
 10
62.371403596
 20
77.6962133015
 40
0.9
  0
CIRCLE
  5
359
100
AcDbEntity
  8
0
100
AcDbCircle
 62
7
  6
CONTINUOUS
 10
64.2943166216
 20
76.2212966933
 40
0.9
  0
CIRCLE
  5
35A
100
AcDbEntity
  8
0
100
AcDbCircle
 62
7
  6
CONTINUOUS
 10
66.2878013858
 20
74.8432575067
 40
0.9
  0
CIRCLE
  5
35B
100
AcDbEntity
  8
0
100
AcDbCircle
 62
7
  6
CONTINUOUS
 10
44.2090323149
 20
113.3341852987
 40
0.9
  0
CIRCLE
  5
35C
100
AcDbEntity
  8
0
100
AcDbCircle
 62
7
  6
CONTINUOUS
 10
44.392129232
 20
110.9176901044
 40
0.9
  0
CIRCLE
  5
35D
100
AcDbEntity
  8
0
100
AcDbCircle
 62
7
  6
CONTINUOUS
 10
44.694479695
 20
108.5132031108
 40
0.9
  0
CIRCLE
  5
35E
100
AcDbEntity
  8
0
100
AcDbCircle
 62
7
  6
CONTINUOUS
 10
45.1153441385
 20
106.1266058207
 40
0.9
  0
CIRCLE
  5
35F
100
AcDbEntity
  8
0
100
AcDbCircle
 62
7
  6
CONTINUOUS
 10
45.6536931058
 20
103.7637359778
 40
0.9
  0
CIRCLE
  5
360
100
AcDbEntity
  8
0
100
AcDbCircle
 62
7
  6
CONTINUOUS
 10
46.3082097667
 20
101.4303732873
 40
0.9
  0
CIRCLE
  5
361
100
AcDbEntity
  8
0
100
AcDbCircle
 62
7
  6
CONTINUOUS
 10
47.0772931386
 20
99.1322252782
 40
0.9
  0
CIRCLE
  5
362
100
AcDbEntity
  8
0
100
AcDbCircle
 62
7
  6
CONTINUOUS
 10
47.959062003
 20
96.8749133425
 40
0.9
  0
CIRCLE
  5
363
100
AcDbEntity
  8
0
100
AcDbCircle
 62
7
  6
CONTINUOUS
 10
48.9513595061
 20
94.6639589852
 40
0.9
  0
CIRCLE
  5
364
100
AcDbEntity
  8
0
100
AcDbCircle
 62
7
  6
CONTINUOUS
 10
50.0517584358
 20
92.504770318
 40
0.9
  0
ARC
  5
365
100
AcDbEntity
  8
0
100
AcDbCircle
 62
7
  6
CONTINUOUS
 10
44.1456368084
 20
115.756777818
 40
0.9
100
AcDbArc
 50
177.808212885
 51
2.2737871149
  0
ARC
  5
366
100
AcDbEntity
  8
0
100
AcDbCircle
 62
7
  6
CONTINUOUS
 10
44.1455866263
 20
115.8269051234
 40
0.9
100
AcDbArc
 50
357.808212885
 51
182.2737871149
  0
CIRCLE
  5
367
100
AcDbEntity
  8
0
100
AcDbCircle
 62
7
  6
CONTINUOUS
 10
68.3469817189
 20
73.5654664985
 40
0.9
  0
CIRCLE
  5
368
100
AcDbEntity
  8
0
100
AcDbCircle
 62
7
  6
CONTINUOUS
 10
70.4668207566
 20
72.3910492135
 40
0.9
  0
CIRCLE
  5
369
100
AcDbEntity
  8
0
100
AcDbCircle
 62
7
  6
CONTINUOUS
 10
72.6421332599
 20
71.3228783387
 40
0.9
  0
CIRCLE
  5
36A
100
AcDbEntity
  8
0
100
AcDbCircle
 62
7
  6
CONTINUOUS
 10
74.8675982991
 20
70.3635666768
 40
0.9
  0
CIRCLE
  5
36B
100
AcDbEntity
  8
0
100
AcDbCircle
 62
7
  6
CONTINUOUS
 10
77.1377722683
 20
69.5154607551
 40
0.9
  0
CIRCLE
  5
36C
100
AcDbEntity
  8
0
100
AcDbCircle
 62
7
  6
CONTINUOUS
 10
79.4471022015
 20
68.7806350857
 40
0.9
  0
CIRCLE
  5
36D
100
AcDbEntity
  8
0
100
AcDbCircle
 62
7
  6
CONTINUOUS
 10
81.7899393551
 20
68.1608870912
 40
0.9
  0
CIRCLE
  5
36E
100
AcDbEntity
  8
0
100
AcDbCircle
 62
7
  6
CONTINUOUS
 10
84.1605530249
 20
67.657732708
 40
0.9
  0
CIRCLE
  5
36F
100
AcDbEntity
  8
0
100
AcDbCircle
 62
7
  6
CONTINUOUS
 10
86.5531445641
 20
67.2724026787
 40
0.9
  0
CIRCLE
  5
370
100
AcDbEntity
  8
0
100
AcDbCircle
 62
7
  6
CONTINUOUS
 10
88.9618615667
 20
67.0058395408
 40
0.9
  0
CIRCLE
  5
371
100
AcDbEntity
  8
0
100
AcDbCircle
 62
7
  6
CONTINUOUS
 10
91.3808121829
 20
66.8586953219
 40
0.9
  0
CIRCLE
  5
372
100
AcDbEntity
  8
0
100
AcDbCircle
 62
7
  6
CONTINUOUS
 10
51.2212236074
 20
141.1912065224
 40
0.9
  0
CIRCLE
  5
373
100
AcDbEntity
  8
0
100
AcDbCircle
 62
7
  6
CONTINUOUS
 10
50.0184246412
 20
139.0873414716
 40
0.9
  0
CIRCLE
  5
374
100
AcDbEntity
  8
0
100
AcDbCircle
 62
7
  6
CONTINUOUS
 10
48.9211170035
 20
136.9265801583
 40
0.9
  0
CIRCLE
  5
375
100
AcDbEntity
  8
0
100
AcDbCircle
 62
7
  6
CONTINUOUS
 10
47.931984767
 20
134.7142079194
 40
0.9
  0
CIRCLE
  5
376
100
AcDbEntity
  8
0
100
AcDbCircle
 62
7
  6
CONTINUOUS
 10
47.0534474017
 20
132.4556363348
 40
0.9
  0
CIRCLE
  5
377
100
AcDbEntity
  8
0
100
AcDbCircle
 62
7
  6
CONTINUOUS
 10
46.2876538567
 20
130.1563899906
 40
0.9
  0
CIRCLE
  5
378
100
AcDbEntity
  8
0
100
AcDbCircle
 62
7
  6
CONTINUOUS
 10
45.6364773036
 20
127.8220929654
 40
0.9
  0
CIRCLE
  5
379
100
AcDbEntity
  8
0
100
AcDbCircle
 62
7
  6
CONTINUOUS
 10
45.1015105549
 20
125.4584550738
 40
0.9
  0
CIRCLE
  5
37A
100
AcDbEntity
  8
0
100
AcDbCircle
 62
7
  6
CONTINUOUS
 10
44.6840621677
 20
123.0712578995
 40
0.9
  0
CIRCLE
  5
37B
100
AcDbEntity
  8
0
100
AcDbCircle
 62
7
  6
CONTINUOUS
 10
44.3851532428
 20
120.6663406536
 40
0.9
  0
CIRCLE
  5
37C
100
AcDbEntity
  8
0
100
AcDbCircle
 62
7
  6
CONTINUOUS
 10
44.2055149274
 20
118.2495858914
 40
0.9
  0
CIRCLE
  5
37D
100
AcDbEntity
  8
0
100
AcDbCircle
 62
7
  6
CONTINUOUS
 10
66.2291743451
 20
156.7720727248
 40
0.9
  0
CIRCLE
  5
37E
100
AcDbEntity
  8
0
100
AcDbCircle
 62
7
  6
CONTINUOUS
 10
64.2376638302
 20
155.3911819349
 40
0.9
  0
CIRCLE
  5
37F
100
AcDbEntity
  8
0
100
AcDbCircle
 62
7
  6
CONTINUOUS
 10
62.3168636295
 20
153.9135148227
 40
0.9
  0
CIRCLE
  5
380
100
AcDbEntity
  8
0
100
AcDbCircle
 62
7
  6
CONTINUOUS
 10
60.4714721225
 20
152.3426858407
 40
0.9
  0
CIRCLE
  5
381
100
AcDbEntity
  8
0
100
AcDbCircle
 62
7
  6
CONTINUOUS
 10
58.7060032347
 20
150.6825373199
 40
0.9
  0
CIRCLE
  5
382
100
AcDbEntity
  8
0
100
AcDbCircle
 62
7
  6
CONTINUOUS
 10
57.0247753968
 20
148.9371300717
 40
0.9
  0
CIRCLE
  5
383
100
AcDbEntity
  8
0
100
AcDbCircle
 62
7
  6
CONTINUOUS
 10
55.4319009814
 20
147.110733455
 40
0.9
  0
CIRCLE
  5
384
100
AcDbEntity
  8
0
100
AcDbCircle
 62
7
  6
CONTINUOUS
 10
53.9312762438
 20
145.2078149328
 40
0.9
  0
CIRCLE
  5
385
100
AcDbEntity
  8
0
100
AcDbCircle
 62
7
  6
CONTINUOUS
 10
52.5265717919
 20
143.233029145
 40
0.9
  0
CIRCLE
  5
386
100
AcDbEntity
  8
0
100
AcDbCircle
 62
7
  6
CONTINUOUS
 10
91.310732182
 20
164.7925390841
 40
0.9
  0
CIRCLE
  5
387
100
AcDbEntity
  8
0
100
AcDbCircle
 62
7
  6
CONTINUOUS
 10
88.8919946314
 20
164.6419330876
 40
0.9
  0
CIRCLE
  5
388
100
AcDbEntity
  8
0
100
AcDbCircle
 62
7
  6
CONTINUOUS
 10
86.4836615927
 20
164.3719229403
 40
0.9
  0
CIRCLE
  5
389
100
AcDbEntity
  8
0
100
AcDbCircle
 62
7
  6
CONTINUOUS
 10
84.0916239764
 20
163.9831691016
 40
0.9
  0
CIRCLE
  5
38A
100
AcDbEntity
  8
0
100
AcDbCircle
 62
7
  6
CONTINUOUS
 10
81.7217328336
 20
163.4766224838
 40
0.9
  0
CIRCLE
  5
38B
100
AcDbEntity
  8
0
100
AcDbCircle
 62
7
  6
CONTINUOUS
 10
79.3797850438
 20
162.8535221269
 40
0.9
  0
CIRCLE
  5
38C
100
AcDbEntity
  8
0
100
AcDbCircle
 62
7
  6
CONTINUOUS
 10
77.0715091357
 20
162.1153921674
 40
0.9
  0
CIRCLE
  5
38D
100
AcDbEntity
  8
0
100
AcDbCircle
 62
7
  6
CONTINUOUS
 10
74.8025512747
 20
161.2640381105
 40
0.9
  0
CIRCLE
  5
38E
100
AcDbEntity
  8
0
100
AcDbCircle
 62
7
  6
CONTINUOUS
 10
72.5784614523
 20
160.3015424134
 40
0.9
  0
CIRCLE
  5
38F
100
AcDbEntity
  8
0
100
AcDbCircle
 62
7
  6
CONTINUOUS
 10
70.4046799104
 20
159.2302593917
 40
0.9
  0
CIRCLE
  5
390
100
AcDbEntity
  8
0
100
AcDbCircle
 62
7
  6
CONTINUOUS
 10
68.2865238339
 20
158.0528094605
 40
0.9
  0
CIRCLE
  5
391
100
AcDbEntity
  8
0
100
AcDbCircle
 62
7
  6
CONTINUOUS
 10
93.8040795312
 20
66.8313299447
 40
0.9
  0
CIRCLE
  5
392
100
AcDbEntity
  8
0
100
AcDbCircle
 62
7
  6
CONTINUOUS
 10
96.2257361708
 20
66.9238103463
 40
0.9
  0
CIRCLE
  5
393
100
AcDbEntity
  8
0
100
AcDbCircle
 62
7
  6
CONTINUOUS
 10
98.6398586011
 20
67.1359103146
 40
0.9
  0
CIRCLE
  5
394
100
AcDbEntity
  8
0
100
AcDbCircle
 62
7
  6
CONTINUOUS
 10
101.0405417503
 20
67.4671110421
 40
0.9
  0
CIRCLE
  5
395
100
AcDbEntity
  8
0
100
AcDbCircle
 62
7
  6
CONTINUOUS
 10
103.4219134201
 20
67.916602394
 40
0.9
  0
CIRCLE
  5
396
100
AcDbEntity
  8
0
100
AcDbCircle
 62
7
  6
CONTINUOUS
 10
105.7781486488
 20
68.4832848906
 40
0.9
  0
CIRCLE
  5
397
100
AcDbEntity
  8
0
100
AcDbCircle
 62
7
  6
CONTINUOUS
 10
108.1034839599
 20
69.1657723965
 40
0.9
  0
CIRCLE
  5
398
100
AcDbEntity
  8
0
100
AcDbCircle
 62
7
  6
CONTINUOUS
 10
110.3922314598
 20
69.962395511
 40
0.9
  0
CIRCLE
  5
399
100
AcDbEntity
  8
0
100
AcDbCircle
 62
7
  6
CONTINUOUS
 10
112.6387927506
 20
70.8712056517
 40
0.9
  0
CIRCLE
  5
39A
100
AcDbEntity
  8
0
100
AcDbCircle
 62
7
  6
CONTINUOUS
 10
114.837672624
 20
71.8899798206
 40
0.9
  0
CIRCLE
  5
39B
100
AcDbEntity
  8
0
100
AcDbCircle
 62
7
  6
CONTINUOUS
 10
116.9834925031
 20
73.0162260421
 40
0.9
  0
CIRCLE
  5
39C
100
AcDbEntity
  8
0
100
AcDbCircle
 62
7
  6
CONTINUOUS
 10
93.1455866263
 20
115.8269051234
 40
51.5
  0
CIRCLE
  5
39D
100
AcDbEntity
  8
DEFAULT_1
100
AcDbCircle
 62
7
  6
CENTER
 10
93.1455866263
 20
115.8269051234
 40
49.0
  0
CIRCLE
  5
39E
100
AcDbEntity
  8
0
100
AcDbCircle
 62
7
  6
CONTINUOUS
 10
93.1455866263
 20
115.8269051234
 40
36.0
  0
CIRCLE
  5
39F
100
AcDbEntity
  8
0
100
AcDbCircle
 62
7
  6
CONTINUOUS
 10
119.0710035986
 20
74.247189458
 40
0.9
  0
CIRCLE
  5
3A0
100
AcDbEntity
  8
0
100
AcDbCircle
 62
7
  6
CONTINUOUS
 10
121.0950997473
 20
75.5798590666
 40
0.9
  0
CIRCLE
  5
3A1
100
AcDbEntity
  8
0
100
AcDbCircle
 62
7
  6
CONTINUOUS
 10
123.0508299027
 20
77.0109750871
 40
0.9
  0
CIRCLE
  5
3A2
100
AcDbEntity
  8
0
100
AcDbCircle
 62
7
  6
CONTINUOUS
 10
124.9334102449
 20
78.5370369339
 40
0.9
  0
CIRCLE
  5
3A3
100
AcDbEntity
  8
0
100
AcDbCircle
 62
7
  6
CONTINUOUS
 10
126.7382358824
 20
80.1543117785
 40
0.9
  0
CIRCLE
  5
3A4
100
AcDbEntity
  8
0
100
AcDbCircle
 62
7
  6
CONTINUOUS
 10
128.460892116
 20
81.8588436808
 40
0.9
  0
CIRCLE
  5
3A5
100
AcDbEntity
  8
0
100
AcDbCircle
 62
7
  6
CONTINUOUS
 10
130.0971652369
 20
83.6464632653
 40
0.9
  0
CIRCLE
  5
3A6
100
AcDbEntity
  8
0
100
AcDbCircle
 62
7
  6
CONTINUOUS
 10
131.6430528342
 20
85.5127979194
 40
0.9
  0
CIRCLE
  5
3A7
100
AcDbEntity
  8
0
100
AcDbCircle
 62
7
  6
CONTINUOUS
 10
133.0947735847
 20
87.4532824897
 40
0.9
  0
CIRCLE
  5
3A8
100
AcDbEntity
  8
0
100
AcDbCircle
 62
7
  6
CONTINUOUS
 10
134.4487765025
 20
89.4631704477
 40
0.9
  0
CIRCLE
  5
3A9
100
AcDbEntity
  8
0
100
AcDbCircle
 62
7
  6
CONTINUOUS
 10
135.7017496244
 20
91.5375455007
 40
0.9
  0
CIRCLE
  5
3AA
100
AcDbEntity
  8
0
100
AcDbCircle
 62
7
  6
CONTINUOUS
 10
136.8506281117
 20
93.6713336173
 40
0.9
  0
CIRCLE
  5
3AB
100
AcDbEntity
  8
0
100
AcDbCircle
 62
7
  6
CONTINUOUS
 10
137.8926017465
 20
95.8593154383
 40
0.9
  0
CIRCLE
  5
3AC
100
AcDbEntity
  8
0
100
AcDbCircle
 62
7
  6
CONTINUOUS
 10
138.8251218061
 20
98.0961390441
 40
0.9
  0
CIRCLE
  5
3AD
100
AcDbEntity
  8
0
100
AcDbCircle
 62
7
  6
CONTINUOUS
 10
139.6459072968
 20
100.3763330453
 40
0.9
  0
CIRCLE
  5
3AE
100
AcDbEntity
  8
0
100
AcDbCircle
 62
7
  6
CONTINUOUS
 10
140.3529505338
 20
102.6943199664
 40
0.9
  0
CIRCLE
  5
3AF
100
AcDbEntity
  8
0
100
AcDbCircle
 62
7
  6
CONTINUOUS
 10
140.9445220517
 20
105.0444298881
 40
0.9
  0
CIRCLE
  5
3B0
100
AcDbEntity
  8
0
100
AcDbCircle
 62
7
  6
CONTINUOUS
 10
141.4191748352
 20
107.4209143168
 40
0.9
  0
CIRCLE
  5
3B1
100
AcDbEntity
  8
0
100
AcDbCircle
 62
7
  6
CONTINUOUS
 10
141.7757478583
 20
109.8179602455
 40
0.9
  0
CIRCLE
  5
3B2
100
AcDbEntity
  8
0
100
AcDbCircle
 62
7
  6
CONTINUOUS
 10
142.0133689246
 20
112.2297043724
 40
0.9
  0
CIRCLE
  5
3B3
100
AcDbEntity
  8
0
100
AcDbCircle
 62
7
  6
CONTINUOUS
 10
142.1314568003
 20
114.6502474434
 40
0.9
  0
CIRCLE
  5
3B4
100
AcDbEntity
  8
0
100
AcDbCircle
 62
7
  6
CONTINUOUS
 10
116.9221987521
 20
158.6716564451
 40
0.9
  0
CIRCLE
  5
3B5
100
AcDbEntity
  8
0
100
AcDbCircle
 62
7
  6
CONTINUOUS
 10
114.7747692213
 20
159.7948304812
 40
0.9
  0
CIRCLE
  5
3B6
100
AcDbEntity
  8
0
100
AcDbCircle
 62
7
  6
CONTINUOUS
 10
112.5744335613
 20
160.810456637
 40
0.9
  0
CIRCLE
  5
3B7
100
AcDbEntity
  8
0
100
AcDbCircle
 62
7
  6
CONTINUOUS
 10
110.32657391
 20
161.7160506369
 40
0.9
  0
CIRCLE
  5
3B8
100
AcDbEntity
  8
0
100
AcDbCircle
 62
7
  6
CONTINUOUS
 10
108.0366886513
 20
162.50939735
 40
0.9
  0
CIRCLE
  5
3B9
100
AcDbEntity
  8
0
100
AcDbCircle
 62
7
  6
CONTINUOUS
 10
105.7103789663
 20
163.1885562079
 40
0.9
  0
CIRCLE
  5
3BA
100
AcDbEntity
  8
0
100
AcDbCircle
 62
7
  6
CONTINUOUS
 10
103.353335132
 20
163.7518659522
 40
0.9
  0
CIRCLE
  5
3BB
100
AcDbEntity
  8
0
100
AcDbCircle
 62
7
  6
CONTINUOUS
 10
100.9713226027
 20
164.1979486973
 40
0.9
  0
CIRCLE
  5
3BC
100
AcDbEntity
  8
0
100
AcDbCircle
 62
7
  6
CONTINUOUS
 10
98.5701679077
 20
164.525713301
 40
0.9
  0
CIRCLE
  5
3BD
100
AcDbEntity
  8
0
100
AcDbCircle
 62
7
  6
CONTINUOUS
 10
96.1557443988
 20
164.7343580338
 40
0.9
  0
CIRCLE
  5
3BE
100
AcDbEntity
  8
0
100
AcDbCircle
 62
7
  6
CONTINUOUS
 10
93.7339578841
 20
164.8233725396
 40
0.9
  0
CIRCLE
  5
3BF
100
AcDbEntity
  8
0
100
AcDbCircle
 62
7
  6
CONTINUOUS
 10
142.1297226361
 20
117.0736686816
 40
0.9
  0
CIRCLE
  5
3C0
100
AcDbEntity
  8
0
100
AcDbCircle
 62
7
  6
CONTINUOUS
 10
142.008170674
 20
119.4940402699
 40
0.9
  0
CIRCLE
  5
3C1
100
AcDbEntity
  8
0
100
AcDbCircle
 62
7
  6
CONTINUOUS
 10
141.7670982364
 20
121.9054418509
 40
0.9
  0
CIRCLE
  5
3C2
100
AcDbEntity
  8
0
100
AcDbCircle
 62
7
  6
CONTINUOUS
 10
141.4070949994
 20
124.3019750082
 40
0.9
  0
CIRCLE
  5
3C3
100
AcDbEntity
  8
0
100
AcDbCircle
 62
7
  6
CONTINUOUS
 10
140.92904155
 20
126.6777776946
 40
0.9
  0
CIRCLE
  5
3C4
100
AcDbEntity
  8
0
100
AcDbCircle
 62
7
  6
CONTINUOUS
 10
140.3341072323
 20
129.0270385704
 40
0.9
  0
CIRCLE
  5
3C5
100
AcDbEntity
  8
0
100
AcDbCircle
 62
7
  6
CONTINUOUS
 10
139.6237472873
 20
131.3440112188
 40
0.9
  0
CIRCLE
  5
3C6
100
AcDbEntity
  8
0
100
AcDbCircle
 62
7
  6
CONTINUOUS
 10
138.799699293
 20
133.6230282016
 40
0.9
  0
CIRCLE
  5
3C7
100
AcDbEntity
  8
0
100
AcDbCircle
 62
7
  6
CONTINUOUS
 10
137.8639789147
 20
135.8585149224
 40
0.9
  0
CIRCLE
  5
3C8
100
AcDbEntity
  8
0
100
AcDbCircle
 62
7
  6
CONTINUOUS
 10
136.8188749742
 20
138.0450032618
 40
0.9
  0
CIRCLE
  5
3C9
100
AcDbEntity
  8
0
100
AcDbCircle
 62
7
  6
CONTINUOUS
 10
135.666943851
 20
140.1771449532
 40
0.9
  0
CIRCLE
  5
3CA
100
AcDbEntity
  8
0
100
AcDbCircle
 62
7
  6
CONTINUOUS
 10
134.41100323
 20
142.2497246649
 40
0.9
  0
CIRCLE
  5
3CB
100
AcDbEntity
  8
0
100
AcDbCircle
 62
7
  6
CONTINUOUS
 10
133.0541252086
 20
144.2576727569
 40
0.9
  0
CIRCLE
  5
3CC
100
AcDbEntity
  8
0
100
AcDbCircle
 62
7
  6
CONTINUOUS
 10
131.5996287824
 20
146.1960776814
 40
0.9
  0
CIRCLE
  5
3CD
100
AcDbEntity
  8
0
100
AcDbCircle
 62
7
  6
CONTINUOUS
 10
130.0510717271
 20
148.060197997
 40
0.9
  0
CIRCLE
  5
3CE
100
AcDbEntity
  8
0
100
AcDbCircle
 62
7
  6
CONTINUOUS
 10
128.4122418953
 20
149.8454739666
 40
0.9
  0
CIRCLE
  5
3CF
100
AcDbEntity
  8
0
100
AcDbCircle
 62
7
  6
CONTINUOUS
 10
126.6871479519
 20
151.5475387102
 40
0.9
  0
CIRCLE
  5
3D0
100
AcDbEntity
  8
0
100
AcDbCircle
 62
7
  6
CONTINUOUS
 10
124.8800095683
 20
153.1622288871
 40
0.9
  0
CIRCLE
  5
3D1
100
AcDbEntity
  8
0
100
AcDbCircle
 62
7
  6
CONTINUOUS
 10
122.9952471009
 20
154.6855948794
 40
0.9
  0
CIRCLE
  5
3D2
100
AcDbEntity
  8
0
100
AcDbCircle
 62
7
  6
CONTINUOUS
 10
121.0374707788
 20
156.1139104529
 40
0.9
  0
CIRCLE
  5
3D3
100
AcDbEntity
  8
0
100
AcDbCircle
 62
7
  6
CONTINUOUS
 10
119.0114694269
 20
157.443681872
 40
0.9
  0
ENDSEC
  0
SECTION
  2
OBJECTS
  0
DICTIONARY
  5
C
100
AcDbDictionary
280
0
281
1
  3
ACAD_GROUP
350
D
  3
ACAD_MLINESTYLE
350
17
  3
ACAD_LAYOUT
350
1A
  3
ACAD_PLOTSETTINGS
350
19
  3
ACAD_PLOTSTYLENAME
350
E
  0
DICTIONARY
  5
D
102
{ACAD_REACTORS
330
C
102
}
100
AcDbDictionary
280
0
281
1
  0
ACDBDICTIONARYWDFLT
  5
E
102
{ACAD_REACTORS
330
C
102
}
100
AcDbDictionary
281
1
  3
Normal
350
F
100
AcDbDictionaryWithDefault
340
F
  0
DICTIONARY
  5
17
102
{ACAD_REACTORS
330
C
102
}
100
AcDbDictionary
280
0
281
1
  3
Standard
350
18
  0
DICTIONARY
  5
19
102
{ACAD_REACTORS
330
C
102
}
100
AcDbDictionary
281
1
  0
DICTIONARY
  5
1A
102
{ACAD_REACTORS
330
C
102
}
100
AcDbDictionary
281
1
  3
Model
350
3D4
  3
Layout1
350
3D5
  0
ACDBPLACEHOLDER
  5
F
102
{ACAD_REACTORS
330
E
102
}
  0
MLINESTYLE
  5
18
102
{ACAD_REACTORS
330
17
102
}
100
AcDbMlineStyle
  2
STANDARD
 70
0
  3

 62
256
 51
90.0
 52
90.0
 71
2
 49
0.5
 62
256
  6
BYLAYER
 49
-0.5
 62
256
  6
BYLAYER
  0
LAYOUT
  5
3D4
102
{ACAD_REACTORS
330
1A
102
}
100
AcDbPlotSettings
  1

  2
none_device
  4
ISO_A4_(297.00_x_210.00_MM)
  6

 40
0.0
 41
0.0
 42
0.0
 43
0.0
 44
297.0
 45
210.0
 46
0.0
 47
0.0
 48
0.0
 49
0.0
140
0.0
141
0.0
142
1.0
143
1.0
 70
1024
 72
1
 73
0
 74
0
  7

 75
0
147
1.0
148
0.0
149
0.0
100
AcDbLayout
  1
Model
 70
0
 71
0
 10
0.0
 20
0.0
 11
297.0
 21
210.0
 12
0.0
 22
0.0
 32
0.0
 14
0.0
 24
0.0
 34
0.0
 15
0.0
 25
0.0
 35
0.0
146
0.0
 13
0.0
 23
0.0
 33
0.0
 16
1.0
 26
0.0
 36
0.0
 17
0.0
 27
1.0
 37
0.0
 76
0
330
209
345
0
346
0
  0
LAYOUT
  5
3D5
102
{ACAD_REACTORS
330
1A
102
}
100
AcDbPlotSettings
  1

  2
none_device
  4
ISO_A4_(297.00_x_210.00_MM)
  6

 40
0.0
 41
0.0
 42
0.0
 43
0.0
 44
297.0
 45
210.0
 46
0.0
 47
0.0
 48
0.0
 49
0.0
140
0.0
141
0.0
142
1.0
143
1.0
 70
0
 72
1
 73
0
 74
0
  7

 75
0
147
1.0
148
0.0
149
0.0
100
AcDbLayout
  1
Layout1
 70
0
 71
1
 10
0.0
 20
0.0
 11
297.0
 21
210.0
 12
0.0
 22
0.0
 32
0.0
 14
0.0
 24
0.0
 34
0.0
 15
0.0
 25
0.0
 35
0.0
146
0.0
 13
0.0
 23
0.0
 33
0.0
 16
1.0
 26
0.0
 36
0.0
 17
0.0
 27
1.0
 37
0.0
 76
0
330
20A
345
0
346
0
  0
ENDSEC
  0
EOF
