  0
SECTION
  2
HEADER
  9
$ACADVER
  1
AC1021
  9
$ACADMAINTVER
 70
    26
  9
$DWGCODEPAGE
  3
ANSI_1252
  9
$LASTSAVEDBY
  1
cwolf
  9
$INSBASE
 10
0.0
 20
0.0
 30
0.0
  9
$EXTMIN
 10
0.4995117705542569
 20
0.4988251134041022
 30
-0.0000000000022892
  9
$EXTMAX
 10
21.50048833189123
 20
16.50117496575831
 30
0.0000000000000001
  9
$LIMMIN
 10
0.0
 20
0.0
  9
$LIMMAX
 10
22.0
 20
17.0
  9
$ORTHOMODE
 70
     1
  9
$REGENMODE
 70
     1
  9
$FILLMODE
 70
     1
  9
$QTEXTMODE
 70
     0
  9
$MIRRTEXT
 70
     0
  9
$LTSCALE
 40
1.0
  9
$ATTMODE
 70
     1
  9
$TEXTSIZE
 40
0.12
  9
$TRACEWID
 40
0.05
  9
$TEXTSTYLE
  7
ROMANS
  9
$CLAYER
  8
GEOMETRY
  9
$CELTYPE
  6
BYLAYER
  9
$CECOLOR
 62
   256
  9
$CELTSCALE
 40
1.0
  9
$DISPSILH
 70
     1
  9
$DIMSCALE
 40
1.0
  9
$DIMASZ
 40
0.15
  9
$DIMEXO
 40
0.06
  9
$DIMDLI
 40
0.48
  9
$DIMRND
 40
0.0
  9
$DIMDLE
 40
0.0
  9
$DIMEXE
 40
0.06
  9
$DIMTP
 40
0.0
  9
$DIMTM
 40
0.0
  9
$DIMTXT
 40
0.12
  9
$DIMCEN
 40
0.0
  9
$DIMTSZ
 40
0.0
  9
$DIMTOL
 70
     0
  9
$DIMLIM
 70
     0
  9
$DIMTIH
 70
     1
  9
$DIMTOH
 70
     1
  9
$DIMSE1
 70
     0
  9
$DIMSE2
 70
     0
  9
$DIMTAD
 70
     0
  9
$DIMZIN
 70
     4
  9
$DIMBLK
  1

  9
$DIMASO
 70
     1
  9
$DIMSHO
 70
     1
  9
$DIMPOST
  1

  9
$DIMAPOST
  1

  9
$DIMALT
 70
     0
  9
$DIMALTD
 70
     2
  9
$DIMALTF
 40
25.4
  9
$DIMLFAC
 40
1.0
  9
$DIMTOFL
 70
     0
  9
$DIMTVP
 40
0.0
  9
$DIMTIX
 70
     0
  9
$DIMSOXD
 70
     0
  9
$DIMSAH
 70
     0
  9
$DIMBLK1
  1

  9
$DIMBLK2
  1

  9
$DIMSTYLE
  2
Deublin
  9
$DIMCLRD
 70
     0
  9
$DIMCLRE
 70
     0
  9
$DIMCLRT
 70
     0
  9
$DIMTFAC
 40
1.0
  9
$DIMGAP
 40
0.09
  9
$DIMJUST
 70
     0
  9
$DIMSD1
 70
     0
  9
$DIMSD2
 70
     0
  9
$DIMTOLJ
 70
     1
  9
$DIMTZIN
 70
     4
  9
$DIMALTZ
 70
     4
  9
$DIMALTTZ
 70
     4
  9
$DIMUPT
 70
     1
  9
$DIMDEC
 70
     3
  9
$DIMTDEC
 70
     3
  9
$DIMALTU
 70
     2
  9
$DIMALTTD
 70
     2
  9
$DIMTXSTY
  7
ROMANS
  9
$DIMAUNIT
 70
     0
  9
$DIMADEC
 70
     0
  9
$DIMALTRND
 40
0.0
  9
$DIMAZIN
 70
     1
  9
$DIMDSEP
 70
    46
  9
$DIMATFIT
 70
     3
  9
$DIMFRAC
 70
     0
  9
$DIMLDRBLK
  1

  9
$DIMLUNIT
 70
     2
  9
$DIMLWD
 70
    -2
  9
$DIMLWE
 70
    -2
  9
$DIMTMOVE
 70
     0
  9
$DIMFXL
 40
1.0
  9
$DIMFXLON
 70
     0
  9
$DIMJOGANG
 40
0.7853981633974483
  9
$DIMTFILL
 70
     0
  9
$DIMTFILLCLR
 70
     0
  9
$DIMARCSYM
 70
     0
  9
$DIMLTYPE
  6

  9
$DIMLTEX1
  6

  9
$DIMLTEX2
  6

  9
$LUNITS
 70
     2
  9
$LUPREC
 70
     4
  9
$SKETCHINC
 40
0.1
  9
$FILLETRAD
 40
0.15
  9
$AUNITS
 70
     0
  9
$AUPREC
 70
     0
  9
$MENU
  1
.
  9
$ELEVATION
 40
0.0
  9
$PELEVATION
 40
0.0
  9
$THICKNESS
 40
0.0
  9
$LIMCHECK
 70
     0
  9
$CHAMFERA
 40
0.0
  9
$CHAMFERB
 40
0.0
  9
$CHAMFERC
 40
0.0
  9
$CHAMFERD
 40
0.0
  9
$SKPOLY
 70
     0
  9
$TDCREATE
 40
2450375.702601632
  9
$TDUCREATE
 40
2450375.660934966
  9
$TDUPDATE
 40
2456370.286126250
  9
$TDUUPDATE
 40
2456370.244459584
  9
$TDINDWG
 40
0.3656456597
  9
$TDUSRTIMER
 40
0.3656456597
  9
$USRTIMER
 70
     1
  9
$ANGBASE
 50
0.0
  9
$ANGDIR
 70
     0
  9
$PDMODE
 70
     0
  9
$PDSIZE
 40
0.0
  9
$PLINEWID
 40
0.0
  9
$SPLFRAME
 70
     0
  9
$SPLINETYPE
 70
     6
  9
$SPLINESEGS
 70
     8
  9
$HANDSEED
  5
1C89
  9
$SURFTAB1
 70
     6
  9
$SURFTAB2
 70
     6
  9
$SURFTYPE
 70
     6
  9
$SURFU
 70
     6
  9
$SURFV
 70
     6
  9
$UCSBASE
  2

  9
$UCSNAME
  2

  9
$UCSORG
 10
0.0
 20
0.0
 30
0.0
  9
$UCSXDIR
 10
1.0
 20
0.0
 30
0.0
  9
$UCSYDIR
 10
0.0
 20
1.0
 30
0.0
  9
$UCSORTHOREF
  2

  9
$UCSORTHOVIEW
 70
     0
  9
$UCSORGTOP
 10
0.0
 20
0.0
 30
0.0
  9
$UCSORGBOTTOM
 10
0.0
 20
0.0
 30
0.0
  9
$UCSORGLEFT
 10
0.0
 20
0.0
 30
0.0
  9
$UCSORGRIGHT
 10
0.0
 20
0.0
 30
0.0
  9
$UCSORGFRONT
 10
0.0
 20
0.0
 30
0.0
  9
$UCSORGBACK
 10
0.0
 20
0.0
 30
0.0
  9
$PUCSBASE
  2

  9
$PUCSNAME
  2

  9
$PUCSORG
 10
0.0
 20
0.0
 30
0.0
  9
$PUCSXDIR
 10
1.0
 20
0.0
 30
0.0
  9
$PUCSYDIR
 10
0.0
 20
1.0
 30
0.0
  9
$PUCSORTHOREF
  2

  9
$PUCSORTHOVIEW
 70
     0
  9
$PUCSORGTOP
 10
0.0
 20
0.0
 30
0.0
  9
$PUCSORGBOTTOM
 10
0.0
 20
0.0
 30
0.0
  9
$PUCSORGLEFT
 10
0.0
 20
0.0
 30
0.0
  9
$PUCSORGRIGHT
 10
0.0
 20
0.0
 30
0.0
  9
$PUCSORGFRONT
 10
0.0
 20
0.0
 30
0.0
  9
$PUCSORGBACK
 10
0.0
 20
0.0
 30
0.0
  9
$USERI1
 70
     0
  9
$USERI2
 70
     0
  9
$USERI3
 70
     0
  9
$USERI4
 70
     0
  9
$USERI5
 70
     0
  9
$USERR1
 40
1.0
  9
$USERR2
 40
0.0
  9
$USERR3
 40
0.0
  9
$USERR4
 40
0.0
  9
$USERR5
 40
0.0
  9
$WORLDVIEW
 70
     1
  9
$SHADEDGE
 70
     1
  9
$SHADEDIF
 70
    70
  9
$TILEMODE
 70
     1
  9
$MAXACTVP
 70
    16
  9
$PINSBASE
 10
0.0
 20
0.0
 30
0.0
  9
$PLIMCHECK
 70
     0
  9
$PEXTMIN
 10
1.000000000000000E+20
 20
1.000000000000000E+20
 30
1.000000000000000E+20
  9
$PEXTMAX
 10
-1.000000000000000E+20
 20
-1.000000000000000E+20
 30
-1.000000000000000E+20
  9
$PLIMMIN
 10
0.0
 20
0.0
  9
$PLIMMAX
 10
12.0
 20
9.0
  9
$UNITMODE
 70
     0
  9
$VISRETAIN
 70
     0
  9
$PLINEGEN
 70
     1
  9
$PSLTSCALE
 70
     1
  9
$TREEDEPTH
 70
  3020
  9
$CMLSTYLE
  2
STANDARD
  9
$CMLJUST
 70
     1
  9
$CMLSCALE
 40
1.0
  9
$PROXYGRAPHICS
 70
     1
  9
$MEASUREMENT
 70
     0
  9
$CELWEIGHT
370
    -1
  9
$ENDCAPS
280
     0
  9
$JOINSTYLE
280
     0
  9
$LWDISPLAY
290
     0
  9
$INSUNITS
 70
     0
  9
$HYPERLINKBASE
  1

  9
$STYLESHEET
  1
HP4V.ctb
  9
$XEDIT
290
     1
  9
$CEPSNTYPE
380
     0
  9
$PSTYLEMODE
290
     1
  9
$FINGERPRINTGUID
  2
{106A26CF-BE4E-11D5-AF5D-0050DAB0DA34}
  9
$VERSIONGUID
  2
{C80435D2-BE74-4C83-AEE7-FB81B20B2403}
  9
$EXTNAMES
290
     1
  9
$PSVPSCALE
 40
0.0
  9
$OLESTARTUP
290
     1
  9
$SORTENTS
280
    96
  9
$INDEXCTL
280
     0
  9
$HIDETEXT
280
     0
  9
$XCLIPFRAME
290
     0
  9
$HALOGAP
280
     0
  9
$OBSCOLOR
 70
   257
  9
$OBSLTYPE
280
     0
  9
$INTERSECTIONDISPLAY
280
     0
  9
$INTERSECTIONCOLOR
 70
   257
  9
$DIMASSOC
280
     1
  9
$PROJECTNAME
  1

  9
$CAMERADISPLAY
290
     0
  9
$LENSLENGTH
 40
50.0
  9
$CAMERAHEIGHT
 40
0.0
  9
$STEPSPERSEC
 40
2.0
  9
$STEPSIZE
 40
6.0
  9
$3DDWFPREC
 40
2.0
  9
$PSOLWIDTH
 40
0.25
  9
$PSOLHEIGHT
 40
4.0
  9
$LOFTANG1
 40
1.570796326794896
  9
$LOFTANG2
 40
1.570796326794896
  9
$LOFTMAG1
 40
0.0
  9
$LOFTMAG2
 40
0.0
  9
$LOFTPARAM
 70
     7
  9
$LOFTNORMALS
280
     1
  9
$LATITUDE
 40
37.795
  9
$LONGITUDE
 40
-122.394
  9
$NORTHDIRECTION
 40
0.0
  9
$TIMEZONE
 70
 -8000
  9
$LIGHTGLYPHDISPLAY
280
     1
  9
$TILEMODELIGHTSYNCH
280
     1
  9
$CMATERIAL
347
1B5F
  9
$SOLIDHIST
280
     1
  9
$SHOWHIST
280
     1
  9
$DWFFRAME
280
     2
  9
$DGNFRAME
280
     0
  9
$REALWORLDSCALE
290
     1
  9
$INTERFERECOLOR
 62
     1
  9
$INTERFEREOBJVS
345
1B81
  9
$INTERFEREVPVS
346
1B7E
  9
$CSHADOW
280
     0
  9
$SHADOWPLANELOCATION
 40
0.0
  0
ENDSEC
  0
SECTION
  2
CLASSES
  0
CLASS
  1
ACDBDICTIONARYWDFLT
  2
AcDbDictionaryWithDefault
  3
ObjectDBX Classes
 90
        0
 91
        1
280
     0
281
     0
  0
CLASS
  1
PLOTSETTINGS
  2
AcDbPlotSettings
  3
ObjectDBX Classes
 90
        0
 91
       27
280
     0
281
     0
  0
CLASS
  1
DICTIONARYVAR
  2
AcDbDictionaryVar
  3
ObjectDBX Classes
 90
        0
 91
        7
280
     0
281
     0
  0
CLASS
  1
MATERIAL
  2
AcDbMaterial
  3
ObjectDBX Classes
 90
     1153
 91
        3
280
     0
281
     0
  0
CLASS
  1
VISUALSTYLE
  2
AcDbVisualStyle
  3
ObjectDBX Classes
 90
     4095
 91
       16
280
     0
281
     0
  0
CLASS
  1
TABLESTYLE
  2
AcDbTableStyle
  3
ObjectDBX Classes
 90
     4095
 91
        1
280
     0
281
     0
  0
CLASS
  1
SCALE
  2
AcDbScale
  3
ObjectDBX Classes
 90
     1153
 91
       33
280
     0
281
     0
  0
CLASS
  1
MLEADERSTYLE
  2
AcDbMLeaderStyle
  3
ACDB_MLEADERSTYLE_CLASS
 90
     4095
 91
        1
280
     0
281
     0
  0
CLASS
  1
ACME_DOCUMENT
  2
AcMeDbDoc
  3
AcMeServices
 90
     1024
 91
        2
280
     0
281
     0
  0
CLASS
  1
AMGSETTINGSOBJ
  2
AmgSettingsObj
  3
"AcadM|Product Description: AutoCAD Mechanical|Company: Autodesk, Inc."
 90
     1024
 91
        2
280
     0
281
     0
  0
CLASS
  1
ACMESCOPE
  2
AcMeScope
  3
AcMeServices
 90
     1024
 91
        1
280
     0
281
     0
  0
CLASS
  1
ACMECOMMANDHISTORY
  2
AcMeCommandHistory
  3
AcMeServices
 90
     1024
 91
        1
280
     0
281
     0
  0
CLASS
  1
ACIMSYSVARMAN
  2
AcImSysVarManager
  3
AcMeServices
 90
     1024
 91
        5
280
     0
281
     0
  0
CLASS
  1
ACIMINTSYSVAR
  2
AcImIntSysVar
  3
AcMeServices
 90
     1024
 91
       27
280
     0
281
     0
  0
CLASS
  1
ACMEDRAWINGMAN
  2
AcMeDrawingMan
  3
AcMeServices
 90
     1024
 91
        1
280
     0
281
     0
  0
CLASS
  1
ACMEVIEW
  2
AcMeView
  3
AcMeServices
 90
     1024
 91
        1
280
     0
281
     0
  0
CLASS
  1
ACDBENTITYCACHE
  2
AcMeEntityCache
  3
AcMeServices
 90
     1024
 91
        1
280
     0
281
     0
  0
CLASS
  1
GSMANAGER
  2
AcMeGSManager
  3
AcMeServices
 90
     1024
 91
        1
280
     0
281
     0
  0
CLASS
  1
AMDTINTERNALREACTOR
  2
AmdtInternalReactor
  3
AcMeServices
 90
     1024
 91
        2
280
     0
281
     0
  0
CLASS
  1
ACMESTATEMGR
  2
AcMeStateMgr
  3
AcMeServices
 90
     1024
 91
        1
280
     0
281
     0
  0
CLASS
  1
ACGREFMASTER
  2
AcGrefMaster
  3
AcAttribServices
 90
     1024
 91
        1
280
     0
281
     0
  0
CLASS
  1
AM_DRAWING_MGR
  2
AcDmDwgMgr
  3
AcMechDwgViewMgmt
 90
     1024
 91
        1
280
     0
281
     0
  0
CLASS
  1
AM_DWG_DOCUMENT
  2
AcDmDwgDocument
  3
AcMechDwgViewMgmt
 90
     1024
 91
        1
280
     0
281
     0
  0
CLASS
  1
AM_DWG_SHEET
  2
AcDmSheet
  3
AcMechDwgViewMgmt
 90
     1024
 91
        1
280
     0
281
     0
  0
CLASS
  1
AM_VIEWDIMPARMAP
  2
AcDmViewDimParMap
  3
AcMechDwgViewMgmt
 90
     1024
 91
        1
280
     0
281
     0
  0
CLASS
  1
ACIMREALSYSVAR
  2
AcImRealSysVar
  3
AcMeServices
 90
     1024
 91
        1
280
     0
281
     0
  0
CLASS
  1
AM_DWGMGR_NAME
  2
AcDmDwgMgrName
  3
AcMechDwgViewMgmt
 90
     1024
 91
        1
280
     0
281
     0
  0
CLASS
  1
ACME_DATABASE
  2
AcMeDbDatabase
  3
AcMeServices
 90
     1024
 91
        1
280
     0
281
     0
  0
CLASS
  1
ACRFINSADJUSTERMGR
  2
AcRfInsAdjusterMgr
  3
AcMeServices
 90
     1024
 91
        1
280
     0
281
     0
  0
CLASS
  1
ACGREFACADMASTER
  2
AcGrefacadMaster
  3
AcGrefServices
 90
     1024
 91
        1
280
     0
281
     0
  0
CLASS
  1
AMDTMENUSTATEMGR
  2
AmdtMenuStateMgr
  3
McadcomServices
 90
     1024
 91
        1
280
     0
281
     0
  0
CLASS
  1
AMDTMCOMMENUSTATE
  2
AmdtMcomMenuState
  3
McadcomServices
 90
     1024
 91
        1
280
     0
281
     0
  0
CLASS
  1
AMIMASTER
  2
AmiMaster
  3
AmiServices
 90
     1024
 91
        1
280
     0
281
     0
  0
CLASS
  1
MAPIAMMOUDLE
  2
MApiAmModule
  3
MApiAmServices
 90
     1024
 91
        1
280
     0
281
     0
  0
CLASS
  1
ACIMSTRSYSVAR
  2
AcImStrSysVar
  3
AcMeServices
 90
     1024
 91
        5
280
     0
281
     0
  0
CLASS
  1
AMDTADMENUSTATE
  2
AmdtAdMenuState
  3
DesignerServices
 90
     1024
 91
        1
280
     0
281
     0
  0
CLASS
  1
ADAPPL
  2
AcAdAppl
  3
DesignerServices
 90
     1024
 91
        1
280
     0
281
     0
  0
CLASS
  1
DEPMGR
  2
AcAdDepMgr
  3
DesignerServices
 90
     1024
 91
        1
280
     0
281
     0
  0
CLASS
  1
PARAMMGR
  2
AcAdParamMgr
  3
DesignerServices
 90
     1024
 91
        1
280
     0
281
     0
  0
CLASS
  1
PARAMSCOPE
  2
AcAdParamScope
  3
DesignerServices
 90
     1024
 91
        1
280
     0
281
     0
  0
CLASS
  1
NAMEDAPPL
  2
AcAdNamedAppl
  3
DesignerServices
 90
     1024
 91
        1
280
     0
281
     0
  0
CLASS
  1
AMDTDMMENUSTATE
  2
AmdtDmMenuState
  3
AcMechDwgViewMgmt
 90
     1024
 91
        1
280
     0
281
     0
  0
CLASS
  1
AMDTAMMENUSTATE
  2
AmdtAmMenuState
  3
DesignerAssemblies
 90
     1024
 91
        1
280
     0
281
     0
  0
CLASS
  1
ACAMPROJECT
  2
AcAmProject
  3
DesignerAssemblies
 90
     1024
 91
        1
280
     0
281
     0
  0
CLASS
  1
ACAMGRCOMPDEF
  2
AcAmGrCompDef
  3
DesignerAssemblies
 90
     1024
 91
        1
280
     0
281
     0
  0
CLASS
  1
ACCMCONTEXT
  2
AcCmContext
  3
DesignerAssemblies
 90
     1024
 91
        1
280
     0
281
     0
  0
CLASS
  1
ACAMCOMPDEF
  2
AcAmCompDef
  3
DesignerAssemblies
 90
     1024
 91
        1
280
     0
281
     0
  0
CLASS
  1
ACAMCOMPDEFMGR
  2
AcAmCompDefMgr
  3
DesignerAssemblies
 90
     1024
 91
        1
280
     0
281
     0
  0
CLASS
  1
AMCONTEXTMGR
  2
AcAmContextMgr
  3
DesignerAssemblies
 90
     1024
 91
        1
280
     0
281
     0
  0
CLASS
  1
ACAMCONTEXTMODELER
  2
AcAmContextModeler
  3
DesignerAssemblies
 90
     1024
 91
        1
280
     0
281
     0
  0
CLASS
  1
ACMDATADICTIONARY
  2
AcmDataDictionary
  3
"AcmSymBB|Product Description: AutoCAD Mechanical|Company: Autodesk, Inc."
 90
     1024
 91
        1
280
     0
281
     0
  0
CLASS
  1
CATALOGSTATE
  2
AcAmCatalogState
  3
DesignerAssemblies
 90
     1024
 91
        1
280
     0
281
     0
  0
CLASS
  1
ACAMGRCOMPDEFSET
  2
AcAmGrCompDefSet
  3
DesignerAssemblies
 90
     1024
 91
        1
280
     0
281
     0
  0
CLASS
  1
AMDTBROWSERDBTAB
  2
AmdtBrowserDbTab
  3
McadcomServices
 90
     1024
 91
        1
280
     0
281
     0
  0
CLASS
  1
CBROWSERAPPOBJECT
  2
CBrowserAppObject
  3
McadcomServices
 90
     1024
 91
        3
280
     0
281
     0
  0
CLASS
  1
DM_PLACEHOLDER
  2
AcDmSelsetPlaceholder
  3
AcMechDwgViewMgmt
 90
     1024
 91
        1
280
     0
281
     0
  0
CLASS
  1
ACMSTANDARDANSI
  2
AcmStandardANSI
  3
"Amdt_StdImp|Product Description: AutoCAD Mechanical|Company: Autodesk, Inc."
 90
     1024
 91
        1
280
     0
281
     0
  0
CLASS
  1
AMGOBJPROPCFG
  2
AmgObjPropCfg
  3
"AmgLay|Product Description: AutoCAD Mechanical|Company: Autodesk, Inc."
 90
     1025
 91
        1
280
     0
281
     0
  0
CLASS
  1
ACMSURFSTANDARDANSI
  2
AcmSurfTextStdANSI
  3
"Amdt_StdImp|Product Description: AutoCAD Mechanical|Company: Autodesk, Inc."
 90
     1024
 91
        1
280
     0
281
     0
  0
CLASS
  1
ACMFCFSTANDARDANSI
  2
AcmFCFStdANSI
  3
"Amdt_StdImp|Product Description: AutoCAD Mechanical|Company: Autodesk, Inc."
 90
     1024
 91
        1
280
     0
281
     0
  0
CLASS
  1
ACMWELDSTANDARDANSI
  2
AcmWeldingStdANSI
  3
"Amdt_StdImp|Product Description: AutoCAD Mechanical|Company: Autodesk, Inc."
 90
     1024
 91
        1
280
     0
281
     0
  0
CLASS
  1
ACMIDSTANDARDANSI
  2
AcmIdStdANSI
  3
"Amdt_StdImp|Product Description: AutoCAD Mechanical|Company: Autodesk, Inc."
 90
     1024
 91
        1
280
     0
281
     0
  0
CLASS
  1
ACMDATUMSTANDARDANSI
  2
AcmDatumStdANSI
  3
"Amdt_StdImp|Product Description: AutoCAD Mechanical|Company: Autodesk, Inc."
 90
     1024
 91
        1
280
     0
281
     0
  0
CLASS
  1
ACMBOMSTANDARDANSI
  2
AcmBOMStdANSI
  3
"Amdt_StdImp|Product Description: AutoCAD Mechanical|Company: Autodesk, Inc."
 90
     1024
 91
        1
280
     0
281
     0
  0
CLASS
  1
ACMDETAILSTANDARDANSI
  2
AmdtDetailSymStdANSI
  3
"Amdt_StdImp|Product Description: AutoCAD Mechanical|Company: Autodesk, Inc."
 90
     1024
 91
        1
280
     0
281
     0
  0
CLASS
  1
ACMSECTIONSTANDARDANSI
  2
AmdtSectionSymStdANSI
  3
"Amdt_StdImp|Product Description: AutoCAD Mechanical|Company: Autodesk, Inc."
 90
     1024
 91
        1
280
     0
281
     0
  0
CLASS
  1
ACMCENTERLINESTANDARDANSI
  2
AmdtCenterLineStdANSI
  3
"Amdt_StdImp|Product Description: AutoCAD Mechanical|Company: Autodesk, Inc."
 90
     1024
 91
        1
280
     0
281
     0
  0
CLASS
  1
ACMTHREADLINESTANDARDANSI
  2
AmdtThreadLineStdANSI
  3
"Amdt_StdImp|Product Description: AutoCAD Mechanical|Company: Autodesk, Inc."
 90
     1024
 91
        1
280
     0
281
     0
  0
CLASS
  1
ACMNOTESTANDARDANSI
  2
AmdtNoteStdANSI
  3
"Amdt_StdImp|Product Description: AutoCAD Mechanical|Company: Autodesk, Inc."
 90
     1024
 91
        1
280
     0
281
     0
  0
CLASS
  1
ACMTAPERSTANDARDANSI
  2
AcmTaperStdANSI
  3
"Amdt_StdImp|Product Description: AutoCAD Mechanical|Company: Autodesk, Inc."
 90
     1024
 91
        1
280
     0
281
     0
  0
CLASS
  1
ACMANOOTATIONVIEWSTANDARDANSI
  2
AmdtAnViewStdANSI
  3
"Amdt_StdImp|Product Description: AutoCAD Mechanical|Company: Autodesk, Inc."
 90
     1024
 91
        1
280
     0
281
     0
  0
CLASS
  1
AMDTNOTETEMPLATEDB
  2
AmdtNoteTemplateDB
  3
AcmSymBB|Product Description: AutoCAD Mechanical|Company: Autodesk, Inc.
 90
     1024
 91
        6
280
     0
281
     0
  0
CLASS
  1
ACAMGLAYSTD
  2
AcAmgLayStd
  3
"AmgLay|Product Description: AutoCAD Mechanical|Company: Autodesk, Inc."
 90
     1024
 91
        1
280
     0
281
     0
  0
CLASS
  1
ACAMGDIMSTD
  2
AcAmgDimStd
  3
"AmgDim|Product Description: AutoCAD Mechanical|Company: Autodesk, Inc."
 90
     1024
 91
        1
280
     0
281
     0
  0
CLASS
  1
ACAMGHOLECHARTSTDANSI
  2
AcAmgHoleChartStdANSI
  3
AmgDim|Product Description: AutoCAD Mechanical|Company: Autodesk, Inc.
 90
     1024
 91
        1
280
     0
281
     0
  0
CLASS
  1
ACAMGTITLESTD
  2
AcAmgTitleStd
  3
"AmgTitle|Product Description: AutoCAD Mechanical|Company: Autodesk, Inc."
 90
     4095
 91
        1
280
     0
281
     0
  0
CLASS
  1
ACAMGFILTERDAT
  2
AcAmgFilterDat
  3
"AcadM|Product Description: AutoCAD Mechanical|Company: Autodesk, Inc."
 90
     1024
 91
        6
280
     0
281
     0
  0
CLASS
  1
CELLSTYLEMAP
  2
AcDbCellStyleMap
  3
ObjectDBX Classes
 90
     1152
 91
        1
280
     0
281
     0
  0
ENDSEC
  0
SECTION
  2
TABLES
  0
TABLE
  2
VPORT
  5
8
330
0
100
AcDbSymbolTable
 70
     1
  0
VPORT
  5
1B5A
330
8
100
AcDbSymbolTableRecord
100
AcDbViewportTableRecord
  2
*Active
 70
     0
 10
0.0
 20
0.0
 11
1.0
 21
1.0
 12
11.00000005122274
 22
8.500000039581204
 13
0.0
 23
0.0
 14
0.24
 24
0.24
 15
0.12
 25
0.12
 16
0.0
 26
0.0
 36
1.0
 17
0.0
 27
0.0
 37
0.0
 40
16.10384467171374
 41
1.971428571428571
 42
50.0
 43
0.0
 44
0.0
 50
0.0
 51
0.0
 71
     0
 72
 10000
 73
     1
 74
     0
 75
     0
 76
     0
 77
     0
 78
     0
281
     0
 65
     1
110
0.0
120
0.0
130
0.0
111
1.0
121
0.0
131
0.0
112
0.0
122
1.0
132
0.0
 79
     0
146
0.0
348
1B7D
 60
     3
 61
     5
292
     1
282
     1
141
0.0
142
0.0
 63
   250
421
  3355443
  0
ENDTAB
  0
TABLE
  2
LTYPE
  5
5
330
0
100
AcDbSymbolTable
 70
    18
  0
LTYPE
  5
13
330
5
100
AcDbSymbolTableRecord
100
AcDbLinetypeTableRecord
  2
BYBLOCK
 70
     0
  3

 72
    65
 73
     0
 40
0.0
  0
LTYPE
  5
14
330
5
100
AcDbSymbolTableRecord
100
AcDbLinetypeTableRecord
  2
BYLAYER
 70
     0
  3

 72
    65
 73
     0
 40
0.0
  0
LTYPE
  5
15
330
5
100
AcDbSymbolTableRecord
100
AcDbLinetypeTableRecord
  2
CONTINUOUS
 70
     0
  3
Solid line
 72
    65
 73
     0
 40
0.0
  0
LTYPE
  5
3E
330
5
100
AcDbSymbolTableRecord
100
AcDbLinetypeTableRecord
  2
HIDDEN2
 70
     0
  3
Hidden (.5x) _ _ _ _ _ _ _ _ _ _ _ _ _ _ _ _ _
 72
    65
 73
     2
 40
0.1875
 49
0.125
 74
     0
 49
-0.0625
 74
     0
  0
LTYPE
  5
DA1
330
5
100
AcDbSymbolTableRecord
100
AcDbLinetypeTableRecord
  2
CENTER2
 70
     0
  3
Center (.5x) ___ _ ___ _ ___ _ ___ _ ___ _ ___
 72
    65
 73
     4
 40
1.125
 49
0.75
 74
     0
 49
-0.125
 74
     0
 49
0.125
 74
     0
 49
-0.125
 74
     0
  0
LTYPE
  5
171B
330
5
100
AcDbSymbolTableRecord
100
AcDbLinetypeTableRecord
  2
PHANTOM2
 70
     0
  3
Phantom (.5x) ___ _ _ ___ _ _ ___ _ _ ___ _ _
 72
    65
 73
     6
 40
1.25
 49
0.625
 74
     0
 49
-0.125
 74
     0
 49
0.125
 74
     0
 49
-0.125
 74
     0
 49
0.125
 74
     0
 49
-0.125
 74
     0
  0
LTYPE
  5
1790
330
5
100
AcDbSymbolTableRecord
100
AcDbLinetypeTableRecord
  2
CENTERLINE-B
 70
     0
  3
__ _ __ _ __ _ __ _ __ _ __ _ __ _ __ _ __ _ __
 72
    65
 73
     4
 40
0.7400000000000001
 49
0.5
 74
     0
 49
-0.06
 74
     0
 49
0.12
 74
     0
 49
-0.06
 74
     0
  0
LTYPE
  5
1791
330
5
100
AcDbSymbolTableRecord
100
AcDbLinetypeTableRecord
  2
PHANTOM
 70
     0
  3
______  __  __  ______  __  __  ______  __  __ 
 72
    65
 73
     6
 40
2.5
 49
1.25
 74
     0
 49
-0.25
 74
     0
 49
0.25
 74
     0
 49
-0.25
 74
     0
 49
0.25
 74
     0
 49
-0.25
 74
     0
  0
LTYPE
  5
1BE8
330
5
100
AcDbSymbolTableRecord
100
AcDbLinetypeTableRecord
  2
HIDDEN
 70
     0
  3
Verdeckt
 72
    65
 73
     2
 40
0.375
 49
0.25
 74
     0
 49
-0.125
 74
     0
  0
LTYPE
  5
1BE9
330
5
100
AcDbSymbolTableRecord
100
AcDbLinetypeTableRecord
  2
CENTER
 70
     0
  3
Mitte ____ _ ____ _ ____ _ ____ _ ____ _ ____
 72
    65
 73
     4
 40
2.0
 49
1.25
 74
     0
 49
-0.25
 74
     0
 49
0.25
 74
     0
 49
-0.25
 74
     0
  0
LTYPE
  5
1C1E
330
5
100
AcDbSymbolTableRecord
100
AcDbLinetypeTableRecord
  2
AM_ISO02W050
 70
     0
  3
__ __ __ __ __ __ __ __ __ __ __ __ __ __ __
 72
    65
 73
     2
 40
7.5
 49
6.0
 74
     0
 49
-1.5
 74
     0
  0
LTYPE
  5
1C1F
330
5
100
AcDbSymbolTableRecord
100
AcDbLinetypeTableRecord
  2
AM_ISO08W050
 70
     0
  3
____ . ____ . ____ . ____ . ____ . ____ . ____
 72
    65
 73
     4
 40
18.0
 49
12.0
 74
     0
 49
-1.5
 74
     0
 49
3.0
 74
     0
 49
-1.5
 74
     0
  0
LTYPE
  5
1C20
330
5
100
AcDbSymbolTableRecord
100
AcDbLinetypeTableRecord
  2
AM_ISO09W050
 70
     0
  3
_____ . . _____ . . _____ . . ____ .. ____
 72
    65
 73
     6
 40
22.5
 49
12.0
 74
     0
 49
-1.5
 74
     0
 49
3.0
 74
     0
 49
-1.5
 74
     0
 49
3.0
 74
     0
 49
-1.5
 74
     0
  0
LTYPE
  5
1C21
330
5
100
AcDbSymbolTableRecord
100
AcDbLinetypeTableRecord
  2
Amconstr
 70
     0
  3
_______________________
 72
    65
 73
     2
 40
9999.0
 49
9999.0
 74
     0
 49
0.0
 74
     0
  0
LTYPE
  5
1C22
330
5
100
AcDbSymbolTableRecord
100
AcDbLinetypeTableRecord
  2
AM_ISO08W050x2
 70
     0
  3
__ . __ . __ . __ . __ . __
 72
    65
 73
     4
 40
9.0
 49
6.0
 74
     0
 49
-0.75
 74
     0
 49
1.5
 74
     0
 49
-0.75
 74
     0
  0
LTYPE
  5
1C23
330
5
100
AcDbSymbolTableRecord
100
AcDbLinetypeTableRecord
  2
AM_ISO02W050x2
 70
     0
  3
 _ _ _ _ _ _ _ _ _ _ _ _
 72
    65
 73
     2
 40
3.75
 49
3.0
 74
     0
 49
-0.75
 74
     0
  0
LTYPE
  5
1C26
330
5
100
AcDbSymbolTableRecord
100
AcDbLinetypeTableRecord
  2
Amzigzag
 70
     0
  3
/\/-/\/-/\/-/\/-/\/-/\/
 72
    65
 73
     2
 40
11.0001
 49
0.0001
 74
     4
 75
   136
340
1C25
 46
0.04
 50
0.0
 44
0.0
 45
0.0
 49
-11.0
 74
     0
  0
LTYPE
  5
1C27
330
5
100
AcDbSymbolTableRecord
100
AcDbLinetypeTableRecord
  2
Amzigzag2
 70
     0
  3
/\/-/\/-/\/-/\/-/\/-/\/
 72
    65
 73
     2
 40
0.4401
 49
0.0001
 74
     4
 75
   136
340
1C25
 46
0.0016
 50
0.0
 44
0.0
 45
0.0
 49
-0.4400000000000001
 74
     0
  0
LTYPE
  5
1C37
330
5
100
AcDbSymbolTableRecord
100
AcDbLinetypeTableRecord
  2
ACANSTGB
 70
     0
  3
__ . . __ . .
 72
    65
 73
     6
 40
0.35433070866
 49
0.15748031496
 74
     0
 49
-0.03937007874
 74
     0
 49
0.03937007874
 74
     0
 49
-0.03937007874
 74
     0
 49
0.03937007874
 74
     0
 49
-0.03937007874
 74
     0
  0
LTYPE
  5
1C38
330
5
100
AcDbSymbolTableRecord
100
AcDbLinetypeTableRecord
  2
ACANSTGL
 70
     0
  3
_ _ _ _ _
 72
    65
 73
     2
 40
0.11811023622
 49
0.07874015748
 74
     0
 49
-0.03937007874
 74
     0
  0
ENDTAB
  0
TABLE
  2
LAYER
  5
2
330
0
100
AcDbSymbolTable
 70
    13
  0
LAYER
  5
F
102
{ACAD_XDICTIONARY
360
1C69
102
}
330
2
100
AcDbSymbolTableRecord
100
AcDbLayerTableRecord
  2
0
 70
     0
 62
     2
  6
CONTINUOUS
370
    -3
390
D99
347
1B6F
  0
LAYER
  5
48
102
{ACAD_XDICTIONARY
360
1C6B
102
}
330
2
100
AcDbSymbolTableRecord
100
AcDbLayerTableRecord
  2
GEOMETRY
 70
     0
 62
     2
  6
CONTINUOUS
370
    -3
390
D99
347
1B6F
  0
LAYER
  5
49
102
{ACAD_XDICTIONARY
360
1C6D
102
}
330
2
100
AcDbSymbolTableRecord
100
AcDbLayerTableRecord
  2
DIMENSIONS
 70
     0
 62
     7
  6
CONTINUOUS
370
    -3
390
D99
347
1B6F
  0
LAYER
  5
4B
102
{ACAD_XDICTIONARY
360
1C6F
102
}
330
2
100
AcDbSymbolTableRecord
100
AcDbLayerTableRecord
  2
HATCH
 70
     0
 62
   253
  6
CONTINUOUS
370
    -3
390
D99
347
1B6F
  0
LAYER
  5
9D3
102
{ACAD_XDICTIONARY
360
1C71
102
}
330
2
100
AcDbSymbolTableRecord
100
AcDbLayerTableRecord
  2
HIDDEN
 70
     0
 62
     4
  6
HIDDEN2
370
    -3
390
D99
347
1B6F
  0
LAYER
  5
9D4
102
{ACAD_XDICTIONARY
360
1C73
102
}
330
2
100
AcDbSymbolTableRecord
100
AcDbLayerTableRecord
  2
CENTER
 70
     0
 62
     4
  6
CENTER2
370
    -3
390
D99
347
1B6F
  0
LAYER
  5
B49
330
2
100
AcDbSymbolTableRecord
100
AcDbLayerTableRecord
  2
DEFPOINTS
 70
     0
 62
     7
  6
CONTINUOUS
290
     0
370
    -3
390
D99
347
1B6F
  0
LAYER
  5
138D
102
{ACAD_XDICTIONARY
360
1C75
102
}
330
2
100
AcDbSymbolTableRecord
100
AcDbLayerTableRecord
  2
border
 70
     0
 62
    56
  6
CONTINUOUS
370
    -3
390
D99
347
1B6F
  0
LAYER
  5
1C5D
102
{ACAD_XDICTIONARY
360
1C77
102
}
330
2
100
AcDbSymbolTableRecord
100
AcDbLayerTableRecord
  2
ENGLISH
 70
     0
 62
    -2
  6
CONTINUOUS
370
    -3
390
D99
347
1B6F
  0
LAYER
  5
1C5E
102
{ACAD_XDICTIONARY
360
1C79
102
}
330
2
100
AcDbSymbolTableRecord
100
AcDbLayerTableRecord
  2
GERMAN
 70
     0
 62
     2
  6
CONTINUOUS
370
    -3
390
D99
347
1B6F
  0
LAYER
  5
1C5F
102
{ACAD_XDICTIONARY
360
1C7B
102
}
330
2
100
AcDbSymbolTableRecord
100
AcDbLayerTableRecord
  2
ITALIAN
 70
     0
 62
    -2
  6
CONTINUOUS
370
    -3
390
D99
347
1B6F
  0
LAYER
  5
1C60
102
{ACAD_XDICTIONARY
360
1C7D
102
}
330
2
100
AcDbSymbolTableRecord
100
AcDbLayerTableRecord
  2
JAPANESE
 70
     0
 62
    -2
  6
CONTINUOUS
370
    -3
390
D99
347
1B6F
  0
LAYER
  5
1C61
102
{ACAD_XDICTIONARY
360
1C7F
102
}
330
2
100
AcDbSymbolTableRecord
100
AcDbLayerTableRecord
  2
CHINESE
 70
     0
 62
    -2
  6
CONTINUOUS
370
    -3
390
D99
347
1B6F
  0
ENDTAB
  0
TABLE
  2
STYLE
  5
3
330
0
100
AcDbSymbolTable
 70
     7
  0
STYLE
  5
10
330
3
100
AcDbSymbolTableRecord
100
AcDbTextStyleTableRecord
  2
STANDARD
 70
     0
 40
0.0
 41
1.0
 50
0.0
 71
     0
 42
0.0
  3
txt
  4

  0
STYLE
  5
42
330
3
100
AcDbSymbolTableRecord
100
AcDbTextStyleTableRecord
  2
ROMANS
 70
     0
 40
0.0
 41
1.0
 50
0.0
 71
     0
 42
0.12
  3
romans
  4

  0
STYLE
  5
138E
330
3
100
AcDbSymbolTableRecord
100
AcDbTextStyleTableRecord
  2
BSIZE$0$ROMAND
 70
     0
 40
0.0
 41
1.0
 50
0.0
 71
     0
 42
0.0
  3
romand
  4

  0
STYLE
  5
1792
330
3
100
AcDbSymbolTableRecord
100
AcDbTextStyleTableRecord
  2
COMPLEX
 70
     0
 40
0.0
 41
1.0
 50
0.0
 71
     0
 42
0.0
  3
complex
  4

  0
STYLE
  5
1C25
330
3
100
AcDbSymbolTableRecord
100
AcDbTextStyleTableRecord
  2

 70
     1
 40
0.0
 41
1.0
 50
0.0
 71
     0
 42
0.12
  3
genltshp.shx
  4

  0
STYLE
  5
1C28
330
3
100
AcDbSymbolTableRecord
100
AcDbTextStyleTableRecord
  2
ACANSTS
 70
     0
 40
1.0
 41
1.0
 50
0.0
 71
     0
 42
0.12
  3
romans.shx
  4

  0
STYLE
  5
1C36
330
3
100
AcDbSymbolTableRecord
100
AcDbTextStyleTableRecord
  2
ACANSGDT
 70
     0
 40
0.0
 41
1.0
 50
0.0
 71
     0
 42
0.12
  3
amgdt.shx
  4

  0
ENDTAB
  0
TABLE
  2
VIEW
  5
6
330
0
100
AcDbSymbolTable
 70
     0
  0
ENDTAB
  0
TABLE
  2
UCS
  5
7
330
0
100
AcDbSymbolTable
 70
     1
  0
UCS
  5
4D
330
7
100
AcDbSymbolTableRecord
100
AcDbUCSTableRecord
  2
PD0
 70
     0
 10
0.0
 20
0.0
 30
0.0
 11
1.0
 21
0.0
 31
0.0
 12
0.0
 22
1.0
 32
0.0
 79
     0
146
0.0
  0
ENDTAB
  0
TABLE
  2
APPID
  5
9
330
0
100
AcDbSymbolTable
 70
    10
  0
APPID
  5
11
330
9
100
AcDbSymbolTableRecord
100
AcDbRegAppTableRecord
  2
ACAD
 70
     0
  0
APPID
  5
1BAE
330
9
100
AcDbSymbolTableRecord
100
AcDbRegAppTableRecord
  2
ACAD_MLEADERVER
 70
     0
  0
APPID
  5
1BBB
330
9
100
AcDbSymbolTableRecord
100
AcDbRegAppTableRecord
  2
MCAD_NO_VIS
 70
     0
  0
APPID
  5
1BBC
330
9
100
AcDbSymbolTableRecord
100
AcDbRegAppTableRecord
  2
ACAD_TEMP_GRAPHIC
 70
     0
  0
APPID
  5
1BEB
330
9
100
AcDbSymbolTableRecord
100
AcDbRegAppTableRecord
  2
AD_DRAW
 70
     0
  0
APPID
  5
1BEE
330
9
100
AcDbSymbolTableRecord
100
AcDbRegAppTableRecord
  2
ACATTRIBSERVICES
 70
     0
  0
APPID
  5
1C0F
330
9
100
AcDbSymbolTableRecord
100
AcDbRegAppTableRecord
  2
DESIGNERASSEMBLIES
 70
     0
  0
APPID
  5
1C15
330
9
100
AcDbSymbolTableRecord
100
AcDbRegAppTableRecord
  2
ACADM_DIM_EDIT
 70
     0
  0
APPID
  5
1C16
330
9
100
AcDbSymbolTableRecord
100
AcDbRegAppTableRecord
  2
AMDT_DM_ADJ
 70
     0
  0
APPID
  5
1C4E
330
9
100
AcDbSymbolTableRecord
100
AcDbRegAppTableRecord
  2
ACAD_PSEXT
 70
     0
  0
ENDTAB
  0
TABLE
  2
DIMSTYLE
  5
A
330
0
100
AcDbSymbolTable
 70
     8
100
AcDbDimStyleTable
 71
     1
340
DA2
  0
DIMSTYLE
105
DA2
102
{ACAD_REACTORS
330
88E
330
88D
330
998
330
630
330
155A
330
62F
330
9BC
330
1140
330
10C6
330
18B1
330
18FC
330
EB7
330
EB9
330
17F9
330
194C
102
}
330
A
100
AcDbSymbolTableRecord
100
AcDbDimStyleTableRecord
  2
Deublin
 70
     0
 41
0.15
 42
0.06
 43
0.48
 44
0.06
 78
     4
 79
     1
140
0.12
141
0.0
271
     3
272
     3
284
     4
285
     4
286
     4
288
     1
340
42
  0
DIMSTYLE
105
1793
330
A
100
AcDbSymbolTableRecord
100
AcDbDimStyleTableRecord
  2
STANDARD
 70
     0
 40
0.5
 41
0.15
 42
0.06
 44
0.06
 78
     4
140
0.12
141
-0.09
171
     0
271
     3
272
     3
274
     0
284
     4
285
     4
286
     4
288
     1
340
42
  0
DIMSTYLE
105
1C41
330
A
100
AcDbSymbolTableRecord
100
AcDbDimStyleTableRecord
  2
AM_ANSI
 70
     0
  4
mm
 41
0.1
 42
0.05
 43
0.5
 44
0.1
 47
0.1
 48
0.1
 78
     7
 79
     2
 90
     1
140
0.12
141
0.0
146
0.71
147
0.06
176
   256
177
   256
178
     2
274
     4
284
     7
340
10
371
    -1
372
    -1
  0
DIMSTYLE
105
1C42
330
A
100
AcDbSymbolTableRecord
100
AcDbDimStyleTableRecord
  2
AM_ANSI$3
 70
     0
  4
mm
 41
0.1
 42
0.05
 43
0.5
 44
0.1
 47
0.1
 48
0.1
 78
     7
 79
     2
 90
     1
140
0.12
141
0.0
146
0.71
147
0.06
176
   256
177
   256
178
     2
274
     4
284
     7
288
     1
289
     0
340
10
371
    -1
372
    -1
  0
DIMSTYLE
105
1C43
330
A
100
AcDbSymbolTableRecord
100
AcDbDimStyleTableRecord
  2
AM_ANSI$4
 70
     0
  4
mm
 41
0.1
 42
0.05
 43
0.5
 44
0.1
 47
0.1
 48
0.1
 78
     7
 79
     2
 90
     1
140
0.12
141
0.0
146
0.71
147
0.06
176
   256
177
   256
178
     2
274
     4
284
     7
288
     1
289
     0
340
10
371
    -1
372
    -1
  0
DIMSTYLE
105
1C44
330
A
100
AcDbSymbolTableRecord
100
AcDbDimStyleTableRecord
  2
AM_ANSI$7
 70
     0
  4
mm
 41
0.1
 42
0.05
 43
0.5
 44
0.1
 47
0.1
 48
0.1
 78
     7
 79
     2
 90
     1
140
0.24
141
0.0
146
0.71
147
0.06
176
   256
177
   256
178
     2
274
     4
284
     7
340
10
371
    -1
372
    -1
  0
DIMSTYLE
105
1C45
330
A
100
AcDbSymbolTableRecord
100
AcDbDimStyleTableRecord
  2
AM_ANSI$SF
 70
     0
  4
mm
 41
0.1
 42
0.05
 43
0.5
 44
0.1
 47
0.1
 48
0.1
 75
     1
 76
     1
 78
     7
 79
     2
 90
     1
140
0.12
141
0.0
146
0.71
147
0.06
176
   256
177
   256
178
     2
274
     4
284
     7
340
10
371
    -1
372
    -1
  0
DIMSTYLE
105
1C4A
330
A
100
AcDbSymbolTableRecord
100
AcDbDimStyleTableRecord
  2
AM_ANSI$SH
 70
     0
  4
mm
 41
0.1
 42
0.05
 43
0.5
 44
0.1
 47
0.1
 48
0.1
 75
     1
 76
     1
 78
     7
 79
     2
 90
     1
140
0.12
141
0.0
146
0.71
147
0.06
173
     1
176
   256
177
   256
178
     2
274
     4
284
     7
340
10
343
1C46
371
    -1
372
    -1
  0
ENDTAB
  0
TABLE
  2
BLOCK_RECORD
  5
1
330
0
100
AcDbSymbolTable
 70
    20
  0
BLOCK_RECORD
  5
19
330
1
100
AcDbSymbolTableRecord
100
AcDbBlockTableRecord
  2
*MODEL_SPACE
340
D9C
 70
     0
280
     1
281
     0
  0
BLOCK_RECORD
  5
16
330
1
100
AcDbSymbolTableRecord
100
AcDbBlockTableRecord
  2
*PAPER_SPACE
340
D9D
 70
     0
280
     1
281
     0
  0
BLOCK_RECORD
  5
B81
330
1
100
AcDbSymbolTableRecord
100
AcDbBlockTableRecord
  2
*D0
340
0
 70
     0
280
     1
281
     0
  0
BLOCK_RECORD
  5
B8E
330
1
100
AcDbSymbolTableRecord
100
AcDbBlockTableRecord
  2
*D1
340
0
 70
     0
280
     1
281
     0
  0
BLOCK_RECORD
  5
BA8
330
1
100
AcDbSymbolTableRecord
100
AcDbBlockTableRecord
  2
*D2
340
0
 70
     0
280
     1
281
     0
  0
BLOCK_RECORD
  5
BB5
330
1
100
AcDbSymbolTableRecord
100
AcDbBlockTableRecord
  2
*D3
340
0
 70
     0
280
     1
281
     0
  0
BLOCK_RECORD
  5
BC2
330
1
100
AcDbSymbolTableRecord
100
AcDbBlockTableRecord
  2
*D4
340
0
 70
     0
280
     1
281
     0
  0
BLOCK_RECORD
  5
BCF
330
1
100
AcDbSymbolTableRecord
100
AcDbBlockTableRecord
  2
*D5
340
0
 70
     0
280
     1
281
     0
  0
BLOCK_RECORD
  5
10C7
330
1
100
AcDbSymbolTableRecord
100
AcDbBlockTableRecord
  2
*D6
340
0
 70
     0
280
     1
281
     0
  0
BLOCK_RECORD
  5
1141
330
1
100
AcDbSymbolTableRecord
100
AcDbBlockTableRecord
  2
*D7
340
0
 70
     0
280
     1
281
     0
  0
BLOCK_RECORD
  5
115A
330
1
100
AcDbSymbolTableRecord
100
AcDbBlockTableRecord
  2
note
340
0
102
{BLKREFS
331
115E
102
}
 70
     0
280
     1
281
     0
  0
BLOCK_RECORD
  5
1390
330
1
100
AcDbSymbolTableRecord
100
AcDbBlockTableRecord
  2
C_ASSY
340
0
102
{BLKREFS
331
14C9
102
}
 70
     0
280
     1
281
     0
  0
BLOCK_RECORD
  5
153E
330
1
100
AcDbSymbolTableRecord
100
AcDbBlockTableRecord
  2
noteind
340
0
102
{BLKREFS
331
1548
331
154B
102
}
 70
     0
280
     1
281
     0
  0
BLOCK_RECORD
  5
155B
330
1
100
AcDbSymbolTableRecord
100
AcDbBlockTableRecord
  2
*D11
340
0
 70
     0
280
     1
281
     0
  0
BLOCK_RECORD
  5
1794
330
1
100
AcDbSymbolTableRecord
100
AcDbBlockTableRecord
  2
Opdata
340
0
 70
     0
280
     1
281
     0
  0
BLOCK_RECORD
  5
1802
330
1
100
AcDbSymbolTableRecord
100
AcDbBlockTableRecord
  2
A$C2DE714F7
340
0
 70
     0
280
     1
281
     0
  0
BLOCK_RECORD
  5
18B2
330
1
100
AcDbSymbolTableRecord
100
AcDbBlockTableRecord
  2
*D14
340
0
 70
     0
280
     1
281
     0
  0
BLOCK_RECORD
  5
18FD
330
1
100
AcDbSymbolTableRecord
100
AcDbBlockTableRecord
  2
*D15
340
0
 70
     0
280
     1
281
     0
  0
BLOCK_RECORD
  5
19D1
330
1
100
AcDbSymbolTableRecord
100
AcDbBlockTableRecord
  2
A$C478E4A92
340
0
 70
     0
280
     1
281
     0
  0
BLOCK_RECORD
  5
1B1B
330
1
100
AcDbSymbolTableRecord
100
AcDbBlockTableRecord
  2
A$C681E7F3F
340
0
102
{BLKREFS
331
1B58
102
}
 70
     0
280
     1
281
     0
  0
BLOCK_RECORD
  5
1C46
330
1
100
AcDbSymbolTableRecord
100
AcDbBlockTableRecord
  2
GENAXEH
340
0
 70
     0
280
     1
281
     0
  0
ENDTAB
  0
ENDSEC
  0
SECTION
  2
BLOCKS
  0
BLOCK
  5
1A
330
19
100
AcDbEntity
  8
0
100
AcDbBlockBegin
  2
*MODEL_SPACE
 70
     0
 10
0.0
 20
0.0
 30
0.0
  3
*MODEL_SPACE
  1

  0
ENDBLK
  5
1B
330
19
100
AcDbEntity
  8
0
100
AcDbBlockEnd
  0
BLOCK
  5
17
330
16
100
AcDbEntity
 67
     1
  8
0
100
AcDbBlockBegin
  2
*PAPER_SPACE
 70
     0
 10
0.0
 20
0.0
 30
0.0
  3
*PAPER_SPACE
  1

  0
ENDBLK
  5
18
330
16
100
AcDbEntity
 67
     1
  8
0
100
AcDbBlockEnd
  0
BLOCK
  5
D7D
330
B81
100
AcDbEntity
  8
0
100
AcDbBlockBegin
  2
*D0
 70
     1
 10
0.0
 20
0.0
 30
0.0
  3
*D0
  1

  0
LINE
  5
1ADA
330
B81
100
AcDbEntity
  8
DIMENSIONS
 62
     0
370
    -2
100
AcDbLine
 10
12.92178453697258
 20
5.085250576846244
 30
0.0
 11
12.92178453697258
 21
3.539999999999999
 31
0.0
  0
LINE
  5
1ADB
330
B81
100
AcDbEntity
  8
DIMENSIONS
 62
     0
370
    -2
100
AcDbLine
 10
8.679284304276047
 20
5.782127698771597
 30
0.0
 11
8.679284304276047
 21
3.539999999999999
 31
0.0
  0
LINE
  5
1ADC
330
B81
100
AcDbEntity
  8
DIMENSIONS
 62
     0
370
    -2
100
AcDbLine
 10
12.77178453697258
 20
3.599999999999999
 30
0.0
 11
11.37285714285714
 21
3.599999999999999
 31
0.0
  0
LINE
  5
1ADD
330
B81
100
AcDbEntity
  8
DIMENSIONS
 62
     0
370
    -2
100
AcDbLine
 10
8.829284304276047
 20
3.599999999999999
 30
0.0
 11
9.747142857142856
 21
3.599999999999999
 31
0.0
  0
SOLID
  5
1ADE
330
B81
100
AcDbEntity
  8
DIMENSIONS
 62
     0
100
AcDbTrace
 10
12.77178453697258
 20
3.624999999999999
 30
0.0
 11
12.77178453697258
 21
3.574999999999999
 31
0.0
 12
12.92178453697258
 22
3.599999999999999
 32
0.0
 13
12.92178453697258
 23
3.599999999999999
 33
0.0
  0
SOLID
  5
1ADF
330
B81
100
AcDbEntity
  8
DIMENSIONS
 62
     0
100
AcDbTrace
 10
8.829284304276047
 20
3.624999999999999
 30
0.0
 11
8.829284304276047
 21
3.574999999999999
 31
0.0
 12
8.679284304276047
 22
3.599999999999999
 32
0.0
 13
8.679284304276047
 23
3.599999999999999
 33
0.0
  0
MTEXT
  5
1AE0
330
B81
100
AcDbEntity
  8
DIMENSIONS
 62
     0
100
AcDbMText
 10
10.56
 20
3.599999999999999
 30
0.0
 40
0.12
 41
0.0
 46
0.0
 71
     5
 72
     1
  1
\A1;4.243 [108]\PAPPOX. LOCKUP
  7
ROMANS
 73
     1
 44
1.0
  0
POINT
  5
1AE1
330
B81
100
AcDbEntity
  8
DEFPOINTS
 62
     0
100
AcDbPoint
 10
12.92178453697258
 20
5.145250576846244
 30
0.0
  0
POINT
  5
1AE2
330
B81
100
AcDbEntity
  8
DEFPOINTS
 62
     0
100
AcDbPoint
 10
8.679284304276047
 20
5.842127698771597
 30
0.0
  0
POINT
  5
1AE3
330
B81
100
AcDbEntity
  8
DEFPOINTS
 62
     0
100
AcDbPoint
 10
8.679284304276047
 20
3.599999999999999
 30
0.0
  0
ENDBLK
  5
D88
330
B81
100
AcDbEntity
  8
0
100
AcDbBlockEnd
  0
BLOCK
  5
D35
330
B8E
100
AcDbEntity
  8
0
100
AcDbBlockBegin
  2
*D1
 70
     1
 10
0.0
 20
0.0
 30
0.0
  3
*D1
  1

  0
LINE
  5
1AD0
330
B8E
100
AcDbEntity
  8
DIMENSIONS
 62
     0
370
    -2
100
AcDbLine
 10
9.546784417763291
 20
5.094127377383354
 30
0.0
 11
9.546784417763291
 21
4.259999999999999
 31
0.0
  0
LINE
  5
1AD1
330
B8E
100
AcDbEntity
  8
DIMENSIONS
 62
     0
370
    -2
100
AcDbLine
 10
11.38978447212273
 20
4.976947417370918
 30
0.0
 11
11.38978447212273
 21
4.259999999999999
 31
0.0
  0
LINE
  5
1AD2
330
B8E
100
AcDbEntity
  8
DIMENSIONS
 62
     0
370
    -2
100
AcDbLine
 10
9.696784417763291
 20
4.32
 30
0.0
 11
10.05571428571428
 21
4.32
 31
0.0
  0
LINE
  5
1AD3
330
B8E
100
AcDbEntity
  8
DIMENSIONS
 62
     0
370
    -2
100
AcDbLine
 10
11.23978447212272
 20
4.32
 30
0.0
 11
11.06428571428571
 21
4.32
 31
0.0
  0
SOLID
  5
1AD4
330
B8E
100
AcDbEntity
  8
DIMENSIONS
 62
     0
100
AcDbTrace
 10
9.696784417763291
 20
4.345
 30
0.0
 11
9.696784417763291
 21
4.294999999999999
 31
0.0
 12
9.546784417763291
 22
4.32
 32
0.0
 13
9.546784417763291
 23
4.32
 33
0.0
  0
SOLID
  5
1AD5
330
B8E
100
AcDbEntity
  8
DIMENSIONS
 62
     0
100
AcDbTrace
 10
11.23978447212272
 20
4.345
 30
0.0
 11
11.23978447212272
 21
4.294999999999999
 31
0.0
 12
11.38978447212273
 22
4.32
 32
0.0
 13
11.38978447212273
 23
4.32
 33
0.0
  0
MTEXT
  5
1AD6
330
B8E
100
AcDbEntity
  8
DIMENSIONS
 62
     0
100
AcDbMText
 10
10.56
 20
4.32
 30
0.0
 40
0.12
 41
0.0
 46
0.0
 71
     5
 72
     1
  1
\A1;{3X 1.843\P [47]}
  7
ROMANS
 73
     1
 44
1.0
  0
POINT
  5
1AD7
330
B8E
100
AcDbEntity
  8
DEFPOINTS
 62
     0
100
AcDbPoint
 10
9.546784417763291
 20
5.154127377383353
 30
0.0
  0
POINT
  5
1AD8
330
B8E
100
AcDbEntity
  8
DEFPOINTS
 62
     0
100
AcDbPoint
 10
11.38978447212273
 20
5.036947417370917
 30
0.0
  0
POINT
  5
1AD9
330
B8E
100
AcDbEntity
  8
DEFPOINTS
 62
     0
100
AcDbPoint
 10
11.38978447212273
 20
4.32
 30
0.0
  0
ENDBLK
  5
D40
330
B8E
100
AcDbEntity
  8
0
100
AcDbBlockEnd
  0
BLOCK
  5
D59
330
BA8
100
AcDbEntity
  8
0
100
AcDbBlockBegin
  2
*D2
 70
     1
 10
0.0
 20
0.0
 30
0.0
  3
*D2
  1

  0
LINE
  5
1A9E
330
BA8
100
AcDbEntity
  8
DIMENSIONS
 62
     0
370
    -2
100
AcDbLine
 10
7.615784304276046
 20
7.577226683294445
 30
0.0
 11
7.615784304276046
 21
8.700000000000001
 31
0.0
  0
LINE
  5
1A9F
330
BA8
100
AcDbEntity
  8
DIMENSIONS
 62
     0
370
    -2
100
AcDbLine
 10
8.740784304276047
 20
7.652127937190177
 30
0.0
 11
8.740784304276047
 21
8.700000000000001
 31
0.0
  0
LINE
  5
1AA0
330
BA8
100
AcDbEntity
  8
DIMENSIONS
 62
     0
370
    -2
100
AcDbLine
 10
7.465784304276046
 20
8.64
 30
0.0
 11
7.315784304276046
 21
8.64
 31
0.0
  0
LINE
  5
1AA1
330
BA8
100
AcDbEntity
  8
DIMENSIONS
 62
     0
370
    -2
100
AcDbLine
 10
8.890784304276047
 20
8.64
 30
0.0
 11
9.040784304276048
 21
8.64
 31
0.0
  0
SOLID
  5
1AA2
330
BA8
100
AcDbEntity
  8
DIMENSIONS
 62
     0
100
AcDbTrace
 10
7.465784304276046
 20
8.665
 30
0.0
 11
7.465784304276046
 21
8.615
 31
0.0
 12
7.615784304276046
 22
8.64
 32
0.0
 13
7.615784304276046
 23
8.64
 33
0.0
  0
SOLID
  5
1AA3
330
BA8
100
AcDbEntity
  8
DIMENSIONS
 62
     0
100
AcDbTrace
 10
8.890784304276047
 20
8.665
 30
0.0
 11
8.890784304276047
 21
8.615
 31
0.0
 12
8.740784304276047
 22
8.64
 32
0.0
 13
8.740784304276047
 23
8.64
 33
0.0
  0
MTEXT
  5
1AA4
330
BA8
100
AcDbEntity
  8
DIMENSIONS
 62
     0
100
AcDbMText
 10
8.16
 20
8.64
 30
0.0
 40
0.12
 41
0.0
 46
0.0
 71
     5
 72
     1
  1
\A1;{1.125\P [28.6]}
  7
ROMANS
 73
     1
 44
1.0
  0
POINT
  5
1AA5
330
BA8
100
AcDbEntity
  8
DEFPOINTS
 62
     0
100
AcDbPoint
 10
7.615784304276046
 20
7.517226683294445
 30
0.0
  0
POINT
  5
1AA6
330
BA8
100
AcDbEntity
  8
DEFPOINTS
 62
     0
100
AcDbPoint
 10
8.740784304276047
 20
7.592127937190177
 30
0.0
  0
POINT
  5
1AA7
330
BA8
100
AcDbEntity
  8
DEFPOINTS
 62
     0
100
AcDbPoint
 10
8.740784304276047
 20
8.64
 30
0.0
  0
ENDBLK
  5
D64
330
BA8
100
AcDbEntity
  8
0
100
AcDbBlockEnd
  0
BLOCK
  5
D4D
330
BB5
100
AcDbEntity
  8
0
100
AcDbBlockBegin
  2
*D3
 70
     1
 10
0.0
 20
0.0
 30
0.0
  3
*D3
  1

  0
LINE
  5
1AA8
330
BB5
100
AcDbEntity
  8
DIMENSIONS
 62
     0
370
    -2
100
AcDbLine
 10
7.615784304276046
 20
7.577226683294445
 30
0.0
 11
7.615784304276046
 21
9.419999999999999
 31
0.0
  0
LINE
  5
1AA9
330
BB5
100
AcDbEntity
  8
DIMENSIONS
 62
     0
370
    -2
100
AcDbLine
 10
9.546784417763291
 20
8.340127662531974
 30
0.0
 11
9.546784417763291
 21
9.419999999999999
 31
0.0
  0
LINE
  5
1AAA
330
BB5
100
AcDbEntity
  8
DIMENSIONS
 62
     0
370
    -2
100
AcDbLine
 10
7.765784304276047
 20
9.359999999999999
 30
0.0
 11
8.235714285714285
 21
9.359999999999999
 31
0.0
  0
LINE
  5
1AAB
330
BB5
100
AcDbEntity
  8
DIMENSIONS
 62
     0
370
    -2
100
AcDbLine
 10
9.39678441776329
 20
9.359999999999999
 30
0.0
 11
9.044285714285715
 21
9.359999999999999
 31
0.0
  0
SOLID
  5
1AAC
330
BB5
100
AcDbEntity
  8
DIMENSIONS
 62
     0
100
AcDbTrace
 10
7.765784304276047
 20
9.384999999999999
 30
0.0
 11
7.765784304276047
 21
9.334999999999999
 31
0.0
 12
7.615784304276046
 22
9.359999999999999
 32
0.0
 13
7.615784304276046
 23
9.359999999999999
 33
0.0
  0
SOLID
  5
1AAD
330
BB5
100
AcDbEntity
  8
DIMENSIONS
 62
     0
100
AcDbTrace
 10
9.39678441776329
 20
9.384999999999999
 30
0.0
 11
9.39678441776329
 21
9.334999999999999
 31
0.0
 12
9.546784417763291
 22
9.359999999999999
 32
0.0
 13
9.546784417763291
 23
9.359999999999999
 33
0.0
  0
MTEXT
  5
1AAE
330
BB5
100
AcDbEntity
  8
DIMENSIONS
 62
     0
100
AcDbMText
 10
8.64
 20
9.359999999999999
 30
0.0
 40
0.12
 41
0.0
 46
0.0
 71
     5
 72
     1
  1
\A1;{1.931\P [49.0]}
  7
ROMANS
 73
     1
 44
1.0
  0
POINT
  5
1AAF
330
BB5
100
AcDbEntity
  8
DEFPOINTS
 62
     0
100
AcDbPoint
 10
7.615784304276046
 20
7.517226683294445
 30
0.0
  0
POINT
  5
1AB0
330
BB5
100
AcDbEntity
  8
DEFPOINTS
 62
     0
100
AcDbPoint
 10
9.546784417763291
 20
8.280127662531974
 30
0.0
  0
POINT
  5
1AB1
330
BB5
100
AcDbEntity
  8
DEFPOINTS
 62
     0
100
AcDbPoint
 10
9.546784417763291
 20
9.359999999999999
 30
0.0
  0
ENDBLK
  5
D58
330
BB5
100
AcDbEntity
  8
0
100
AcDbBlockEnd
  0
BLOCK
  5
D71
330
BC2
100
AcDbEntity
  8
0
100
AcDbBlockBegin
  2
*D4
 70
     1
 10
0.0
 20
0.0
 30
0.0
  3
*D4
  1

  0
LINE
  5
1AB2
330
BC2
100
AcDbEntity
  8
DIMENSIONS
 62
     0
370
    -2
100
AcDbLine
 10
7.615784304276046
 20
7.72579269185987
 30
0.0
 11
7.615784304276046
 21
10.14
 31
0.0
  0
LINE
  5
1AB3
330
BC2
100
AcDbEntity
  8
DIMENSIONS
 62
     0
370
    -2
100
AcDbLine
 10
14.42778457893425
 20
7.252579883448722
 30
0.0
 11
14.42778457893425
 21
10.14
 31
0.0
  0
LINE
  5
1AB4
330
BC2
100
AcDbEntity
  8
DIMENSIONS
 62
     0
370
    -2
100
AcDbLine
 10
7.765784304276047
 20
10.08
 30
0.0
 11
10.57857142857143
 21
10.08
 31
0.0
  0
LINE
  5
1AB5
330
BC2
100
AcDbEntity
  8
DIMENSIONS
 62
     0
370
    -2
100
AcDbLine
 10
14.27778457893425
 20
10.08
 30
0.0
 11
11.50142857142857
 21
10.08
 31
0.0
  0
SOLID
  5
1AB6
330
BC2
100
AcDbEntity
  8
DIMENSIONS
 62
     0
100
AcDbTrace
 10
7.765784304276047
 20
10.105
 30
0.0
 11
7.765784304276047
 21
10.055
 31
0.0
 12
7.615784304276046
 22
10.08
 32
0.0
 13
7.615784304276046
 23
10.08
 33
0.0
  0
SOLID
  5
1AB7
330
BC2
100
AcDbEntity
  8
DIMENSIONS
 62
     0
100
AcDbTrace
 10
14.27778457893425
 20
10.105
 30
0.0
 11
14.27778457893425
 21
10.055
 31
0.0
 12
14.42778457893425
 22
10.08
 32
0.0
 13
14.42778457893425
 23
10.08
 33
0.0
  0
MTEXT
  5
1AB8
330
BC2
100
AcDbEntity
  8
DIMENSIONS
 62
     0
100
AcDbMText
 10
11.04
 20
10.08
 30
0.0
 40
0.12
 41
0.0
 46
0.0
 71
     5
 72
     1
  1
\A1;{6.812\P [173.0]}
  7
ROMANS
 73
     1
 44
1.0
  0
POINT
  5
1AB9
330
BC2
100
AcDbEntity
  8
DEFPOINTS
 62
     0
100
AcDbPoint
 10
7.615784304276046
 20
7.66579269185987
 30
0.0
  0
POINT
  5
1ABA
330
BC2
100
AcDbEntity
  8
DEFPOINTS
 62
     0
100
AcDbPoint
 10
14.42778457893425
 20
7.192579883448722
 30
0.0
  0
POINT
  5
1ABB
330
BC2
100
AcDbEntity
  8
DEFPOINTS
 62
     0
100
AcDbPoint
 10
14.42778457893425
 20
10.08
 30
0.0
  0
ENDBLK
  5
D7C
330
BC2
100
AcDbEntity
  8
0
100
AcDbBlockEnd
  0
BLOCK
  5
D41
330
BCF
100
AcDbEntity
  8
0
100
AcDbBlockBegin
  2
*D5
 70
     1
 10
0.0
 20
0.0
 30
0.0
  3
*D5
  1

  0
LINE
  5
1ABC
330
BCF
100
AcDbEntity
  8
DIMENSIONS
 62
     0
370
    -2
100
AcDbLine
 10
16.89406551612907
 20
6.777127817980887
 30
0.0
 11
16.89406551612907
 21
10.14
 31
0.0
  0
LINE
  5
1ABD
330
BCF
100
AcDbEntity
  8
DIMENSIONS
 62
     0
370
    -2
100
AcDbLine
 10
20.14406551612907
 20
6.777127817980887
 30
0.0
 11
20.14406551612907
 21
10.14
 31
0.0
  0
LINE
  5
1ABE
330
BCF
100
AcDbEntity
  8
DIMENSIONS
 62
     0
370
    -2
100
AcDbLine
 10
17.04406551612907
 20
10.08
 30
0.0
 11
18.09571428571429
 21
10.08
 31
0.0
  0
LINE
  5
1ABF
330
BCF
100
AcDbEntity
  8
DIMENSIONS
 62
     0
370
    -2
100
AcDbLine
 10
19.99406551612907
 20
10.08
 30
0.0
 11
18.86428571428571
 21
10.08
 31
0.0
  0
SOLID
  5
1AC0
330
BCF
100
AcDbEntity
  8
DIMENSIONS
 62
     0
100
AcDbTrace
 10
17.04406551612907
 20
10.105
 30
0.0
 11
17.04406551612907
 21
10.055
 31
0.0
 12
16.89406551612907
 22
10.08
 32
0.0
 13
16.89406551612907
 23
10.08
 33
0.0
  0
SOLID
  5
1AC1
330
BCF
100
AcDbEntity
  8
DIMENSIONS
 62
     0
100
AcDbTrace
 10
19.99406551612907
 20
10.105
 30
0.0
 11
19.99406551612907
 21
10.055
 31
0.0
 12
20.14406551612907
 22
10.08
 32
0.0
 13
20.14406551612907
 23
10.08
 33
0.0
  0
MTEXT
  5
1AC2
330
BCF
100
AcDbEntity
  8
DIMENSIONS
 62
     0
100
AcDbMText
 10
18.48
 20
10.08
 30
0.0
 40
0.12
 41
0.0
 46
0.0
 71
     5
 72
     1
  1
\A1;{%%C3.250\P [83]}
  7
ROMANS
 73
     1
 44
1.0
  0
POINT
  5
1AC3
330
BCF
100
AcDbEntity
  8
DEFPOINTS
 62
     0
100
AcDbPoint
 10
16.89406551612907
 20
6.717127817980887
 30
0.0
  0
POINT
  5
1AC4
330
BCF
100
AcDbEntity
  8
DEFPOINTS
 62
     0
100
AcDbPoint
 10
20.14406551612907
 20
6.717127817980887
 30
0.0
  0
POINT
  5
1AC5
330
BCF
100
AcDbEntity
  8
DEFPOINTS
 62
     0
100
AcDbPoint
 10
20.14406551612907
 20
10.08
 30
0.0
  0
ENDBLK
  5
D4C
330
BCF
100
AcDbEntity
  8
0
100
AcDbBlockEnd
  0
BLOCK
  5
10D2
330
10C7
100
AcDbEntity
  8
0
100
AcDbBlockBegin
  2
*D6
 70
     1
 10
0.0
 20
0.0
 30
0.0
  3
*D6
  1

  0
LINE
  5
1AEE
330
10C7
100
AcDbEntity
  8
DIMENSIONS
 62
     0
370
    -2
100
AcDbLine
 10
8.800784304276048
 20
11.6015329858112
 30
0.0
 11
9.139671234543454
 21
11.6015329858112
 31
0.0
  0
LINE
  5
1AEF
330
10C7
100
AcDbEntity
  8
DIMENSIONS
 62
     0
370
    -2
100
AcDbLine
 10
8.800784304276048
 20
13.35153322422978
 30
0.0
 11
9.139671234543456
 21
13.35153322422978
 31
0.0
  0
LINE
  5
1AF0
330
10C7
100
AcDbEntity
  8
DIMENSIONS
 62
     0
370
    -2
100
AcDbLine
 10
9.079671234543456
 20
13.20153322422978
 30
0.0
 11
9.079671234543454
 21
11.7515329858112
 31
0.0
  0
LINE
  5
1AF1
330
10C7
100
AcDbEntity
  8
DIMENSIONS
 62
     0
370
    -2
100
AcDbLine
 10
9.079671234543454
 20
11.6015329858112
 30
0.0
 11
9.079671234543454
 21
11.24499501412401
 31
0.0
  0
LINE
  5
1AF2
330
10C7
100
AcDbEntity
  8
DIMENSIONS
 62
     0
370
    -2
100
AcDbLine
 10
9.079671234543454
 20
11.24499501412401
 30
0.0
 11
8.929671234543453
 21
11.24499501412401
 31
0.0
  0
SOLID
  5
1AF3
330
10C7
100
AcDbEntity
  8
DIMENSIONS
 62
     0
100
AcDbTrace
 10
9.054671234543455
 20
13.20153322422978
 30
0.0
 11
9.104671234543456
 21
13.20153322422978
 31
0.0
 12
9.079671234543456
 22
13.35153322422978
 32
0.0
 13
9.079671234543456
 23
13.35153322422978
 33
0.0
  0
SOLID
  5
1AF4
330
10C7
100
AcDbEntity
  8
DIMENSIONS
 62
     0
100
AcDbTrace
 10
9.054671234543453
 20
11.7515329858112
 30
0.0
 11
9.104671234543454
 21
11.7515329858112
 31
0.0
 12
9.079671234543454
 22
11.6015329858112
 32
0.0
 13
9.079671234543454
 23
11.6015329858112
 33
0.0
  0
MTEXT
  5
1AF5
330
10C7
100
AcDbEntity
  8
DIMENSIONS
 62
     0
100
AcDbMText
 10
8.545385520257738
 20
11.24499501412401
 30
0.0
 40
0.12
 41
0.0
 46
0.0
 71
     5
 72
     1
  1
\A1;{%%C1.750\P [44]}
  7
ROMANS
 73
     1
 44
1.0
  0
POINT
  5
1AF6
330
10C7
100
AcDbEntity
  8
DEFPOINTS
 62
     0
100
AcDbPoint
 10
8.740784304276047
 20
11.6015329858112
 30
0.0
  0
POINT
  5
1AF7
330
10C7
100
AcDbEntity
  8
DEFPOINTS
 62
     0
100
AcDbPoint
 10
8.740784304276047
 20
13.35153322422978
 30
0.0
  0
POINT
  5
1AF8
330
10C7
100
AcDbEntity
  8
DEFPOINTS
 62
     0
100
AcDbPoint
 10
9.079671234543456
 20
13.35153322422978
 30
0.0
  0
ENDBLK
  5
10D3
330
10C7
100
AcDbEntity
  8
0
100
AcDbBlockEnd
  0
BLOCK
  5
114C
330
1141
100
AcDbEntity
  8
0
100
AcDbBlockBegin
  2
*D7
 70
     1
 10
0.0
 20
0.0
 30
0.0
  3
*D7
  1

  0
LINE
  5
1AE4
330
1141
100
AcDbEntity
  8
DIMENSIONS
 62
     0
370
    -2
100
AcDbLine
 10
3.831512906026481
 20
6.657127817980888
 30
0.0
 11
3.831512906026481
 21
4.444401161433512
 31
0.0
  0
LINE
  5
1AE5
330
1141
100
AcDbEntity
  8
DIMENSIONS
 62
     0
370
    -2
100
AcDbLine
 10
2.831513621282218
 20
6.657127817980888
 30
0.0
 11
2.831513621282218
 21
4.444401161433512
 31
0.0
  0
LINE
  5
1AE6
330
1141
100
AcDbEntity
  8
DIMENSIONS
 62
     0
370
    -2
100
AcDbLine
 10
3.981512906026481
 20
4.504401161433513
 30
0.0
 11
4.131512906026481
 21
4.504401161433513
 31
0.0
  0
LINE
  5
1AE7
330
1141
100
AcDbEntity
  8
DIMENSIONS
 62
     0
370
    -2
100
AcDbLine
 10
2.681513621282218
 20
4.504401161433513
 30
0.0
 11
2.531513621282218
 21
4.504401161433513
 31
0.0
  0
SOLID
  5
1AE8
330
1141
100
AcDbEntity
  8
DIMENSIONS
 62
     0
100
AcDbTrace
 10
3.981512906026481
 20
4.529401161433513
 30
0.0
 11
3.981512906026481
 21
4.479401161433512
 31
0.0
 12
3.831512906026481
 22
4.504401161433513
 32
0.0
 13
3.831512906026481
 23
4.504401161433513
 33
0.0
  0
SOLID
  5
1AE9
330
1141
100
AcDbEntity
  8
DIMENSIONS
 62
     0
100
AcDbTrace
 10
2.681513621282218
 20
4.529401161433513
 30
0.0
 11
2.681513621282218
 21
4.479401161433512
 31
0.0
 12
2.831513621282218
 22
4.504401161433513
 32
0.0
 13
2.831513621282218
 23
4.504401161433513
 33
0.0
  0
MTEXT
  5
1AEA
330
1141
100
AcDbEntity
  8
DIMENSIONS
 62
     0
100
AcDbMText
 10
3.326237599002212
 20
4.504401161433513
 30
0.0
 40
0.12
 41
0.0
 46
0.0
 71
     5
 72
     1
  1
\A1;{%%C1.000\P [25]}
  7
ROMANS
 73
     1
 44
1.0
  0
POINT
  5
1AEB
330
1141
100
AcDbEntity
  8
DEFPOINTS
 62
     0
100
AcDbPoint
 10
3.831512906026481
 20
6.717127817980887
 30
0.0
  0
POINT
  5
1AEC
330
1141
100
AcDbEntity
  8
DEFPOINTS
 62
     0
100
AcDbPoint
 10
2.831513621282218
 20
6.717127817980887
 30
0.0
  0
POINT
  5
1AED
330
1141
100
AcDbEntity
  8
DEFPOINTS
 62
     0
100
AcDbPoint
 10
2.831513621282218
 20
4.504401161433513
 30
0.0
  0
ENDBLK
  5
114D
330
1141
100
AcDbEntity
  8
0
100
AcDbBlockEnd
  0
BLOCK
  5
115C
330
115A
100
AcDbEntity
  8
0
100
AcDbBlockBegin
  2
note
 70
     0
 10
0.0
 20
0.0
 30
0.0
  3
note
  1

  0
TEXT
  5
115B
330
115A
100
AcDbEntity
  8
0
100
AcDbText
 10
0.0
 20
0.0
 30
0.0
 40
0.12
  1
NOTES:
  7
ROMANS
100
AcDbText
  0
ENDBLK
  5
115D
330
115A
100
AcDbEntity
  8
0
100
AcDbBlockEnd
  0
BLOCK
  5
14C7
330
1390
100
AcDbEntity
  8
0
100
AcDbBlockBegin
  2
C_ASSY
 70
     2
 10
0.0
 20
0.0
 30
0.0
  3
C_ASSY
  1

  0
MTEXT
  5
1391
330
1390
100
AcDbEntity
  8
0
100
AcDbMText
 10
-5.798093352369162
 20
-5.08495189954143
 30
0.0
 40
0.125
 41
0.0
 46
0.0
 71
     6
 72
     5
  1

 73
     1
 44
1.0
  0
MTEXT
  5
1392
330
1390
100
AcDbEntity
  8
0
100
AcDbMText
 10
-5.485959755040195
 20
-2.753270374624243
 30
0.0
 40
0.125
 41
0.0
 46
0.0
 71
     6
 72
     5
  1

  7
ROMANS
 73
     1
 44
1.0
  0
MTEXT
  5
1393
330
1390
100
AcDbEntity
  8
0
100
AcDbMText
 10
-5.673865450020916
 20
-2.750383993111377
 30
0.0
 40
0.125
 41
0.0
 46
0.0
 71
     6
 72
     5
  1

  7
ROMANS
 73
     1
 44
1.0
  0
MTEXT
  5
1394
330
1390
100
AcDbEntity
  8
0
100
AcDbMText
 10
-6.535641812060892
 20
-2.738698650824026
 30
0.0
 40
0.125
 41
0.0
 46
0.0
 71
     6
 72
     5
  1

  7
ROMANS
 73
     1
 44
1.0
  0
LWPOLYLINE
  5
1395
330
1390
100
AcDbEntity
  8
0
100
AcDbPolyline
 90
        4
 70
     1
 43
0.0
 10
0.5
 20
0.5
 10
0.5
 20
16.5
 10
21.5
 20
16.5
 10
21.5
 20
0.5
  0
LWPOLYLINE
  5
1396
330
1390
100
AcDbEntity
  8
0
100
AcDbPolyline
 90
        3
 70
     0
 43
0.0
 10
18.67490699999997
 20
16.5
 10
18.67490699999997
 20
16.0
 10
21.5
 20
16.0
  0
LWPOLYLINE
  5
1397
330
1390
100
AcDbEntity
  8
0
100
AcDbPolyline
 90
        3
 70
     0
 43
0.0
 10
12.0
 20
0.5
 10
12.0
 20
2.3
 10
21.5
 20
2.3
  0
LWPOLYLINE
  5
1398
330
1390
100
AcDbEntity
  8
0
100
AcDbPolyline
 90
        2
 70
     0
 43
0.0
 10
12.249675
 20
0.5
 10
12.249675
 20
2.3
  0
LWPOLYLINE
  5
1399
330
1390
100
AcDbEntity
  8
0
100
AcDbPolyline
 90
        2
 70
     0
 43
0.0
 10
18.674907
 20
0.5
 10
18.674907
 20
2.3
  0
LINE
  5
139A
330
1390
100
AcDbEntity
  8
0
100
AcDbLine
 10
11.99999999999999
 20
2.098850999999999
 30
0.0
 11
15.28259311174944
 21
2.098850999999998
 31
0.0
  0
LINE
  5
139B
330
1390
100
AcDbEntity
  8
0
100
AcDbLine
 10
12.0
 20
1.9
 30
0.0
 11
15.28259322222222
 21
1.9
 31
0.0
  0
LINE
  5
139C
330
1390
100
AcDbEntity
  8
0
100
AcDbLine
 10
12.0
 20
1.7
 30
0.0
 11
15.28259333333333
 21
1.7
 31
0.0
  0
LINE
  5
139D
330
1390
100
AcDbEntity
  8
0
100
AcDbLine
 10
12.0
 20
1.5
 30
0.0
 11
18.674907
 21
1.5
 31
0.0
  0
LINE
  5
139E
330
1390
100
AcDbEntity
  8
0
100
AcDbLine
 10
12.0
 20
1.299999999999999
 30
0.0
 11
15.281216
 21
1.299999999999999
 31
0.0
  0
LINE
  5
139F
330
1390
100
AcDbEntity
  8
0
100
AcDbLine
 10
12.0
 20
1.099999999999999
 30
0.0
 11
15.281216
 21
1.099999999999999
 31
0.0
  0
LINE
  5
13A0
330
1390
100
AcDbEntity
  8
0
100
AcDbLine
 10
12.0
 20
0.9000000000000003
 30
0.0
 11
15.281216
 21
0.9000000000000003
 31
0.0
  0
LINE
  5
13A1
330
1390
100
AcDbEntity
  8
0
100
AcDbLine
 10
12.0
 20
0.7000000000000002
 30
0.0
 11
15.281216
 21
0.7000000000000002
 31
0.0
  0
LINE
  5
13A2
330
1390
100
AcDbEntity
  8
0
100
AcDbLine
 10
14.2748749
 20
0.5
 30
0.0
 11
14.2748749
 21
2.3
 31
0.0
  0
LINE
  5
13A3
330
1390
100
AcDbEntity
  8
0
100
AcDbLine
 10
14.6104624
 20
0.5
 30
0.0
 11
14.6104624
 21
2.3
 31
0.0
  0
LINE
  5
13A4
330
1390
100
AcDbEntity
  8
0
100
AcDbLine
 10
14.93351199999999
 20
2.3
 30
0.0
 11
14.93351199999999
 21
0.5
 31
0.0
  0
LINE
  5
13A5
330
1390
100
AcDbEntity
  8
0
100
AcDbLine
 10
15.282594
 20
0.5
 30
0.0
 11
15.282593
 21
2.3
 31
0.0
  0
TEXT
  5
13A6
330
1390
100
AcDbEntity
  8
0
 62
     7
100
AcDbText
 10
18.70465299999999
 20
0.9419619999999992
 30
0.0
 40
0.062
  1
NO.
  7
ROMANS
100
AcDbText
  0
TEXT
  5
13A7
330
1390
100
AcDbEntity
  8
0
 62
     7
100
AcDbText
 10
13.05856066428571
 20
0.5689999999999996
 30
0.0
 40
0.062
  1
REVISION
  7
ROMANS
 72
     1
 11
13.26227495
 21
0.5999999999999997
 31
0.0
100
AcDbText
 73
     2
  0
TEXT
  5
13A8
330
1390
100
AcDbEntity
  8
0
 62
     7
100
AcDbText
 10
14.34966865
 20
0.5689999999999996
 30
0.0
 40
0.062
  1
ECO
  7
ROMANS
 72
     1
 11
14.44266865
 21
0.5999999999999997
 31
0.0
100
AcDbText
 73
     2
  0
TEXT
  5
13A9
330
1390
100
AcDbEntity
  8
0
 62
     7
100
AcDbText
 10
14.65979672380952
 20
0.5689999999999996
 30
0.0
 40
0.062
  1
DATE
  7
ROMANS
 72
     1
 11
14.7719872
 21
0.5999999999999997
 31
0.0
100
AcDbText
 73
     2
  0
TEXT
  5
13AA
330
1390
100
AcDbEntity
  8
0
 62
     7
100
AcDbText
 10
15.00471963888883
 20
0.5690000969672072
 30
0.0
 40
0.062
  1
SIGN
  7
ROMANS
 72
     1
 11
15.10805297222217
 21
0.6000000969672073
 31
0.0
100
AcDbText
 73
     2
  0
TEXT
  5
13AB
330
1390
100
AcDbEntity
  8
0
 62
     7
100
AcDbText
 10
20.77604025517622
 20
0.9461040418947638
 30
0.0
 40
0.062
  1
C.A.D DRAWING
  7
ROMANS
 72
     1
 11
21.12442120755717
 21
0.9771040418947638
 31
0.0
100
AcDbText
 73
     2
  0
LINE
  5
13AC
330
1390
100
AcDbEntity
  8
0
 62
   253
100
AcDbLine
 10
19.158089
 20
2.211997999999999
 30
0.0
 11
19.22365399999999
 21
2.211997999999999
 31
0.0
  0
LINE
  5
13AD
330
1390
100
AcDbEntity
  8
0
 62
   253
100
AcDbLine
 10
19.158089
 20
1.74
 30
0.0
 11
19.22365399999999
 21
1.74
 31
0.0
  0
POLYLINE
  5
13AE
330
1390
100
AcDbEntity
  8
0
 62
   253
100
AcDb3dPolyline
 66
     1
 10
0.0
 20
0.0
 30
0.0
 70
     8
  0
VERTEX
  5
13AF
330
13AE
100
AcDbEntity
  8
0
 62
   253
100
AcDbVertex
100
AcDb3dPolylineVertex
 10
19.34207699999999
 20
1.979964999999999
 30
0.0
 70
    32
  0
VERTEX
  5
13B0
330
13AE
100
AcDbEntity
  8
0
 62
   253
100
AcDbVertex
100
AcDb3dPolylineVertex
 10
19.34034199999999
 20
2.016439
 30
0.0
 70
    32
  0
VERTEX
  5
13B1
330
13AE
100
AcDbEntity
  8
0
 62
   253
100
AcDbVertex
100
AcDb3dPolylineVertex
 10
19.335794
 20
2.051937999999999
 30
0.0
 70
    32
  0
VERTEX
  5
13B2
330
13AE
100
AcDbEntity
  8
0
 62
   253
100
AcDbVertex
100
AcDb3dPolylineVertex
 10
19.328545
 20
2.085606999999999
 30
0.0
 70
    32
  0
VERTEX
  5
13B3
330
13AE
100
AcDbEntity
  8
0
 62
   253
100
AcDbVertex
100
AcDb3dPolylineVertex
 10
19.31876699999999
 20
2.116633999999999
 30
0.0
 70
    32
  0
VERTEX
  5
13B4
330
13AE
100
AcDbEntity
  8
0
 62
   253
100
AcDbVertex
100
AcDb3dPolylineVertex
 10
19.306697
 20
2.144271999999999
 30
0.0
 70
    32
  0
VERTEX
  5
13B5
330
13AE
100
AcDbEntity
  8
0
 62
   253
100
AcDbVertex
100
AcDb3dPolylineVertex
 10
19.292625
 20
2.167853999999999
 30
0.0
 70
    32
  0
VERTEX
  5
13B6
330
13AE
100
AcDbEntity
  8
0
 62
   253
100
AcDbVertex
100
AcDb3dPolylineVertex
 10
19.27689199999999
 20
2.186812999999999
 30
0.0
 70
    32
  0
VERTEX
  5
13B7
330
13AE
100
AcDbEntity
  8
0
 62
   253
100
AcDbVertex
100
AcDb3dPolylineVertex
 10
19.25987499999999
 20
2.200690999999999
 30
0.0
 70
    32
  0
VERTEX
  5
13B8
330
13AE
100
AcDbEntity
  8
0
 62
   253
100
AcDbVertex
100
AcDb3dPolylineVertex
 10
19.241985
 20
2.209153999999999
 30
0.0
 70
    32
  0
VERTEX
  5
13B9
330
13AE
100
AcDbEntity
  8
0
 62
   253
100
AcDbVertex
100
AcDb3dPolylineVertex
 10
19.22365399999999
 20
2.211997999999999
 30
0.0
 70
    32
  0
SEQEND
  5
13BA
330
13AE
100
AcDbEntity
  8
0
 62
   253
  0
LINE
  5
13BB
330
1390
100
AcDbEntity
  8
0
 62
     1
100
AcDbLine
 10
19.11015599999999
 20
1.979964999999999
 30
0.0
 11
19.459862
 21
1.979964999999999
 31
0.0
  0
LINE
  5
13BC
330
1390
100
AcDbEntity
  8
0
 62
     1
100
AcDbLine
 10
19.11015599999999
 20
1.972033999999999
 30
0.0
 11
19.456975
 21
1.972033999999999
 31
0.0
  0
LINE
  5
13BD
330
1390
100
AcDbEntity
  8
0
 62
     1
100
AcDbLine
 10
18.71393899999999
 20
1.979964999999999
 30
0.0
 11
19.03431999999999
 21
1.979964999999999
 31
0.0
  0
LINE
  5
13BE
330
1390
100
AcDbEntity
  8
0
 62
     1
100
AcDbLine
 10
18.71393899999999
 20
1.972033999999999
 30
0.0
 11
19.03431999999999
 21
1.972033999999999
 31
0.0
  0
POLYLINE
  5
13BF
330
1390
100
AcDbEntity
  8
0
 62
   253
100
AcDb3dPolyline
 66
     1
 10
0.0
 20
0.0
 30
0.0
 70
     8
  0
VERTEX
  5
13C0
330
13BF
100
AcDbEntity
  8
0
 62
   253
100
AcDbVertex
100
AcDb3dPolylineVertex
 10
19.27651299999999
 20
1.979964999999999
 30
0.0
 70
    32
  0
VERTEX
  5
13C1
330
13BF
100
AcDbEntity
  8
0
 62
   253
100
AcDbVertex
100
AcDb3dPolylineVertex
 10
19.274698
 20
2.017331999999999
 30
0.0
 70
    32
  0
VERTEX
  5
13C2
330
13BF
100
AcDbEntity
  8
0
 62
   253
100
AcDbVertex
100
AcDb3dPolylineVertex
 10
19.269934
 20
2.053652999999999
 30
0.0
 70
    32
  0
VERTEX
  5
13C3
330
13BF
100
AcDbEntity
  8
0
 62
   253
100
AcDbVertex
100
AcDb3dPolylineVertex
 10
19.26233899999999
 20
2.088008999999999
 30
0.0
 70
    32
  0
VERTEX
  5
13C4
330
13BF
100
AcDbEntity
  8
0
 62
   253
100
AcDbVertex
100
AcDb3dPolylineVertex
 10
19.25210599999999
 20
2.119530999999999
 30
0.0
 70
    32
  0
VERTEX
  5
13C5
330
13BF
100
AcDbEntity
  8
0
 62
   253
100
AcDbVertex
100
AcDb3dPolylineVertex
 10
19.23949399999999
 20
2.147419999999999
 30
0.0
 70
    32
  0
VERTEX
  5
13C6
330
13BF
100
AcDbEntity
  8
0
 62
   253
100
AcDbVertex
100
AcDb3dPolylineVertex
 10
19.22482199999999
 20
2.170971999999999
 30
0.0
 70
    32
  0
VERTEX
  5
13C7
330
13BF
100
AcDbEntity
  8
0
 62
   253
100
AcDbVertex
100
AcDb3dPolylineVertex
 10
19.20846199999999
 20
2.189589999999999
 30
0.0
 70
    32
  0
VERTEX
  5
13C8
330
13BF
100
AcDbEntity
  8
0
 62
   253
100
AcDbVertex
100
AcDb3dPolylineVertex
 10
19.190826
 20
2.202802999999999
 30
0.0
 70
    32
  0
SEQEND
  5
13C9
330
13BF
100
AcDbEntity
  8
0
 62
   253
  0
POLYLINE
  5
13CA
330
1390
100
AcDbEntity
  8
0
 62
   253
100
AcDb3dPolyline
 66
     1
 10
0.0
 20
0.0
 30
0.0
 70
     8
  0
VERTEX
  5
13CB
330
13CA
100
AcDbEntity
  8
0
 62
   253
100
AcDbVertex
100
AcDb3dPolylineVertex
 10
19.059983
 20
1.843777999999999
 30
0.0
 70
    32
  0
VERTEX
  5
13CC
330
13CA
100
AcDbEntity
  8
0
 62
   253
100
AcDbVertex
100
AcDb3dPolylineVertex
 10
19.07202599999999
 20
1.813861999999999
 30
0.0
 70
    32
  0
VERTEX
  5
13CD
330
13CA
100
AcDbEntity
  8
0
 62
   253
100
AcDbVertex
100
AcDb3dPolylineVertex
 10
19.086342
 20
1.788229
 30
0.0
 70
    32
  0
VERTEX
  5
13CE
330
13CA
100
AcDbEntity
  8
0
 62
   253
100
AcDbVertex
100
AcDb3dPolylineVertex
 10
19.10255199999999
 20
1.767552999999999
 30
0.0
 70
    32
  0
VERTEX
  5
13CF
330
13CA
100
AcDbEntity
  8
0
 62
   253
100
AcDbVertex
100
AcDb3dPolylineVertex
 10
19.12022899999999
 20
1.752381999999999
 30
0.0
 70
    32
  0
VERTEX
  5
13D0
330
13CA
100
AcDbEntity
  8
0
 62
   253
100
AcDbVertex
100
AcDb3dPolylineVertex
 10
19.138906
 20
1.743115999999999
 30
0.0
 70
    32
  0
VERTEX
  5
13D1
330
13CA
100
AcDbEntity
  8
0
 62
   253
100
AcDbVertex
100
AcDb3dPolylineVertex
 10
19.158089
 20
1.74
 30
0.0
 70
    32
  0
SEQEND
  5
13D2
330
13CA
100
AcDbEntity
  8
0
 62
   253
  0
LINE
  5
13D3
330
1390
100
AcDbEntity
  8
0
 62
   253
100
AcDbLine
 10
19.06000799999999
 20
1.843811999999999
 30
0.0
 11
19.125551
 21
1.843811999999999
 31
0.0
  0
POLYLINE
  5
13D4
330
1390
100
AcDbEntity
  8
0
 62
   253
100
AcDb3dPolyline
 66
     1
 10
0.0
 20
0.0
 30
0.0
 70
     8
  0
VERTEX
  5
13D5
330
13D4
100
AcDbEntity
  8
0
 62
   253
100
AcDbVertex
100
AcDb3dPolylineVertex
 10
19.125541
 20
1.843798999999999
 30
0.0
 70
    32
  0
VERTEX
  5
13D6
330
13D4
100
AcDbEntity
  8
0
 62
   253
100
AcDbVertex
100
AcDb3dPolylineVertex
 10
19.137584
 20
1.813877999999999
 30
0.0
 70
    32
  0
VERTEX
  5
13D7
330
13D4
100
AcDbEntity
  8
0
 62
   253
100
AcDbVertex
100
AcDb3dPolylineVertex
 10
19.1519
 20
1.788238999999999
 30
0.0
 70
    32
  0
VERTEX
  5
13D8
330
13D4
100
AcDbEntity
  8
0
 62
   253
100
AcDbVertex
100
AcDb3dPolylineVertex
 10
19.16811099999999
 20
1.767558999999999
 30
0.0
 70
    32
  0
VERTEX
  5
13D9
330
13D4
100
AcDbEntity
  8
0
 62
   253
100
AcDbVertex
100
AcDb3dPolylineVertex
 10
19.18579
 20
1.752384999999999
 30
0.0
 70
    32
  0
VERTEX
  5
13DA
330
13D4
100
AcDbEntity
  8
0
 62
   253
100
AcDbVertex
100
AcDb3dPolylineVertex
 10
19.20446899999999
 20
1.743116999999999
 30
0.0
 70
    32
  0
VERTEX
  5
13DB
330
13D4
100
AcDbEntity
  8
0
 62
   253
100
AcDbVertex
100
AcDb3dPolylineVertex
 10
19.22365399999999
 20
1.74
 30
0.0
 70
    32
  0
SEQEND
  5
13DC
330
13D4
100
AcDbEntity
  8
0
 62
   253
  0
LINE
  5
13DD
330
1390
100
AcDbEntity
  8
0
 62
   253
100
AcDbLine
 10
19.007709
 20
1.945154999999999
 30
0.0
 11
19.13919199999999
 21
1.945154999999999
 31
0.0
  0
ARC
  5
13DE
330
1390
100
AcDbEntity
  8
0
 62
   253
100
AcDbCircle
 10
19.631084
 20
1.588072
 30
0.0
 40
0.6078377
100
AcDbArc
 50
144.0227
 51
153.385
  0
ARC
  5
13DF
330
1390
100
AcDbEntity
  8
0
 62
   253
100
AcDbCircle
 10
19.53622999999999
 20
2.363476999999999
 30
0.0
 40
0.6740383000000002
100
AcDbArc
 50
218.3615
 51
228.2790000000001
  0
POLYLINE
  5
13E0
330
1390
100
AcDbEntity
  8
0
 62
   253
100
AcDb3dPolyline
 66
     1
 10
0.0
 20
0.0
 30
0.0
 70
     8
  0
VERTEX
  5
13E1
330
13E0
100
AcDbEntity
  8
0
 62
   253
100
AcDbVertex
100
AcDb3dPolylineVertex
 10
19.22365399999999
 20
2.211997999999999
 30
0.0
 70
    32
  0
VERTEX
  5
13E2
330
13E0
100
AcDbEntity
  8
0
 62
   253
100
AcDbVertex
100
AcDb3dPolylineVertex
 10
19.20359399999999
 20
2.208587999999999
 30
0.0
 70
    32
  0
VERTEX
  5
13E3
330
13E0
100
AcDbEntity
  8
0
 62
   253
100
AcDbVertex
100
AcDb3dPolylineVertex
 10
19.18411299999999
 20
2.198457999999999
 30
0.0
 70
    32
  0
VERTEX
  5
13E4
330
13E0
100
AcDbEntity
  8
0
 62
   253
100
AcDbVertex
100
AcDb3dPolylineVertex
 10
19.16577599999999
 20
2.181899999999999
 30
0.0
 70
    32
  0
VERTEX
  5
13E5
330
13E0
100
AcDbEntity
  8
0
 62
   253
100
AcDbVertex
100
AcDb3dPolylineVertex
 10
19.14910999999999
 20
2.159392999999999
 30
0.0
 70
    32
  0
VERTEX
  5
13E6
330
13E0
100
AcDbEntity
  8
0
 62
   253
100
AcDbVertex
100
AcDb3dPolylineVertex
 10
19.134598
 20
2.131586999999998
 30
0.0
 70
    32
  0
VERTEX
  5
13E7
330
13E0
100
AcDbEntity
  8
0
 62
   253
100
AcDbVertex
100
AcDb3dPolylineVertex
 10
19.12265999999999
 20
2.099285
 30
0.0
 70
    32
  0
VERTEX
  5
13E8
330
13E0
100
AcDbEntity
  8
0
 62
   253
100
AcDbVertex
100
AcDb3dPolylineVertex
 10
19.11364
 20
2.063420999999999
 30
0.0
 70
    32
  0
VERTEX
  5
13E9
330
13E0
100
AcDbEntity
  8
0
 62
   253
100
AcDbVertex
100
AcDb3dPolylineVertex
 10
19.107798
 20
2.025030999999999
 30
0.0
 70
    32
  0
VERTEX
  5
13EA
330
13E0
100
AcDbEntity
  8
0
 62
   253
100
AcDbVertex
100
AcDb3dPolylineVertex
 10
19.105304
 20
1.985223999999999
 30
0.0
 70
    32
  0
VERTEX
  5
13EB
330
13E0
100
AcDbEntity
  8
0
 62
   253
100
AcDbVertex
100
AcDb3dPolylineVertex
 10
19.10623
 20
1.945149999999999
 30
0.0
 70
    32
  0
SEQEND
  5
13EC
330
13E0
100
AcDbEntity
  8
0
 62
   253
  0
POLYLINE
  5
13ED
330
1390
100
AcDbEntity
  8
0
 62
   253
100
AcDb3dPolyline
 66
     1
 10
0.0
 20
0.0
 30
0.0
 70
     8
  0
VERTEX
  5
13EE
330
13ED
100
AcDbEntity
  8
0
 62
   253
100
AcDbVertex
100
AcDb3dPolylineVertex
 10
19.158089
 20
2.211997999999999
 30
0.0
 70
    32
  0
VERTEX
  5
13EF
330
13ED
100
AcDbEntity
  8
0
 62
   253
100
AcDbVertex
100
AcDb3dPolylineVertex
 10
19.13802899999999
 20
2.208587999999999
 30
0.0
 70
    32
  0
VERTEX
  5
13F0
330
13ED
100
AcDbEntity
  8
0
 62
   253
100
AcDbVertex
100
AcDb3dPolylineVertex
 10
19.118548
 20
2.198457999999999
 30
0.0
 70
    32
  0
VERTEX
  5
13F1
330
13ED
100
AcDbEntity
  8
0
 62
   253
100
AcDbVertex
100
AcDb3dPolylineVertex
 10
19.10021
 20
2.181899999999999
 30
0.0
 70
    32
  0
VERTEX
  5
13F2
330
13ED
100
AcDbEntity
  8
0
 62
   253
100
AcDbVertex
100
AcDb3dPolylineVertex
 10
19.083545
 20
2.159391999999999
 30
0.0
 70
    32
  0
VERTEX
  5
13F3
330
13ED
100
AcDbEntity
  8
0
 62
   253
100
AcDbVertex
100
AcDb3dPolylineVertex
 10
19.06903299999999
 20
2.131584999999999
 30
0.0
 70
    32
  0
VERTEX
  5
13F4
330
13ED
100
AcDbEntity
  8
0
 62
   253
100
AcDbVertex
100
AcDb3dPolylineVertex
 10
19.057094
 20
2.099282999999999
 30
0.0
 70
    32
  0
VERTEX
  5
13F5
330
13ED
100
AcDbEntity
  8
0
 62
   253
100
AcDbVertex
100
AcDb3dPolylineVertex
 10
19.048075
 20
2.063417999999999
 30
0.0
 70
    32
  0
VERTEX
  5
13F6
330
13ED
100
AcDbEntity
  8
0
 62
   253
100
AcDbVertex
100
AcDb3dPolylineVertex
 10
19.04223299999999
 20
2.025026999999999
 30
0.0
 70
    32
  0
VERTEX
  5
13F7
330
13ED
100
AcDbEntity
  8
0
 62
   253
100
AcDbVertex
100
AcDb3dPolylineVertex
 10
19.03973999999999
 20
1.985219999999999
 30
0.0
 70
    32
  0
VERTEX
  5
13F8
330
13ED
100
AcDbEntity
  8
0
 62
   253
100
AcDbVertex
100
AcDb3dPolylineVertex
 10
19.040666
 20
1.945145999999999
 30
0.0
 70
    32
  0
SEQEND
  5
13F9
330
13ED
100
AcDbEntity
  8
0
 62
   253
  0
LINE
  5
13FA
330
1390
100
AcDbEntity
  8
0
 62
     1
100
AcDbLine
 10
19.474841
 20
2.021118999999999
 30
0.0
 11
19.43821099999999
 21
1.920479999999999
 31
0.0
  0
ARC
  5
13FB
330
1390
100
AcDbEntity
  8
0
 62
     1
100
AcDbCircle
 10
19.64447299999999
 20
2.312252999999999
 30
0.0
 40
0.3369480999999999
100
AcDbArc
 50
239.7724
 51
266.3224
  0
ARC
  5
13FC
330
1390
100
AcDbEntity
  8
0
 62
     1
100
AcDbCircle
 10
-19.69678299999999
 20
1.395324999999999
 30
0.0
 40
0.5853601
210
0.0
220
0.0
230
-1.0
100
AcDbArc
 50
63.78574
 51
82.74503000000001
  0
POLYLINE
  5
13FD
330
1390
100
AcDbEntity
  8
0
 62
   253
100
AcDb3dPolyline
 66
     1
 10
0.0
 20
0.0
 30
0.0
 70
     8
  0
VERTEX
  5
13FE
330
13FD
100
AcDbEntity
  8
0
 62
   253
100
AcDbVertex
100
AcDb3dPolylineVertex
 10
19.17671699999999
 20
2.210305999999999
 30
0.0
 70
    32
  0
VERTEX
  5
13FF
330
13FD
100
AcDbEntity
  8
0
 62
   253
100
AcDbVertex
100
AcDb3dPolylineVertex
 10
19.158367
 20
2.202935999999999
 30
0.0
 70
    32
  0
VERTEX
  5
1400
330
13FD
100
AcDbEntity
  8
0
 62
   253
100
AcDbVertex
100
AcDb3dPolylineVertex
 10
19.140829
 20
2.189897999999999
 30
0.0
 70
    32
  0
VERTEX
  5
1401
330
13FD
100
AcDbEntity
  8
0
 62
   253
100
AcDbVertex
100
AcDb3dPolylineVertex
 10
19.12454099999999
 20
2.171516999999999
 30
0.0
 70
    32
  0
VERTEX
  5
1402
330
13FD
100
AcDbEntity
  8
0
 62
   253
100
AcDbVertex
100
AcDb3dPolylineVertex
 10
19.10991
 20
2.148251999999999
 30
0.0
 70
    32
  0
VERTEX
  5
1403
330
13FD
100
AcDbEntity
  8
0
 62
   253
100
AcDbVertex
100
AcDb3dPolylineVertex
 10
19.097301
 20
2.120683999999998
 30
0.0
 70
    32
  0
VERTEX
  5
1404
330
13FD
100
AcDbEntity
  8
0
 62
   253
100
AcDbVertex
100
AcDb3dPolylineVertex
 10
19.087029
 20
2.089501999999999
 30
0.0
 70
    32
  0
VERTEX
  5
1405
330
13FD
100
AcDbEntity
  8
0
 62
   253
100
AcDbVertex
100
AcDb3dPolylineVertex
 10
19.079352
 20
2.055485
 30
0.0
 70
    32
  0
VERTEX
  5
1406
330
13FD
100
AcDbEntity
  8
0
 62
   253
100
AcDbVertex
100
AcDb3dPolylineVertex
 10
19.074459
 20
2.019483
 30
0.0
 70
    32
  0
VERTEX
  5
1407
330
13FD
100
AcDbEntity
  8
0
 62
   253
100
AcDbVertex
100
AcDb3dPolylineVertex
 10
19.072475
 20
1.982394999999999
 30
0.0
 70
    32
  0
VERTEX
  5
1408
330
13FD
100
AcDbEntity
  8
0
 62
   253
100
AcDbVertex
100
AcDb3dPolylineVertex
 10
19.073448
 20
1.945145999999999
 30
0.0
 70
    32
  0
SEQEND
  5
1409
330
13FD
100
AcDbEntity
  8
0
 62
   253
  0
POLYLINE
  5
140A
330
1390
100
AcDbEntity
  8
0
 62
   253
100
AcDb3dPolyline
 66
     1
 10
0.0
 20
0.0
 30
0.0
 70
     8
  0
VERTEX
  5
140B
330
140A
100
AcDbEntity
  8
0
 62
   253
100
AcDbVertex
100
AcDb3dPolylineVertex
 10
19.092766
 20
1.843777999999999
 30
0.0
 70
    32
  0
VERTEX
  5
140C
330
140A
100
AcDbEntity
  8
0
 62
   253
100
AcDbVertex
100
AcDb3dPolylineVertex
 10
19.10317399999999
 20
1.817377999999999
 30
0.0
 70
    32
  0
VERTEX
  5
140D
330
140A
100
AcDbEntity
  8
0
 62
   253
100
AcDbVertex
100
AcDb3dPolylineVertex
 10
19.115358
 20
1.794187999999999
 30
0.0
 70
    32
  0
VERTEX
  5
140E
330
140A
100
AcDbEntity
  8
0
 62
   253
100
AcDbVertex
100
AcDb3dPolylineVertex
 10
19.129069
 20
1.774676999999999
 30
0.0
 70
    32
  0
VERTEX
  5
140F
330
140A
100
AcDbEntity
  8
0
 62
   253
100
AcDbVertex
100
AcDb3dPolylineVertex
 10
19.144031
 20
1.75924
 30
0.0
 70
    32
  0
VERTEX
  5
1410
330
140A
100
AcDbEntity
  8
0
 62
   253
100
AcDbVertex
100
AcDb3dPolylineVertex
 10
19.15994099999999
 20
1.748188999999999
 30
0.0
 70
    32
  0
VERTEX
  5
1411
330
140A
100
AcDbEntity
  8
0
 62
   253
100
AcDbVertex
100
AcDb3dPolylineVertex
 10
19.176477
 20
1.741749999999999
 30
0.0
 70
    32
  0
SEQEND
  5
1412
330
140A
100
AcDbEntity
  8
0
 62
   253
  0
POLYLINE
  5
1413
330
1390
100
AcDbEntity
  8
0
 62
   253
100
AcDb3dPolyline
 66
     1
 10
0.0
 20
0.0
 30
0.0
 70
     8
  0
VERTEX
  5
1414
330
1413
100
AcDbEntity
  8
0
 62
   253
100
AcDbVertex
100
AcDb3dPolylineVertex
 10
19.16614199999999
 20
2.210305999999999
 30
0.0
 70
    32
  0
VERTEX
  5
1415
330
1413
100
AcDbEntity
  8
0
 62
   253
100
AcDbVertex
100
AcDb3dPolylineVertex
 10
19.14779199999999
 20
2.202935999999999
 30
0.0
 70
    32
  0
VERTEX
  5
1416
330
1413
100
AcDbEntity
  8
0
 62
   253
100
AcDbVertex
100
AcDb3dPolylineVertex
 10
19.13025399999999
 20
2.189897999999999
 30
0.0
 70
    32
  0
VERTEX
  5
1417
330
1413
100
AcDbEntity
  8
0
 62
   253
100
AcDbVertex
100
AcDb3dPolylineVertex
 10
19.11396599999999
 20
2.171516999999999
 30
0.0
 70
    32
  0
VERTEX
  5
1418
330
1413
100
AcDbEntity
  8
0
 62
   253
100
AcDbVertex
100
AcDb3dPolylineVertex
 10
19.09933499999999
 20
2.148251999999999
 30
0.0
 70
    32
  0
VERTEX
  5
1419
330
1413
100
AcDbEntity
  8
0
 62
   253
100
AcDbVertex
100
AcDb3dPolylineVertex
 10
19.086726
 20
2.120683999999998
 30
0.0
 70
    32
  0
VERTEX
  5
141A
330
1413
100
AcDbEntity
  8
0
 62
   253
100
AcDbVertex
100
AcDb3dPolylineVertex
 10
19.076454
 20
2.089501999999999
 30
0.0
 70
    32
  0
VERTEX
  5
141B
330
1413
100
AcDbEntity
  8
0
 62
   253
100
AcDbVertex
100
AcDb3dPolylineVertex
 10
19.068777
 20
2.055485
 30
0.0
 70
    32
  0
VERTEX
  5
141C
330
1413
100
AcDbEntity
  8
0
 62
   253
100
AcDbVertex
100
AcDb3dPolylineVertex
 10
19.063884
 20
2.019483
 30
0.0
 70
    32
  0
VERTEX
  5
141D
330
1413
100
AcDbEntity
  8
0
 62
   253
100
AcDbVertex
100
AcDb3dPolylineVertex
 10
19.06189999999999
 20
1.982394999999999
 30
0.0
 70
    32
  0
VERTEX
  5
141E
330
1413
100
AcDbEntity
  8
0
 62
   253
100
AcDbVertex
100
AcDb3dPolylineVertex
 10
19.06287299999999
 20
1.945145999999999
 30
0.0
 70
    32
  0
SEQEND
  5
141F
330
1413
100
AcDbEntity
  8
0
 62
   253
  0
POLYLINE
  5
1420
330
1390
100
AcDbEntity
  8
0
 62
   253
100
AcDb3dPolyline
 66
     1
 10
0.0
 20
0.0
 30
0.0
 70
     8
  0
VERTEX
  5
1421
330
1420
100
AcDbEntity
  8
0
 62
   253
100
AcDbVertex
100
AcDb3dPolylineVertex
 10
19.08219
 20
1.843777999999999
 30
0.0
 70
    32
  0
VERTEX
  5
1422
330
1420
100
AcDbEntity
  8
0
 62
   253
100
AcDbVertex
100
AcDb3dPolylineVertex
 10
19.09259899999999
 20
1.817377999999999
 30
0.0
 70
    32
  0
VERTEX
  5
1423
330
1420
100
AcDbEntity
  8
0
 62
   253
100
AcDbVertex
100
AcDb3dPolylineVertex
 10
19.104783
 20
1.794187999999999
 30
0.0
 70
    32
  0
VERTEX
  5
1424
330
1420
100
AcDbEntity
  8
0
 62
   253
100
AcDbVertex
100
AcDb3dPolylineVertex
 10
19.118493
 20
1.774676999999999
 30
0.0
 70
    32
  0
VERTEX
  5
1425
330
1420
100
AcDbEntity
  8
0
 62
   253
100
AcDbVertex
100
AcDb3dPolylineVertex
 10
19.13345599999999
 20
1.75924
 30
0.0
 70
    32
  0
VERTEX
  5
1426
330
1420
100
AcDbEntity
  8
0
 62
   253
100
AcDbVertex
100
AcDb3dPolylineVertex
 10
19.149366
 20
1.748188999999999
 30
0.0
 70
    32
  0
VERTEX
  5
1427
330
1420
100
AcDbEntity
  8
0
 62
   253
100
AcDbVertex
100
AcDb3dPolylineVertex
 10
19.16590199999999
 20
1.741749999999999
 30
0.0
 70
    32
  0
SEQEND
  5
1428
330
1420
100
AcDbEntity
  8
0
 62
   253
  0
POLYLINE
  5
1429
330
1390
100
AcDbEntity
  8
0
 62
   253
100
AcDb3dPolyline
 66
     1
 10
0.0
 20
0.0
 30
0.0
 70
     8
  0
VERTEX
  5
142A
330
1429
100
AcDbEntity
  8
0
 62
   253
100
AcDbVertex
100
AcDb3dPolylineVertex
 10
19.15556699999999
 20
2.210305999999999
 30
0.0
 70
    32
  0
VERTEX
  5
142B
330
1429
100
AcDbEntity
  8
0
 62
   253
100
AcDbVertex
100
AcDb3dPolylineVertex
 10
19.13721699999999
 20
2.202935999999999
 30
0.0
 70
    32
  0
VERTEX
  5
142C
330
1429
100
AcDbEntity
  8
0
 62
   253
100
AcDbVertex
100
AcDb3dPolylineVertex
 10
19.119679
 20
2.189897999999999
 30
0.0
 70
    32
  0
VERTEX
  5
142D
330
1429
100
AcDbEntity
  8
0
 62
   253
100
AcDbVertex
100
AcDb3dPolylineVertex
 10
19.103391
 20
2.171516999999999
 30
0.0
 70
    32
  0
VERTEX
  5
142E
330
1429
100
AcDbEntity
  8
0
 62
   253
100
AcDbVertex
100
AcDb3dPolylineVertex
 10
19.08875999999999
 20
2.148251999999999
 30
0.0
 70
    32
  0
VERTEX
  5
142F
330
1429
100
AcDbEntity
  8
0
 62
   253
100
AcDbVertex
100
AcDb3dPolylineVertex
 10
19.07615099999999
 20
2.120683999999998
 30
0.0
 70
    32
  0
VERTEX
  5
1430
330
1429
100
AcDbEntity
  8
0
 62
   253
100
AcDbVertex
100
AcDb3dPolylineVertex
 10
19.06587899999999
 20
2.089501999999999
 30
0.0
 70
    32
  0
VERTEX
  5
1431
330
1429
100
AcDbEntity
  8
0
 62
   253
100
AcDbVertex
100
AcDb3dPolylineVertex
 10
19.05820199999999
 20
2.055485
 30
0.0
 70
    32
  0
VERTEX
  5
1432
330
1429
100
AcDbEntity
  8
0
 62
   253
100
AcDbVertex
100
AcDb3dPolylineVertex
 10
19.053309
 20
2.019483
 30
0.0
 70
    32
  0
VERTEX
  5
1433
330
1429
100
AcDbEntity
  8
0
 62
   253
100
AcDbVertex
100
AcDb3dPolylineVertex
 10
19.051325
 20
1.982394999999999
 30
0.0
 70
    32
  0
VERTEX
  5
1434
330
1429
100
AcDbEntity
  8
0
 62
   253
100
AcDbVertex
100
AcDb3dPolylineVertex
 10
19.05229799999999
 20
1.945145999999999
 30
0.0
 70
    32
  0
SEQEND
  5
1435
330
1429
100
AcDbEntity
  8
0
 62
   253
  0
POLYLINE
  5
1436
330
1390
100
AcDbEntity
  8
0
 62
   253
100
AcDb3dPolyline
 66
     1
 10
0.0
 20
0.0
 30
0.0
 70
     8
  0
VERTEX
  5
1437
330
1436
100
AcDbEntity
  8
0
 62
   253
100
AcDbVertex
100
AcDb3dPolylineVertex
 10
19.071616
 20
1.843777999999999
 30
0.0
 70
    32
  0
VERTEX
  5
1438
330
1436
100
AcDbEntity
  8
0
 62
   253
100
AcDbVertex
100
AcDb3dPolylineVertex
 10
19.082024
 20
1.817377999999999
 30
0.0
 70
    32
  0
VERTEX
  5
1439
330
1436
100
AcDbEntity
  8
0
 62
   253
100
AcDbVertex
100
AcDb3dPolylineVertex
 10
19.09420799999999
 20
1.794187999999999
 30
0.0
 70
    32
  0
VERTEX
  5
143A
330
1436
100
AcDbEntity
  8
0
 62
   253
100
AcDbVertex
100
AcDb3dPolylineVertex
 10
19.10791899999999
 20
1.774676999999999
 30
0.0
 70
    32
  0
VERTEX
  5
143B
330
1436
100
AcDbEntity
  8
0
 62
   253
100
AcDbVertex
100
AcDb3dPolylineVertex
 10
19.12288099999999
 20
1.75924
 30
0.0
 70
    32
  0
VERTEX
  5
143C
330
1436
100
AcDbEntity
  8
0
 62
   253
100
AcDbVertex
100
AcDb3dPolylineVertex
 10
19.138791
 20
1.748188999999999
 30
0.0
 70
    32
  0
VERTEX
  5
143D
330
1436
100
AcDbEntity
  8
0
 62
   253
100
AcDbVertex
100
AcDb3dPolylineVertex
 10
19.155327
 20
1.741749999999999
 30
0.0
 70
    32
  0
SEQEND
  5
143E
330
1436
100
AcDbEntity
  8
0
 62
   253
  0
POLYLINE
  5
143F
330
1390
100
AcDbEntity
  8
0
 62
   253
100
AcDb3dPolyline
 66
     1
 10
0.0
 20
0.0
 30
0.0
 70
     8
  0
VERTEX
  5
1440
330
143F
100
AcDbEntity
  8
0
 62
   253
100
AcDbVertex
100
AcDb3dPolylineVertex
 10
19.187292
 20
2.210305999999999
 30
0.0
 70
    32
  0
VERTEX
  5
1441
330
143F
100
AcDbEntity
  8
0
 62
   253
100
AcDbVertex
100
AcDb3dPolylineVertex
 10
19.168942
 20
2.202935999999999
 30
0.0
 70
    32
  0
VERTEX
  5
1442
330
143F
100
AcDbEntity
  8
0
 62
   253
100
AcDbVertex
100
AcDb3dPolylineVertex
 10
19.151404
 20
2.189897999999999
 30
0.0
 70
    32
  0
VERTEX
  5
1443
330
143F
100
AcDbEntity
  8
0
 62
   253
100
AcDbVertex
100
AcDb3dPolylineVertex
 10
19.13511599999999
 20
2.171516999999999
 30
0.0
 70
    32
  0
VERTEX
  5
1444
330
143F
100
AcDbEntity
  8
0
 62
   253
100
AcDbVertex
100
AcDb3dPolylineVertex
 10
19.120485
 20
2.148251999999999
 30
0.0
 70
    32
  0
VERTEX
  5
1445
330
143F
100
AcDbEntity
  8
0
 62
   253
100
AcDbVertex
100
AcDb3dPolylineVertex
 10
19.107876
 20
2.120683999999998
 30
0.0
 70
    32
  0
VERTEX
  5
1446
330
143F
100
AcDbEntity
  8
0
 62
   253
100
AcDbVertex
100
AcDb3dPolylineVertex
 10
19.09760399999999
 20
2.089501999999999
 30
0.0
 70
    32
  0
VERTEX
  5
1447
330
143F
100
AcDbEntity
  8
0
 62
   253
100
AcDbVertex
100
AcDb3dPolylineVertex
 10
19.08992699999999
 20
2.055485
 30
0.0
 70
    32
  0
VERTEX
  5
1448
330
143F
100
AcDbEntity
  8
0
 62
   253
100
AcDbVertex
100
AcDb3dPolylineVertex
 10
19.08503399999999
 20
2.019483
 30
0.0
 70
    32
  0
VERTEX
  5
1449
330
143F
100
AcDbEntity
  8
0
 62
   253
100
AcDbVertex
100
AcDb3dPolylineVertex
 10
19.08305
 20
1.982394999999999
 30
0.0
 70
    32
  0
VERTEX
  5
144A
330
143F
100
AcDbEntity
  8
0
 62
   253
100
AcDbVertex
100
AcDb3dPolylineVertex
 10
19.084023
 20
1.945145999999999
 30
0.0
 70
    32
  0
SEQEND
  5
144B
330
143F
100
AcDbEntity
  8
0
 62
   253
  0
POLYLINE
  5
144C
330
1390
100
AcDbEntity
  8
0
 62
   253
100
AcDb3dPolyline
 66
     1
 10
0.0
 20
0.0
 30
0.0
 70
     8
  0
VERTEX
  5
144D
330
144C
100
AcDbEntity
  8
0
 62
   253
100
AcDbVertex
100
AcDb3dPolylineVertex
 10
19.103341
 20
1.843777999999999
 30
0.0
 70
    32
  0
VERTEX
  5
144E
330
144C
100
AcDbEntity
  8
0
 62
   253
100
AcDbVertex
100
AcDb3dPolylineVertex
 10
19.113749
 20
1.817377999999999
 30
0.0
 70
    32
  0
VERTEX
  5
144F
330
144C
100
AcDbEntity
  8
0
 62
   253
100
AcDbVertex
100
AcDb3dPolylineVertex
 10
19.12593299999999
 20
1.794187999999999
 30
0.0
 70
    32
  0
VERTEX
  5
1450
330
144C
100
AcDbEntity
  8
0
 62
   253
100
AcDbVertex
100
AcDb3dPolylineVertex
 10
19.139644
 20
1.774676999999999
 30
0.0
 70
    32
  0
VERTEX
  5
1451
330
144C
100
AcDbEntity
  8
0
 62
   253
100
AcDbVertex
100
AcDb3dPolylineVertex
 10
19.154606
 20
1.75924
 30
0.0
 70
    32
  0
VERTEX
  5
1452
330
144C
100
AcDbEntity
  8
0
 62
   253
100
AcDbVertex
100
AcDb3dPolylineVertex
 10
19.170516
 20
1.748188999999999
 30
0.0
 70
    32
  0
VERTEX
  5
1453
330
144C
100
AcDbEntity
  8
0
 62
   253
100
AcDbVertex
100
AcDb3dPolylineVertex
 10
19.18705199999999
 20
1.741749999999999
 30
0.0
 70
    32
  0
SEQEND
  5
1454
330
144C
100
AcDbEntity
  8
0
 62
   253
  0
POLYLINE
  5
1455
330
1390
100
AcDbEntity
  8
0
 62
   253
100
AcDb3dPolyline
 66
     1
 10
0.0
 20
0.0
 30
0.0
 70
     8
  0
VERTEX
  5
1456
330
1455
100
AcDbEntity
  8
0
 62
   253
100
AcDbVertex
100
AcDb3dPolylineVertex
 10
19.197867
 20
2.210305999999999
 30
0.0
 70
    32
  0
VERTEX
  5
1457
330
1455
100
AcDbEntity
  8
0
 62
   253
100
AcDbVertex
100
AcDb3dPolylineVertex
 10
19.17951699999999
 20
2.202935999999999
 30
0.0
 70
    32
  0
VERTEX
  5
1458
330
1455
100
AcDbEntity
  8
0
 62
   253
100
AcDbVertex
100
AcDb3dPolylineVertex
 10
19.161979
 20
2.189897999999999
 30
0.0
 70
    32
  0
VERTEX
  5
1459
330
1455
100
AcDbEntity
  8
0
 62
   253
100
AcDbVertex
100
AcDb3dPolylineVertex
 10
19.145691
 20
2.171516999999999
 30
0.0
 70
    32
  0
VERTEX
  5
145A
330
1455
100
AcDbEntity
  8
0
 62
   253
100
AcDbVertex
100
AcDb3dPolylineVertex
 10
19.13106
 20
2.148251999999999
 30
0.0
 70
    32
  0
VERTEX
  5
145B
330
1455
100
AcDbEntity
  8
0
 62
   253
100
AcDbVertex
100
AcDb3dPolylineVertex
 10
19.11845099999999
 20
2.120683999999998
 30
0.0
 70
    32
  0
VERTEX
  5
145C
330
1455
100
AcDbEntity
  8
0
 62
   253
100
AcDbVertex
100
AcDb3dPolylineVertex
 10
19.108179
 20
2.089501999999999
 30
0.0
 70
    32
  0
VERTEX
  5
145D
330
1455
100
AcDbEntity
  8
0
 62
   253
100
AcDbVertex
100
AcDb3dPolylineVertex
 10
19.10050099999999
 20
2.055485
 30
0.0
 70
    32
  0
VERTEX
  5
145E
330
1455
100
AcDbEntity
  8
0
 62
   253
100
AcDbVertex
100
AcDb3dPolylineVertex
 10
19.09560899999999
 20
2.019483
 30
0.0
 70
    32
  0
VERTEX
  5
145F
330
1455
100
AcDbEntity
  8
0
 62
   253
100
AcDbVertex
100
AcDb3dPolylineVertex
 10
19.09362499999999
 20
1.982394999999999
 30
0.0
 70
    32
  0
VERTEX
  5
1460
330
1455
100
AcDbEntity
  8
0
 62
   253
100
AcDbVertex
100
AcDb3dPolylineVertex
 10
19.094598
 20
1.945145999999999
 30
0.0
 70
    32
  0
SEQEND
  5
1461
330
1455
100
AcDbEntity
  8
0
 62
   253
  0
POLYLINE
  5
1462
330
1390
100
AcDbEntity
  8
0
 62
   253
100
AcDb3dPolyline
 66
     1
 10
0.0
 20
0.0
 30
0.0
 70
     8
  0
VERTEX
  5
1463
330
1462
100
AcDbEntity
  8
0
 62
   253
100
AcDbVertex
100
AcDb3dPolylineVertex
 10
19.113915
 20
1.843777999999999
 30
0.0
 70
    32
  0
VERTEX
  5
1464
330
1462
100
AcDbEntity
  8
0
 62
   253
100
AcDbVertex
100
AcDb3dPolylineVertex
 10
19.124324
 20
1.817377999999999
 30
0.0
 70
    32
  0
VERTEX
  5
1465
330
1462
100
AcDbEntity
  8
0
 62
   253
100
AcDbVertex
100
AcDb3dPolylineVertex
 10
19.13650699999999
 20
1.794187999999999
 30
0.0
 70
    32
  0
VERTEX
  5
1466
330
1462
100
AcDbEntity
  8
0
 62
   253
100
AcDbVertex
100
AcDb3dPolylineVertex
 10
19.15021799999999
 20
1.774676999999999
 30
0.0
 70
    32
  0
VERTEX
  5
1467
330
1462
100
AcDbEntity
  8
0
 62
   253
100
AcDbVertex
100
AcDb3dPolylineVertex
 10
19.165181
 20
1.75924
 30
0.0
 70
    32
  0
VERTEX
  5
1468
330
1462
100
AcDbEntity
  8
0
 62
   253
100
AcDbVertex
100
AcDb3dPolylineVertex
 10
19.18109099999999
 20
1.748188999999999
 30
0.0
 70
    32
  0
VERTEX
  5
1469
330
1462
100
AcDbEntity
  8
0
 62
   253
100
AcDbVertex
100
AcDb3dPolylineVertex
 10
19.19762699999999
 20
1.741749999999999
 30
0.0
 70
    32
  0
SEQEND
  5
146A
330
1462
100
AcDbEntity
  8
0
 62
   253
  0
LINE
  5
146B
330
1390
100
AcDbEntity
  8
0
 62
   253
100
AcDbLine
 10
19.030038
 20
1.934579999999999
 30
0.0
 11
19.11886699999999
 21
1.934579999999999
 31
0.0
  0
ARC
  5
146C
330
1390
100
AcDbEntity
  8
0
 62
   253
100
AcDbCircle
 10
19.631084
 20
1.588072
 30
0.0
 40
0.6184126
100
AcDbArc
 50
145.9222
 51
152.096
  0
ARC
  5
146D
330
1390
100
AcDbEntity
  8
0
 62
   253
100
AcDbCircle
 10
19.53622999999999
 20
2.363476999999999
 30
0.0
 40
0.6634633000000001
100
AcDbArc
 50
220.2746
 51
227.0972
  0
LINE
  5
146E
330
1390
100
AcDbEntity
  8
0
 62
   253
100
AcDbLine
 10
19.053398
 20
1.924005999999999
 30
0.0
 11
19.09931899999999
 21
1.924005999999999
 31
0.0
  0
ARC
  5
146F
330
1390
100
AcDbEntity
  8
0
 62
   253
100
AcDbCircle
 10
19.53622999999999
 20
2.363476999999999
 30
0.0
 40
0.6528884000000001
100
AcDbArc
 50
222.3083
 51
225.8983
  0
ARC
  5
1470
330
1390
100
AcDbEntity
  8
0
 62
   253
100
AcDbCircle
 10
19.631084
 20
1.588072
 30
0.0
 40
0.6289876999999999
100
AcDbArc
 50
147.7181
 51
150.8307
  0
ARC
  5
1471
330
1390
100
AcDbEntity
  8
0
 62
   253
100
AcDbCircle
 10
19.53622999999999
 20
2.363476999999999
 30
0.0
 40
0.6423133000000001
100
AcDbArc
 50
224.4805
 51
224.6808
  0
LINE
  5
1472
330
1390
100
AcDbEntity
  8
0
 62
   253
100
AcDbLine
 10
19.07794699999999
 20
1.913429999999999
 30
0.0
 11
19.080464
 21
1.913429999999999
 31
0.0
  0
ARC
  5
1473
330
1390
100
AcDbEntity
  8
0
 62
   253
100
AcDbCircle
 10
19.631084
 20
1.588072
 30
0.0
 40
0.6395626
100
AcDbArc
 50
149.4214
 51
149.5877
  0
POLYLINE
  5
1474
330
1390
100
AcDbEntity
  8
0
 62
   253
100
AcDb3dPolyline
 66
     1
 10
0.0
 20
0.0
 30
0.0
 70
     8
  0
VERTEX
  5
1475
330
1474
100
AcDbEntity
  8
0
 62
   253
100
AcDbVertex
100
AcDb3dPolylineVertex
 10
19.190927
 20
1.749251999999999
 30
0.0
 70
    32
  0
VERTEX
  5
1476
330
1474
100
AcDbEntity
  8
0
 62
   253
100
AcDbVertex
100
AcDb3dPolylineVertex
 10
19.208545
 20
1.762485999999999
 30
0.0
 70
    32
  0
VERTEX
  5
1477
330
1474
100
AcDbEntity
  8
0
 62
   253
100
AcDbVertex
100
AcDb3dPolylineVertex
 10
19.22488699999999
 20
1.781114999999999
 30
0.0
 70
    32
  0
VERTEX
  5
1478
330
1474
100
AcDbEntity
  8
0
 62
   253
100
AcDbVertex
100
AcDb3dPolylineVertex
 10
19.239542
 20
1.804666999999999
 30
0.0
 70
    32
  0
VERTEX
  5
1479
330
1474
100
AcDbEntity
  8
0
 62
   253
100
AcDbVertex
100
AcDb3dPolylineVertex
 10
19.25213799999999
 20
1.832550999999999
 30
0.0
 70
    32
  0
VERTEX
  5
147A
330
1474
100
AcDbEntity
  8
0
 62
   253
100
AcDbVertex
100
AcDb3dPolylineVertex
 10
19.262358
 20
1.864057999999999
 30
0.0
 70
    32
  0
VERTEX
  5
147B
330
1474
100
AcDbEntity
  8
0
 62
   253
100
AcDbVertex
100
AcDb3dPolylineVertex
 10
19.269942
 20
1.898393999999999
 30
0.0
 70
    32
  0
VERTEX
  5
147C
330
1474
100
AcDbEntity
  8
0
 62
   253
100
AcDbVertex
100
AcDb3dPolylineVertex
 10
19.27470099999999
 20
1.934690999999999
 30
0.0
 70
    32
  0
VERTEX
  5
147D
330
1474
100
AcDbEntity
  8
0
 62
   253
100
AcDbVertex
100
AcDb3dPolylineVertex
 10
19.27651299999999
 20
1.972032999999999
 30
0.0
 70
    32
  0
SEQEND
  5
147E
330
1474
100
AcDbEntity
  8
0
 62
   253
  0
POLYLINE
  5
147F
330
1390
100
AcDbEntity
  8
0
 62
   253
100
AcDb3dPolyline
 66
     1
 10
0.0
 20
0.0
 30
0.0
 70
     8
  0
VERTEX
  5
1480
330
147F
100
AcDbEntity
  8
0
 62
   253
100
AcDbVertex
100
AcDb3dPolylineVertex
 10
19.22365399999999
 20
1.74
 30
0.0
 70
    32
  0
VERTEX
  5
1481
330
147F
100
AcDbEntity
  8
0
 62
   253
100
AcDbVertex
100
AcDb3dPolylineVertex
 10
19.241985
 20
1.742843999999998
 30
0.0
 70
    32
  0
VERTEX
  5
1482
330
147F
100
AcDbEntity
  8
0
 62
   253
100
AcDbVertex
100
AcDb3dPolylineVertex
 10
19.25987499999999
 20
1.751306999999999
 30
0.0
 70
    32
  0
VERTEX
  5
1483
330
147F
100
AcDbEntity
  8
0
 62
   253
100
AcDbVertex
100
AcDb3dPolylineVertex
 10
19.27689199999999
 20
1.765184999999999
 30
0.0
 70
    32
  0
VERTEX
  5
1484
330
147F
100
AcDbEntity
  8
0
 62
   253
100
AcDbVertex
100
AcDb3dPolylineVertex
 10
19.292625
 20
1.784143
 30
0.0
 70
    32
  0
VERTEX
  5
1485
330
147F
100
AcDbEntity
  8
0
 62
   253
100
AcDbVertex
100
AcDb3dPolylineVertex
 10
19.306697
 20
1.807725999999999
 30
0.0
 70
    32
  0
VERTEX
  5
1486
330
147F
100
AcDbEntity
  8
0
 62
   253
100
AcDbVertex
100
AcDb3dPolylineVertex
 10
19.31876699999999
 20
1.835364
 30
0.0
 70
    32
  0
VERTEX
  5
1487
330
147F
100
AcDbEntity
  8
0
 62
   253
100
AcDbVertex
100
AcDb3dPolylineVertex
 10
19.328545
 20
1.866390999999999
 30
0.0
 70
    32
  0
VERTEX
  5
1488
330
147F
100
AcDbEntity
  8
0
 62
   253
100
AcDbVertex
100
AcDb3dPolylineVertex
 10
19.335794
 20
1.900059999999999
 30
0.0
 70
    32
  0
VERTEX
  5
1489
330
147F
100
AcDbEntity
  8
0
 62
   253
100
AcDbVertex
100
AcDb3dPolylineVertex
 10
19.34034199999999
 20
1.935558999999999
 30
0.0
 70
    32
  0
VERTEX
  5
148A
330
147F
100
AcDbEntity
  8
0
 62
   253
100
AcDbVertex
100
AcDb3dPolylineVertex
 10
19.34207699999999
 20
1.972032999999999
 30
0.0
 70
    32
  0
SEQEND
  5
148B
330
147F
100
AcDbEntity
  8
0
 62
   253
  0
LINE
  5
148C
330
1390
100
AcDbEntity
  8
0
 62
     1
100
AcDbLine
 10
19.479093
 20
2.009612999999999
 30
0.0
 11
19.452258
 21
1.935883
 31
0.0
  0
ARC
  5
148D
330
1390
100
AcDbEntity
  8
0
 62
     1
100
AcDbCircle
 10
19.64447299999999
 20
2.312252999999999
 30
0.0
 40
0.3448792999999999
100
AcDbArc
 50
241.3454000000001
 51
257.7626
  0
ARC
  5
148E
330
1390
100
AcDbEntity
  8
0
 62
     1
100
AcDbCircle
 10
-19.69678299999999
 20
1.395324999999999
 30
0.0
 40
0.5932913000000001
210
0.0
220
0.0
230
-1.0
100
AcDbArc
 50
65.6601
 51
77.79664
  0
ARC
  5
148F
330
1390
100
AcDbEntity
  8
0
 62
     1
100
AcDbCircle
 10
19.64447299999999
 20
2.312252999999999
 30
0.0
 40
0.3528106
100
AcDbArc
 50
242.8415
 51
252.6352
  0
ARC
  5
1490
330
1390
100
AcDbEntity
  8
0
 62
     1
100
AcDbCircle
 10
-19.69678299999999
 20
1.395324999999999
 30
0.0
 40
0.6012227000000001
210
0.0
220
0.0
230
-1.0
100
AcDbArc
 50
67.42915000000002
 51
74.80266999999999
  0
LINE
  5
1491
330
1390
100
AcDbEntity
  8
0
 62
     1
100
AcDbLine
 10
19.48343099999999
 20
1.998340999999999
 30
0.0
 11
19.466018
 21
1.950497999999999
 31
0.0
  0
ARC
  5
1492
330
1390
100
AcDbEntity
  8
0
 62
     1
100
AcDbCircle
 10
19.64447299999999
 20
2.312252999999999
 30
0.0
 40
0.3607419000000001
100
AcDbArc
 50
244.2673
 51
248.6812
  0
ARC
  5
1493
330
1390
100
AcDbEntity
  8
0
 62
     1
100
AcDbCircle
 10
-19.69678299999999
 20
1.395324999999999
 30
0.0
 40
0.6091540000000001
210
0.0
220
0.0
230
-1.0
100
AcDbArc
 50
69.10512
 51
72.47202
  0
LINE
  5
1494
330
1390
100
AcDbEntity
  8
0
 62
     1
100
AcDbLine
 10
19.487848
 20
1.987286999999999
 30
0.0
 11
19.47952499999999
 21
1.964418999999999
 31
0.0
  0
LINE
  5
1495
330
1390
100
AcDbEntity
  8
0
 62
     1
100
AcDbLine
 10
19.49083299999999
 20
1.980029999999999
 30
0.0
 11
19.48840399999999
 21
1.973353999999999
 31
0.0
  0
ARC
  5
1496
330
1390
100
AcDbEntity
  8
0
 62
     1
100
AcDbCircle
 10
19.64447299999999
 20
2.312252999999999
 30
0.0
 40
0.3660294
100
AcDbArc
 50
245.1815
 51
246.43
  0
ARC
  5
1497
330
1390
100
AcDbEntity
  8
0
 62
     1
100
AcDbCircle
 10
-19.69678299999999
 20
1.395324999999999
 30
0.0
 40
0.6144415
210
0.0
220
0.0
230
-1.0
100
AcDbArc
 50
70.17582
 51
71.13499
  0
TEXT
  5
1498
330
1390
100
AcDbEntity
  8
0
 62
     7
100
AcDbText
 10
19.667347
 20
2.044080999999999
 30
0.0
 40
0.187
  1
DEUBLIN
 41
0.9094507
 51
10.0
  7
BSIZE$0$ROMAND
100
AcDbText
  0
TEXT
  5
1499
330
1390
100
AcDbEntity
  8
0
 62
     7
100
AcDbText
 10
20.782222
 20
2.044080999999999
 30
0.0
 40
0.093
  1
COMPANY
  7
ROMANS
100
AcDbText
  0
TEXT
  5
149A
330
1390
100
AcDbEntity
  8
0
 62
     7
100
AcDbText
 10
12.03626607142857
 20
0.5700000000000005
 30
0.0
 40
0.06
  1
LET.
  7
ROMANS
 72
     1
 11
12.1248375
 21
0.6000000000000006
 31
0.0
100
AcDbText
 73
     2
  0
TEXT
  5
149B
330
1390
100
AcDbEntity
  8
0
 62
     7
100
AcDbText
 10
19.676347
 20
1.794080999999999
 30
0.0
 40
0.093
  1
WAUKEGAN, ILLINOIS, U.S.A.
 41
0.9026901333002593
  7
ROMANS
 72
     5
 11
21.41531506393628
 21
1.794080999999999
 31
0.0
100
AcDbText
  0
LINE
  5
149C
330
1390
100
AcDbEntity
  8
0
100
AcDbLine
 10
21.50000100000001
 20
1.040309999999999
 30
0.0
 11
18.674907
 21
1.040309999999999
 31
0.0
  0
LINE
  5
149D
330
1390
100
AcDbEntity
  8
0
100
AcDbLine
 10
17.28715499999999
 20
2.098850999999998
 30
0.0
 11
18.674907
 21
2.098850999999998
 31
0.0
  0
LINE
  5
149E
330
1390
100
AcDbEntity
  8
0
100
AcDbLine
 10
17.63734583562159
 20
1.498850999999998
 30
0.0
 11
17.63734583562159
 21
2.298850999999999
 31
0.0
  0
LINE
  5
149F
330
1390
100
AcDbEntity
  8
0
100
AcDbLine
 10
17.98734378191761
 20
2.098850999999998
 30
0.0
 11
17.98734378191761
 21
1.498850999999998
 31
0.0
  0
LINE
  5
14A0
330
1390
100
AcDbEntity
  8
0
100
AcDbLine
 10
17.287155
 20
1.898850999999998
 30
0.0
 11
18.674907
 21
1.898850999999998
 31
0.0
  0
LINE
  5
14A1
330
1390
100
AcDbEntity
  8
0
100
AcDbLine
 10
17.287155
 20
1.698850999999999
 30
0.0
 11
18.674907
 21
1.698850999999998
 31
0.0
  0
LWPOLYLINE
  5
14A2
330
1390
100
AcDbEntity
  8
0
100
AcDbPolyline
 90
        3
 70
     0
 43
0.0
 10
17.287155
 20
0.5
 10
17.287155
 20
2.298850999999999
 10
18.674907
 20
2.298850999999999
  0
LINE
  5
14A3
330
1390
100
AcDbEntity
  8
0
100
AcDbLine
 10
18.674907
 20
1.7
 30
0.0
 11
21.5
 21
1.7
 31
0.0
  0
TEXT
  5
14A4
330
1390
100
AcDbEntity
  8
0
 62
     7
100
AcDbText
 10
18.70465299999999
 20
1.60140218020243
 30
0.0
 40
0.062
  1
TITLE:
  7
ROMANS
100
AcDbText
  0
TEXT
  5
14A5
330
1390
100
AcDbEntity
  8
0
 62
     7
100
AcDbText
 10
17.35351499999999
 20
1.575000000000001
 30
0.0
 40
0.05
  1
APPD
  7
ROMANS
 11
17.35351499999999
 21
1.600000000000001
 31
0.0
100
AcDbText
 73
     2
  0
TEXT
  5
14A6
330
1390
100
AcDbEntity
  8
0
 62
     7
100
AcDbText
 10
17.35351499999999
 20
1.777317635727138
 30
0.0
 40
0.05
  1
ENGR
  7
ROMANS
 11
17.35351499999999
 21
1.802317635727138
 31
0.0
100
AcDbText
 73
     2
  0
TEXT
  5
14A7
330
1390
100
AcDbEntity
  8
0
 62
     7
100
AcDbText
 10
17.35351499999999
 20
1.975000000000001
 30
0.0
 40
0.05
  1
DRN
  7
ROMANS
 11
17.35351499999999
 21
2.0
 31
0.0
100
AcDbText
 73
     2
  0
TEXT
  5
14A8
330
1390
100
AcDbEntity
  8
0
 62
     7
100
AcDbText
 10
17.345349
 20
2.175000000000001
 30
0.0
 40
0.05
  1
SCALE
  7
ROMANS
 11
17.345349
 21
2.200000000000001
 31
0.0
100
AcDbText
 73
     2
  0
ATTDEF
  5
14A9
330
1390
100
AcDbEntity
  8
0
 62
     2
100
AcDbText
 10
19.37607142857143
 20
0.6775517359283318
 30
0.0
 40
0.18
  1
XXXX-XXX
  7
ROMANS
 72
     4
 11
20.0875
 21
0.7675517359283317
 31
0.0
100
AcDbAttributeDefinition
  3
Enter Part Number
  2
PARTNUM1
 70
     0
280
     0
  0
ATTDEF
  5
14AA
330
1390
100
AcDbEntity
  8
0
 62
     2
100
AcDbText
 10
19.37607142857142
 20
16.18442313563726
 30
0.0
 40
0.18
  1
XXXX-XXX
  7
ROMANS
 72
     4
 11
20.08749999999999
 21
16.27442313563725
 31
0.0
100
AcDbAttributeDefinition
  3
Enter Part Number
  2
PARTNUM2
 70
     0
280
     0
  0
ATTDEF
  5
14AB
330
1390
100
AcDbEntity
  8
0
 62
     2
100
AcDbText
 10
19.51892857142857
 20
1.530051666666667
 30
0.0
 40
0.12
  1
DESCRIPTION
  7
ROMANS
 72
     4
 11
20.0875
 21
1.590051666666667
 31
0.0
100
AcDbAttributeDefinition
  3
Enter part description
  2
DESC1
 70
     0
280
     0
  0
ATTDEF
  5
14AC
330
1390
100
AcDbEntity
  8
0
 62
     2
100
AcDbText
 10
19.51892857142857
 20
1.310155
 30
0.0
 40
0.12
  1
DESCRIPTION
  7
ROMANS
 72
     4
 11
20.0875
 21
1.370155
 31
0.0
100
AcDbAttributeDefinition
  3
Enter part description
  2
DESC2
 70
     0
280
     0
  0
ATTDEF
  5
14AD
330
1390
100
AcDbEntity
  8
0
 62
     2
100
AcDbText
 10
19.51892857142857
 20
1.090258333333333
 30
0.0
 40
0.12
  1
DESCRIPTION
  7
ROMANS
 72
     4
 11
20.0875
 21
1.150258333333333
 31
0.0
100
AcDbAttributeDefinition
  3
Enter part description
  2
DESC3
 70
     0
280
     0
  0
ATTDEF
  5
14AE
330
1390
100
AcDbEntity
  8
0
 62
     7
100
AcDbText
 10
17.73927142857143
 20
1.967199999999999
 30
0.0
 40
0.075
  1
XX
  7
ROMANS
 72
     4
 11
17.8107
 21
2.004699999999999
 31
0.0
100
AcDbAttributeDefinition
  3
Drawn By
  2
DRN_BY
 70
     0
280
     0
  0
ATTDEF
  5
14AF
330
1390
100
AcDbEntity
  8
0
 62
     7
100
AcDbText
 10
18.02924285714285
 20
1.972557142857142
 30
0.0
 40
0.075
  1
XX/XX/XX
  7
ROMANS
 72
     4
 11
18.3221
 21
2.004699999999999
 31
0.0
100
AcDbAttributeDefinition
  3
Date Drawn
  2
DDATE
 70
     0
280
     0
  0
ATTDEF
  5
14B0
330
1390
100
AcDbEntity
  8
0
 62
     7
100
AcDbText
 10
17.73927142857143
 20
1.7627
 30
0.0
 40
0.075
  1
XX
  7
ROMANS
 72
     4
 11
17.8107
 21
1.8002
 31
0.0
100
AcDbAttributeDefinition
  3
Engineer
  2
ENG
 70
     0
280
     0
  0
ATTDEF
  5
14B1
330
1390
100
AcDbEntity
  8
0
 62
     7
100
AcDbText
 10
18.02924285714285
 20
1.768057142857142
 30
0.0
 40
0.075
  1
XX/XX/XX
  7
ROMANS
 72
     4
 11
18.3221
 21
1.8002
 31
0.0
100
AcDbAttributeDefinition
  3
ENG DATE
  2
EDATE
 70
     0
280
     0
  0
ATTDEF
  5
14B2
330
1390
100
AcDbEntity
  8
0
 62
     7
100
AcDbText
 10
17.73927142857143
 20
1.572
 30
0.0
 40
0.075
  1
XX
  7
ROMANS
 72
     4
 11
17.8107
 21
1.6095
 31
0.0
100
AcDbAttributeDefinition
  3
Approved By
  2
APPROV
 70
     0
280
     0
  0
ATTDEF
  5
14B3
330
1390
100
AcDbEntity
  8
0
 62
     7
100
AcDbText
 10
18.02924285714285
 20
1.577357142857143
 30
0.0
 40
0.075
  1
XX/XX/XX
  7
ROMANS
 72
     4
 11
18.3221
 21
1.6095
 31
0.0
100
AcDbAttributeDefinition
  3
Approval Date
  2
ADATE
 70
     0
280
     0
  0
ATTDEF
  5
14B4
330
1390
100
AcDbEntity
  8
0
 62
     7
100
AcDbText
 10
17.71666693721326
 20
2.1648
 30
0.0
 40
0.075
  1
FULL
  7
ROMANS
 72
     4
 11
17.85416693721326
 21
2.202300000000001
 31
0.0
100
AcDbAttributeDefinition
  3
Enter Drawing Scale
  2
SCALE
 70
     0
280
     0
  0
TEXT
  5
14B5
330
1390
100
AcDbEntity
  8
0
 62
     7
100
AcDbText
 10
15.35722377872648
 20
2.175758029659552
 30
0.0
 40
0.072
  1
EQUIPMENT REF:
  7
ROMANS
100
AcDbText
  0
TEXT
  5
14B6
330
1390
100
AcDbEntity
  8
0
 62
     7
100
AcDbText
 10
15.35722422317093
 20
1.375758029659552
 30
0.0
 40
0.072
  1
ASSY/TEST FIXTURES
  7
ROMANS
100
AcDbText
  0
TEXT
  5
14B7
330
1390
100
AcDbEntity
  8
0
 62
     7
100
AcDbText
 10
15.35722422317093
 20
1.245618928452583
 30
0.0
 40
0.072
  1
REQUIRED:
  7
ROMANS
100
AcDbText
  0
TEXT
  5
14B8
330
1390
100
AcDbEntity
  8
DIMENSIONS
100
AcDbText
 10
17.39305613601928
 20
1.257692897000979
 30
0.0
 40
0.072
  1
UNLESS OTHERWISE
  7
ROMANS
 72
     1
 11
17.93134185030499
 21
1.257692897000979
 31
0.0
100
AcDbText
  0
TEXT
  5
14B9
330
1390
100
AcDbEntity
  8
DIMENSIONS
100
AcDbText
 10
17.66562756459071
 20
1.14112146842955
 30
0.0
 40
0.072
  1
SPECIFIED
  7
ROMANS
 72
     1
 11
17.93134185030499
 21
1.14112146842955
 31
0.0
100
AcDbText
  0
TEXT
  5
14BA
330
1390
100
AcDbEntity
  8
DIMENSIONS
100
AcDbText
 10
17.38448470744785
 20
1.024550039858122
 30
0.0
 40
0.072
  1
TOLERANCES %%P.010.
  7
ROMANS
 72
     1
 11
17.93134185030499
 21
1.024550039858122
 31
0.0
100
AcDbText
  0
TEXT
  5
14BB
330
1390
100
AcDbEntity
  8
DIMENSIONS
100
AcDbText
 10
17.40677042173357
 20
0.8536457178943127
 30
0.0
 40
0.072
  1
DIMENSIONS IN [ ]
  7
ROMANS
 72
     1
 11
17.93134185030499
 21
0.8536457178943127
 31
0.0
100
AcDbText
  0
TEXT
  5
14BC
330
1390
100
AcDbEntity
  8
DIMENSIONS
100
AcDbText
 10
17.36562756459071
 20
0.7370742893228841
 30
0.0
 40
0.072
  1
ARE IN MILLIMETERS.
  7
ROMANS
 72
     1
 11
17.93134185030499
 21
0.7370742893228841
 31
0.0
100
AcDbText
  0
LINE
  5
14BD
330
1390
100
AcDbEntity
  8
0
100
AcDbLine
 10
18.14804793470531
 20
2.100114883522205
 30
0.0
 11
18.14804793470531
 21
2.298965883522205
 31
0.0
  0
TEXT
  5
14BE
330
1390
100
AcDbEntity
  8
0
 62
     7
100
AcDbText
 10
18.19766364239148
 20
2.220227923232869
 30
0.0
 40
0.05
  1
DWG
  7
ROMANS
 11
18.19766364239148
 21
2.245227923232869
 31
0.0
100
AcDbText
 73
     2
  0
TEXT
  5
14BF
330
1390
100
AcDbEntity
  8
0
 62
     7
100
AcDbText
 10
18.19766364239148
 20
2.140217991459913
 30
0.0
 40
0.05
  1
SIZE
  7
ROMANS
 11
18.19766364239148
 21
2.165217991459913
 31
0.0
100
AcDbText
 73
     2
  0
TEXT
  5
14C0
330
1390
100
AcDbEntity
  8
border
 62
     7
100
AcDbText
 10
18.46026670948581
 20
2.163967823871904
 30
0.0
 40
0.075
  1
C
  7
ROMANS
100
AcDbText
  0
LWPOLYLINE
  5
14C1
330
1390
100
AcDbEntity
  8
0
100
AcDbPolyline
 90
        4
 70
   129
 43
0.0
 10
18.25
 20
3.05
 10
18.25
 20
2.3
 10
21.5
 20
2.3
 10
21.5
 20
3.05
  0
TEXT
  5
14C2
330
1390
100
AcDbEntity
  8
0
 62
     7
100
AcDbText
 10
18.341894
 20
2.367959284557567
 30
0.0
 40
0.07
  1
MISSION OF THE DEUBLIN COMPANY.
  7
ROMANS
100
AcDbText
  0
TEXT
  5
14C3
330
1390
100
AcDbEntity
  8
0
 62
     7
100
AcDbText
 10
18.341894
 20
2.472959284557568
 30
0.0
 40
0.07
  1
OR DISCLOSED TO ANYONE WITHOUT THE WRITTEN PER-
  7
ROMANS
100
AcDbText
  0
TEXT
  5
14C4
330
1390
100
AcDbEntity
  8
0
 62
     7
100
AcDbText
 10
18.341894
 20
2.577959284557568
 30
0.0
 40
0.07
  1
AND IS NOT TO BE TRANSMITTED, REPRODUCED, USED
  7
ROMANS
100
AcDbText
  0
TEXT
  5
14C5
330
1390
100
AcDbEntity
  8
0
 62
     7
100
AcDbText
 10
18.341894
 20
2.682959284557568
 30
0.0
 40
0.07
  1
THIS DOCUMENT CONTAINS PROPRIETARY INFORMATION
  7
ROMANS
100
AcDbText
  0
TEXT
  5
14C6
330
1390
100
AcDbEntity
  8
0
 62
     2
100
AcDbText
 10
19.29284123809524
 20
2.854379000000001
 30
0.0
 40
0.125
  1
CONFIDENTIAL
  7
ROMANS
 72
     1
 11
19.929746
 21
2.854379000000001
 31
0.0
100
AcDbText
  0
ENDBLK
  5
14C8
330
1390
100
AcDbEntity
  8
0
100
AcDbBlockEnd
  0
BLOCK
  5
1546
330
153E
100
AcDbEntity
  8
0
100
AcDbBlockBegin
  2
noteind
 70
     2
 10
0.0
 20
0.0
 30
0.0
  3
noteind
  1

  0
ATTDEF
  5
153F
330
153E
100
AcDbEntity
  8
0
100
AcDbText
 10
-0.0485714285714286
 20
0.0214148854291244
 30
0.0
 40
0.12
  1
1
  7
ROMANS
 72
     1
 11
0.0
 21
0.0814148854291244
 31
0.0
100
AcDbAttributeDefinition
  3
ENTER NOTE NUMBER
  2
NOTE
 70
     0
 74
     2
280
     0
  0
ARC
  5
1540
330
153E
100
AcDbEntity
  8
0
100
AcDbCircle
 10
-0.0000000000000036
 20
0.2247796672720481
 30
0.0
 40
0.03375
100
AcDbArc
 50
30.00000000000008
 51
150.0000000000001
  0
LINE
  5
1541
330
153E
100
AcDbEntity
  8
0
100
AcDbLine
 10
-0.1363990010960485
 20
-0.0452203327279524
 30
0.0
 11
0.1363990010960485
 21
-0.0452203327279524
 31
0.0
  0
LINE
  5
1542
330
153E
100
AcDbEntity
  8
0
100
AcDbLine
 10
-0.0292283573777255
 20
0.2416546672720479
 30
0.0
 11
-0.165627358473774
 21
0.0054046672720478
 31
0.0
  0
ARC
  5
1543
330
153E
100
AcDbEntity
  8
0
100
AcDbCircle
 10
-0.1363990010960485
 20
-0.0114703327279529
 30
0.0
 40
0.03375
100
AcDbArc
 50
149.9999999999999
 51
270.0
  0
LINE
  5
1544
330
153E
100
AcDbEntity
  8
0
100
AcDbLine
 10
0.0292283573777219
 20
0.2416546672720479
 30
0.0
 11
0.165627358473774
 21
0.0054046672720478
 31
0.0
  0
ARC
  5
1545
330
153E
100
AcDbEntity
  8
0
100
AcDbCircle
 10
0.1363990010960485
 20
-0.0114703327279529
 30
0.0
 40
0.03375
100
AcDbArc
 50
270.0
 51
29.99999999999999
  0
ENDBLK
  5
1547
330
153E
100
AcDbEntity
  8
0
100
AcDbBlockEnd
  0
BLOCK
  5
1566
330
155B
100
AcDbEntity
  8
0
100
AcDbBlockBegin
  2
*D11
 70
     1
 10
0.0
 20
0.0
 30
0.0
  3
*D11
  1

  0
LINE
  5
1AC6
330
155B
100
AcDbEntity
  8
DIMENSIONS
 62
     0
370
    -2
100
AcDbLine
 10
18.23781551612907
 20
6.939507581190469
 30
0.0
 11
18.23781551612907
 21
9.419999999999999
 31
0.0
  0
LINE
  5
1AC7
330
155B
100
AcDbEntity
  8
DIMENSIONS
 62
     0
370
    -2
100
AcDbLine
 10
18.80031551612907
 20
6.939507581190469
 30
0.0
 11
18.80031551612907
 21
9.419999999999999
 31
0.0
  0
LINE
  5
1AC8
330
155B
100
AcDbEntity
  8
DIMENSIONS
 62
     0
370
    -2
100
AcDbLine
 10
18.38781551612907
 20
9.359999999999999
 30
0.0
 11
18.65031551612907
 21
9.359999999999999
 31
0.0
  0
LINE
  5
1AC9
330
155B
100
AcDbEntity
  8
DIMENSIONS
 62
     0
370
    -2
100
AcDbLine
 10
18.80031551612907
 20
9.359999999999999
 30
0.0
 11
18.95031551612907
 21
9.359999999999999
 31
0.0
  0
SOLID
  5
1ACA
330
155B
100
AcDbEntity
  8
DIMENSIONS
 62
     0
100
AcDbTrace
 10
18.38781551612907
 20
9.384999999999999
 30
0.0
 11
18.38781551612907
 21
9.334999999999999
 31
0.0
 12
18.23781551612907
 22
9.359999999999999
 32
0.0
 13
18.23781551612907
 23
9.359999999999999
 33
0.0
  0
SOLID
  5
1ACB
330
155B
100
AcDbEntity
  8
DIMENSIONS
 62
     0
100
AcDbTrace
 10
18.65031551612907
 20
9.384999999999999
 30
0.0
 11
18.65031551612907
 21
9.334999999999999
 31
0.0
 12
18.80031551612907
 22
9.359999999999999
 32
0.0
 13
18.80031551612907
 23
9.359999999999999
 33
0.0
  0
MTEXT
  5
1ACC
330
155B
100
AcDbEntity
  8
DIMENSIONS
 62
     0
100
AcDbMText
 10
19.2688869447005
 20
9.359999999999999
 30
0.0
 40
0.12
 41
0.0
 46
0.0
 71
     5
 72
     1
  1
\A1;{.563\P [14]}
  7
ROMANS
 73
     1
 44
1.0
  0
POINT
  5
1ACD
330
155B
100
AcDbEntity
  8
DEFPOINTS
 62
     0
100
AcDbPoint
 10
18.23781551612907
 20
6.87950758119047
 30
0.0
  0
POINT
  5
1ACE
330
155B
100
AcDbEntity
  8
DEFPOINTS
 62
     0
100
AcDbPoint
 10
18.80031551612907
 20
6.87950758119047
 30
0.0
  0
POINT
  5
1ACF
330
155B
100
AcDbEntity
  8
DEFPOINTS
 62
     0
100
AcDbPoint
 10
18.80031551612907
 20
9.359999999999999
 30
0.0
  0
ENDBLK
  5
1567
330
155B
100
AcDbEntity
  8
0
100
AcDbBlockEnd
  0
BLOCK
  5
17AD
330
1794
100
AcDbEntity
  8
0
100
AcDbBlockBegin
  2
Opdata
 70
     0
 10
0.0
 20
0.0
 30
0.0
  3
Opdata
  1

  0
TEXT
  5
1795
330
1794
100
AcDbEntity
  8
DIMENSIONS
100
AcDbText
 10
-1.17679558823689
 20
-0.3590969702964948
 30
0.0
 40
0.1100000068545341
  1
AIR / VACUUM / HYDRAULIC SERVICE
 41
1.49618375301361
  7
ROMANS
 72
     1
 11
1.229210530227486
 21
-0.3590969702964948
 31
0.0
100
AcDbText
  0
TEXT
  5
1796
330
1794
100
AcDbEntity
  8
DIMENSIONS
100
AcDbText
 10
-1.134153593975758
 20
-0.5790967604881452
 30
0.0
 40
0.1100000068545341
  1
150 PSI (10bar) MAX.AIR PRESSURE
 41
1.508988857269287
  7
ROMANS
 72
     1
 11
1.229210530227486
 21
-0.5790967604881452
 31
0.0
100
AcDbText
  0
TEXT
  5
1797
330
1794
100
AcDbEntity
  8
DIMENSIONS
100
AcDbText
 10
-1.364328015312819
 20
-0.7990970275169538
 30
0.0
 40
0.1100000068545341
  1
28"Hg (6,7 KPa) MAX.VACUUM SERVICE
 41
1.542461514472961
  7
ROMANS
 72
     1
 11
1.229211007064645
 21
-0.7990970275169538
 31
0.0
100
AcDbText
  0
TEXT
  5
1798
330
1794
100
AcDbEntity
  8
DIMENSIONS
100
AcDbText
 10
-1.836422388007133
 20
-1.019096817708604
 30
0.0
 40
0.1100000068545341
  1
1000 PSI (66,6bar) MAX.HYDRAULIC PRESSURE
 41
1.522125482559204
  7
ROMANS
 72
     1
 11
1.229211007064645
 21
-1.019096817708604
 31
0.0
100
AcDbText
  0
TEXT
  5
1799
330
1794
100
AcDbEntity
  8
DIMENSIONS
100
AcDbText
 10
-1.014029656967106
 20
-1.239097084737412
 30
0.0
 40
0.1100000068545341
  1
3500 RPM (3500/min) MAX.SPEED
 41
1.507940173149108
  7
ROMANS
 72
     1
 11
1.229211007064645
 21
-1.239097084737412
 31
0.0
100
AcDbText
  0
TEXT
  5
179A
330
1794
100
AcDbEntity
  8
DIMENSIONS
100
AcDbText
 10
-1.020071698213911
 20
-1.459096874929063
 30
0.0
 40
0.1100000068545341
  1
250%%dF (121%%dC) MAX.TEMPERATURE
 41
1.602270483970642
  7
ROMANS
 72
     1
 11
1.229211007064645
 21
-1.459096874929063
 31
0.0
100
AcDbText
  0
TEXT
  5
179B
330
1794
100
AcDbEntity
  8
DIMENSIONS
100
AcDbText
 10
-0.5380047806861282
 20
-0.0127591750389264
 30
0.0
 40
0.1560000032186508
  1
OPERATING DATA:
 41
1.627560973167419
  7
COMPLEX
 72
     1
 11
1.215110932296578
 21
-0.0127591750389264
 31
0.0
100
AcDbText
  0
LINE
  5
179C
330
1794
100
AcDbEntity
  8
DIMENSIONS
100
AcDbLine
 10
-0.609268988662894
 20
-0.0693344733482526
 30
0.0
 11
3.017596875137154
 21
-0.0693344733482526
 31
0.0
  0
LINE
  5
179D
330
1794
100
AcDbEntity
  8
DIMENSIONS
100
AcDbLine
 10
-2.012745703750784
 20
0.2068457939857318
 30
0.0
 11
-2.012745703750784
 21
-1.670342411733262
 31
0.0
  0
LINE
  5
179E
330
1794
100
AcDbEntity
  8
DIMENSIONS
100
AcDbLine
 10
4.517967854446236
 20
0.2068457939857318
 30
0.0
 11
4.517967854446236
 21
-1.670342411733262
 31
0.0
  0
LINE
  5
179F
330
1794
100
AcDbEntity
  8
DIMENSIONS
100
AcDbLine
 10
-1.887745703750784
 20
-1.795342411733262
 30
0.0
 11
4.392967854446236
 21
-1.795342411733262
 31
0.0
  0
LINE
  5
17A0
330
1794
100
AcDbEntity
  8
DIMENSIONS
100
AcDbLine
 10
-1.887745703750784
 20
0.3318457939857318
 30
0.0
 11
4.392967854446236
 21
0.3318457939857318
 31
0.0
  0
LINE
  5
17A1
330
1794
100
AcDbEntity
  8
DIMENSIONS
100
AcDbLine
 10
4.392967854446236
 20
0.3318457939857318
 30
0.0
 11
4.517967854446236
 21
0.2068457939857318
 31
0.0
  0
LINE
  5
17A2
330
1794
100
AcDbEntity
  8
DIMENSIONS
100
AcDbLine
 10
4.392967854446236
 20
-1.795342411733262
 30
0.0
 11
4.517967854446236
 21
-1.670342411733262
 31
0.0
  0
LINE
  5
17A3
330
1794
100
AcDbEntity
  8
DIMENSIONS
100
AcDbLine
 10
-1.887745703750784
 20
-1.795342411733262
 30
0.0
 11
-2.012745703750784
 21
-1.670342411733262
 31
0.0
  0
LINE
  5
17A4
330
1794
100
AcDbEntity
  8
DIMENSIONS
100
AcDbLine
 10
-2.012745703750784
 20
0.2068457939857318
 30
0.0
 11
-1.887745703750784
 21
0.3318457939857318
 31
0.0
  0
LINE
  5
17A5
330
1794
100
AcDbEntity
  8
DIMENSIONS
100
AcDbLine
 10
-1.913634146743948
 20
0.3943457939857318
 30
0.0
 11
4.418856297439401
 21
0.3943457939857318
 31
0.0
  0
LINE
  5
17A6
330
1794
100
AcDbEntity
  8
DIMENSIONS
100
AcDbLine
 10
4.418856297439401
 20
0.3943457939857318
 30
0.0
 11
4.580467854446236
 21
0.2327342369788958
 31
0.0
  0
LINE
  5
17A7
330
1794
100
AcDbEntity
  8
DIMENSIONS
100
AcDbLine
 10
4.580467854446236
 20
0.2327342369788958
 30
0.0
 11
4.580467854446236
 21
-1.696230854726426
 31
0.0
  0
LINE
  5
17A8
330
1794
100
AcDbEntity
  8
DIMENSIONS
100
AcDbLine
 10
4.418856297439401
 20
-1.857842411733262
 30
0.0
 11
4.580467854446236
 21
-1.696230854726426
 31
0.0
  0
LINE
  5
17A9
330
1794
100
AcDbEntity
  8
DIMENSIONS
100
AcDbLine
 10
-1.913634146743948
 20
-1.857842411733262
 30
0.0
 11
4.418856297439401
 21
-1.857842411733262
 31
0.0
  0
LINE
  5
17AA
330
1794
100
AcDbEntity
  8
DIMENSIONS
100
AcDbLine
 10
-1.913634146743948
 20
-1.857842411733262
 30
0.0
 11
-2.075245703750784
 21
-1.696230854726426
 31
0.0
  0
LINE
  5
17AB
330
1794
100
AcDbEntity
  8
DIMENSIONS
100
AcDbLine
 10
-2.075245703750784
 20
0.2327342369788958
 30
0.0
 11
-2.075245703750784
 21
-1.696230854726426
 31
0.0
  0
LINE
  5
17AC
330
1794
100
AcDbEntity
  8
DIMENSIONS
100
AcDbLine
 10
-2.075245703750784
 20
0.2327342369788958
 30
0.0
 11
-1.913634146743948
 21
0.3943457939857318
 31
0.0
  0
ENDBLK
  5
17AE
330
1794
100
AcDbEntity
  8
0
100
AcDbBlockEnd
  0
BLOCK
  5
1828
330
1802
100
AcDbEntity
  8
0
100
AcDbBlockBegin
  2
A$C2DE714F7
 70
     0
 10
0.0
 20
0.0
 30
0.0
  3
A$C2DE714F7
  1

  0
LINE
  5
1803
330
1802
100
AcDbEntity
  8
GEOMETRY
100
AcDbLine
 10
1.969999646575971
 20
0.1287499652645962
 30
0.0
 11
1.21999976578526
 21
0.1287499652645962
 31
0.0
  0
LINE
  5
1804
330
1802
100
AcDbEntity
  8
GEOMETRY
100
AcDbLine
 10
1.969999646575971
 20
1.621250389649667
 30
0.0
 11
1.21999976578526
 21
1.621250389649667
 31
0.0
  0
LINE
  5
1805
330
1802
100
AcDbEntity
  8
GEOMETRY
100
AcDbLine
 10
0.0309991592483954
 20
0.1289998279354947
 30
0.0
 11
0.9781112426834539
 21
0.1289998279354947
 31
0.0
  0
LINE
  5
1806
330
1802
100
AcDbEntity
  8
HIDDEN
100
AcDbLine
 10
-0.0000000244063898
 20
0.1760007129452603
 30
0.0
 11
1.025111650856061
 21
0.1760007129452603
 31
0.0
  0
LINE
  5
1807
330
1802
100
AcDbEntity
  8
GEOMETRY
100
AcDbLine
 10
0.0309991592483954
 20
0.3750001178524869
 30
0.0
 11
0.0309991592483954
 21
0.5375001416943448
 31
0.0
  0
LINE
  5
1808
330
1802
100
AcDbEntity
  8
GEOMETRY
100
AcDbLine
 10
-0.0000000244063898
 20
0.1599999652645962
 30
0.0
 11
-0.0000000244063898
 21
0.5375001416943448
 31
0.0
  0
LINE
  5
1809
330
1802
100
AcDbEntity
  8
GEOMETRY
100
AcDbLine
 10
0.0309991592483954
 20
0.1289998279354947
 30
0.0
 11
-0.0000000244063898
 21
0.1599999652645962
 31
0.0
  0
LINE
  5
180A
330
1802
100
AcDbEntity
  8
GEOMETRY
100
AcDbLine
 10
0.0309991592483954
 20
0.3750001178524869
 30
0.0
 11
-0.0000000244063898
 21
0.3571015582821744
 31
0.0
  0
LINE
  5
180B
330
1802
100
AcDbEntity
  8
GEOMETRY
100
AcDbLine
 10
1.062500452430768
 20
-0.0000000013568027
 30
0.0
 11
1.062500452430768
 21
0.1875001178524869
 31
0.0
  0
LINE
  5
180C
330
1802
100
AcDbEntity
  8
GEOMETRY
100
AcDbLine
 10
1.125000452430768
 20
0.0000001178524869
 30
0.0
 11
1.125000452430768
 21
0.1250001178524869
 31
0.0
  0
LINE
  5
180D
330
1802
100
AcDbEntity
  8
GEOMETRY
100
AcDbLine
 10
1.21999976578526
 20
0.1287499652645962
 30
0.0
 11
1.21999976578526
 21
0.0000001178524869
 31
0.0
  0
LINE
  5
180E
330
1802
100
AcDbEntity
  8
GEOMETRY
100
AcDbLine
 10
1.062500452430768
 20
-0.0000000013568027
 30
0.0
 11
1.125000452430768
 21
-0.0000000013568027
 31
0.0
  0
LINE
  5
180F
330
1802
100
AcDbEntity
  8
GEOMETRY
100
AcDbLine
 10
1.125000452430768
 20
0.0000001178524869
 30
0.0
 11
1.21999976578526
 21
0.0000001178524869
 31
0.0
  0
ARC
  5
1810
330
1802
100
AcDbEntity
  8
GEOMETRY
100
AcDbCircle
 10
-1.062500452430768
 20
0.1250001178524869
 30
0.0
 40
0.0625
210
0.0
220
0.0
230
-1.0
100
AcDbArc
 50
45.00005722045899
 51
180.000015258789
  0
LINE
  5
1811
330
1802
100
AcDbEntity
  8
GEOMETRY
100
AcDbLine
 10
1.018306230934186
 20
0.1691952930233853
 30
0.0
 11
0.9781112426834539
 21
0.1289998279354947
 31
0.0
  0
LINE
  5
1812
330
1802
100
AcDbEntity
  8
GEOMETRY
100
AcDbLine
 10
1.062500452430768
 20
0.1249999986431973
 30
0.0
 11
1.125000452430768
 21
0.1249999986431973
 31
0.0
  0
LINE
  5
1813
330
1802
100
AcDbEntity
  8
HIDDEN
100
AcDbLine
 10
-0.0000000244063898
 20
1.573999641969002
 30
0.0
 11
1.026373123558087
 21
1.573999641969002
 31
0.0
  0
LINE
  5
1814
330
1802
100
AcDbEntity
  8
GEOMETRY
100
AcDbLine
 10
0.0309991592483954
 20
1.621000526978768
 30
0.0
 11
0.9781112426834539
 21
1.621000526978768
 31
0.0
  0
LINE
  5
1815
330
1802
100
AcDbEntity
  8
GEOMETRY
100
AcDbLine
 10
0.0309991592483954
 20
1.375000237061776
 30
0.0
 11
-0.0000000244063898
 21
1.392898796632088
 31
0.0
  0
LINE
  5
1816
330
1802
100
AcDbEntity
  8
GEOMETRY
100
AcDbLine
 10
-0.0000000244063898
 20
1.590000389649667
 30
0.0
 11
-0.0000000244063898
 21
1.212500094010628
 31
0.0
  0
LINE
  5
1817
330
1802
100
AcDbEntity
  8
GEOMETRY
100
AcDbLine
 10
0.0309991592483954
 20
1.375000237061776
 30
0.0
 11
0.0309991592483954
 21
1.212500094010628
 31
0.0
  0
LINE
  5
1818
330
1802
100
AcDbEntity
  8
GEOMETRY
100
AcDbLine
 10
0.0309991592483954
 20
1.621000526978768
 30
0.0
 11
-0.0000000244063898
 21
1.590000389649667
 31
0.0
  0
LINE
  5
1819
330
1802
100
AcDbEntity
  8
GEOMETRY
100
AcDbLine
 10
1.062500452430768
 20
1.750000237061776
 30
0.0
 11
1.062500452430768
 21
1.562500237061776
 31
0.0
  0
LINE
  5
181A
330
1802
100
AcDbEntity
  8
GEOMETRY
100
AcDbLine
 10
1.125000452430768
 20
1.750000237061776
 30
0.0
 11
1.125000452430768
 21
1.625000237061776
 31
0.0
  0
LINE
  5
181B
330
1802
100
AcDbEntity
  8
GEOMETRY
100
AcDbLine
 10
1.21999976578526
 20
1.621250389649667
 30
0.0
 11
1.21999976578526
 21
1.750000237061776
 31
0.0
  0
ARC
  5
181C
330
1802
100
AcDbEntity
  8
GEOMETRY
100
AcDbCircle
 10
1.062500452430768
 20
1.625000237061776
 30
0.0
 40
0.0625
100
AcDbArc
 50
225.0000457763672
 51
0.0000128066048973
  0
LINE
  5
181D
330
1802
100
AcDbEntity
  8
GEOMETRY
100
AcDbLine
 10
1.018306230934186
 20
1.580805061890877
 30
0.0
 11
0.9781112426834539
 21
1.621000526978768
 31
0.0
  0
LINE
  5
181E
330
1802
100
AcDbEntity
  8
GEOMETRY
100
AcDbLine
 10
1.062500452430768
 20
1.625000237061776
 30
0.0
 11
1.125000452430768
 21
1.625000237061776
 31
0.0
  0
LINE
  5
181F
330
1802
100
AcDbEntity
  8
GEOMETRY
100
AcDbLine
 10
1.218716120155377
 20
1.750000237061776
 30
0.0
 11
1.21999976578526
 21
1.748716591431893
 31
0.0
  0
LINE
  5
1820
330
1802
100
AcDbEntity
  8
GEOMETRY
100
AcDbLine
 10
1.062500452430768
 20
1.750000237061776
 30
0.0
 11
1.125000452430768
 21
1.750000237061776
 31
0.0
  0
LINE
  5
1821
330
1802
100
AcDbEntity
  8
GEOMETRY
100
AcDbLine
 10
1.125000452430768
 20
1.750000237061776
 30
0.0
 11
1.21999976578526
 21
1.750000237061776
 31
0.0
  0
LINE
  5
1822
330
1802
100
AcDbEntity
  8
GEOMETRY
100
AcDbLine
 10
1.969999646575971
 20
0.0000001178524869
 30
0.0
 11
1.969999646575971
 21
0.1287499652645962
 31
0.0
  0
LINE
  5
1823
330
1802
100
AcDbEntity
  8
CENTER
100
AcDbLine
 10
1.379518007667584
 20
0.8750001178524868
 30
0.0
 11
1.958467816741986
 21
0.8750001178524868
 31
0.0
  0
LINE
  5
1824
330
1802
100
AcDbEntity
  8
GEOMETRY
100
AcDbLine
 10
1.969999646575971
 20
1.750000237061776
 30
0.0
 11
1.969999646575971
 21
1.621250389649667
 31
0.0
  0
LINE
  5
1825
330
1802
100
AcDbEntity
  8
GEOMETRY
100
AcDbLine
 10
1.930999850662274
 20
1.625000237061776
 30
0.0
 11
1.930999850662274
 21
2.437999962403573
 31
0.0
  0
LINE
  5
1826
330
1802
100
AcDbEntity
  8
GEOMETRY
100
AcDbLine
 10
0.0309991592483954
 20
1.374999760224618
 30
0.0
 11
3.628499960334821
 21
1.374999760224618
 31
0.0
  0
LINE
  5
1827
330
1802
100
AcDbEntity
  8
GEOMETRY
100
AcDbLine
 10
0.0309991592483954
 20
0.3750004754803555
 30
0.0
 11
3.628499960334821
 21
0.3750004754803555
 31
0.0
  0
ENDBLK
  5
1829
330
1802
100
AcDbEntity
  8
0
100
AcDbBlockEnd
  0
BLOCK
  5
18BD
330
18B2
100
AcDbEntity
  8
0
100
AcDbBlockBegin
  2
*D14
 70
     1
 10
0.0
 20
0.0
 30
0.0
  3
*D14
  1

  0
LINE
  5
1AF9
330
18B2
100
AcDbEntity
  8
DIMENSIONS
 62
     0
370
    -2
100
AcDbLine
 10
9.133004064348051
 20
7.464627879969718
 30
0.0
 11
9.052379621208299
 21
7.464627879969718
 31
0.0
  0
LINE
  5
1AFA
330
18B2
100
AcDbEntity
  8
DIMENSIONS
 62
     0
370
    -2
100
AcDbLine
 10
9.133004064348051
 20
5.969627755992057
 30
0.0
 11
9.052379621208299
 21
5.969627755992057
 31
0.0
  0
LINE
  5
1AFB
330
18B2
100
AcDbEntity
  8
DIMENSIONS
 62
     0
370
    -2
100
AcDbLine
 10
9.112379621208299
 20
7.614627879969718
 30
0.0
 11
9.112379621208299
 21
7.764627879969718
 31
0.0
  0
LINE
  5
1AFC
330
18B2
100
AcDbEntity
  8
DIMENSIONS
 62
     0
370
    -2
100
AcDbLine
 10
9.112379621208299
 20
5.819627755992057
 30
0.0
 11
9.112379621208299
 21
5.669627755992057
 31
0.0
  0
SOLID
  5
1AFD
330
18B2
100
AcDbEntity
  8
DIMENSIONS
 62
     0
100
AcDbTrace
 10
9.087379621208299
 20
7.614627879969718
 30
0.0
 11
9.1373796212083
 21
7.614627879969718
 31
0.0
 12
9.112379621208299
 22
7.464627879969718
 32
0.0
 13
9.112379621208299
 23
7.464627879969718
 33
0.0
  0
SOLID
  5
1AFE
330
18B2
100
AcDbEntity
  8
DIMENSIONS
 62
     0
100
AcDbTrace
 10
9.087379621208299
 20
5.819627755992057
 30
0.0
 11
9.1373796212083
 21
5.819627755992057
 31
0.0
 12
9.112379621208299
 22
5.969627755992057
 32
0.0
 13
9.112379621208299
 23
5.969627755992057
 33
0.0
  0
MTEXT
  5
1AFF
330
18B2
100
AcDbEntity
  8
DIMENSIONS
 62
     0
100
AcDbMText
 10
9.112379621208297
 20
6.654319381198959
 30
0.0
 40
0.12
 41
0.0
 46
0.0
 71
     5
 72
     1
  1
\A1;\S1.500^ 1.475;\P {\o\l\H0.288000;[}\S38.1^ 37.5;{\o\l\H0.288000;]}\PACROSS\PPARTS
  7
ROMANS
 73
     1
 44
1.0
  0
POINT
  5
1B00
330
18B2
100
AcDbEntity
  8
DEFPOINTS
 62
     0
100
AcDbPoint
 10
9.193004064348052
 20
7.464627879969718
 30
0.0
  0
POINT
  5
1B01
330
18B2
100
AcDbEntity
  8
DEFPOINTS
 62
     0
100
AcDbPoint
 10
9.193004064348052
 20
5.969627755992057
 30
0.0
  0
POINT
  5
1B02
330
18B2
100
AcDbEntity
  8
DEFPOINTS
 62
     0
100
AcDbPoint
 10
9.112379621208299
 20
5.969627755992057
 30
0.0
  0
ENDBLK
  5
18BE
330
18B2
100
AcDbEntity
  8
0
100
AcDbBlockEnd
  0
BLOCK
  5
1908
330
18FD
100
AcDbEntity
  8
0
100
AcDbBlockBegin
  2
*D15
 70
     1
 10
0.0
 20
0.0
 30
0.0
  3
*D15
  1

  0
LINE
  5
1B03
330
18FD
100
AcDbEntity
  8
DIMENSIONS
 62
     0
370
    -2
100
AcDbLine
 10
8.740784304276047
 20
5.782127698771597
 30
0.0
 11
8.740784304276047
 21
5.181575910562324
 31
0.0
  0
LINE
  5
1B04
330
18FD
100
AcDbEntity
  8
DIMENSIONS
 62
     0
370
    -2
100
AcDbLine
 10
8.679284304276047
 20
5.782127698771597
 30
0.0
 11
8.679284304276047
 21
5.181575910562324
 31
0.0
  0
LINE
  5
1B05
330
18FD
100
AcDbEntity
  8
DIMENSIONS
 62
     0
370
    -2
100
AcDbLine
 10
8.890784304276047
 20
5.241575910562325
 30
0.0
 11
9.040784304276048
 21
5.241575910562325
 31
0.0
  0
LINE
  5
1B06
330
18FD
100
AcDbEntity
  8
DIMENSIONS
 62
     0
370
    -2
100
AcDbLine
 10
8.529284304276046
 20
5.241575910562325
 30
0.0
 11
8.379284304276046
 21
5.241575910562325
 31
0.0
  0
SOLID
  5
1B07
330
18FD
100
AcDbEntity
  8
DIMENSIONS
 62
     0
100
AcDbTrace
 10
8.890784304276047
 20
5.266575910562325
 30
0.0
 11
8.890784304276047
 21
5.216575910562324
 31
0.0
 12
8.740784304276047
 22
5.241575910562325
 32
0.0
 13
8.740784304276047
 23
5.241575910562325
 33
0.0
  0
SOLID
  5
1B08
330
18FD
100
AcDbEntity
  8
DIMENSIONS
 62
     0
100
AcDbTrace
 10
8.529284304276046
 20
5.266575910562325
 30
0.0
 11
8.529284304276046
 21
5.216575910562324
 31
0.0
 12
8.679284304276047
 22
5.241575910562325
 32
0.0
 13
8.679284304276047
 23
5.241575910562325
 33
0.0
  0
MTEXT
  5
1B09
330
18FD
100
AcDbEntity
  8
DIMENSIONS
 62
     0
100
AcDbMText
 10
7.83214144713319
 20
5.241575910562325
 30
0.0
 40
0.12
 41
0.0
 46
0.0
 71
     5
 72
     1
  1
\A1;.062 [1.6]\PGASKET
  7
ROMANS
 73
     1
 44
1.0
  0
POINT
  5
1B0A
330
18FD
100
AcDbEntity
  8
DEFPOINTS
 62
     0
100
AcDbPoint
 10
8.740784304276047
 20
5.842127698771597
 30
0.0
  0
POINT
  5
1B0B
330
18FD
100
AcDbEntity
  8
DEFPOINTS
 62
     0
100
AcDbPoint
 10
8.679284304276047
 20
5.842127698771597
 30
0.0
  0
POINT
  5
1B0C
330
18FD
100
AcDbEntity
  8
DEFPOINTS
 62
     0
100
AcDbPoint
 10
8.679284304276047
 20
5.241575910562325
 30
0.0
  0
ENDBLK
  5
1909
330
18FD
100
AcDbEntity
  8
0
100
AcDbBlockEnd
  0
BLOCK
  5
19EE
330
19D1
100
AcDbEntity
  8
0
100
AcDbBlockBegin
  2
A$C478E4A92
 70
     0
 10
0.0
 20
0.0
 30
0.0
  3
A$C478E4A92
  1

  0
LWPOLYLINE
  5
19D2
330
19D1
100
AcDbEntity
  8
GEOMETRY
100
AcDbPolyline
 90
        6
 70
   129
 43
0.0
 10
7.321689383275533
 20
5.566905429643471
 10
7.531700395030146
 20
5.688155343812782
 10
7.531700395030146
 20
5.930655172151405
 10
7.321689383275533
 20
6.051905086320717
 10
7.11167837152092
 20
5.930655172151405
 10
7.11167837152092
 20
5.688155343812782
  0
LINE
  5
19D3
330
19D1
100
AcDbEntity
  8
GEOMETRY
100
AcDbLine
 10
7.11167837152092
 20
5.774405257982094
 30
0.0
 11
7.531700395030146
 21
5.774405257982094
 31
0.0
  0
LINE
  5
19D4
330
19D1
100
AcDbEntity
  8
GEOMETRY
100
AcDbLine
 10
7.11167837152092
 20
5.844405257982094
 30
0.0
 11
7.531700395030146
 21
5.844405257982094
 31
0.0
  0
LINE
  5
19D5
330
19D1
100
AcDbEntity
  8
GEOMETRY
100
AcDbLine
 10
-0.0000000228246799
 20
1.793641055394303
 30
0.0
 11
0.18049953085574
 21
1.793641055394303
 31
0.0
  0
LINE
  5
19D6
330
19D1
100
AcDbEntity
  8
GEOMETRY
100
AcDbLine
 10
0.4849996338525662
 20
1.674999970942494
 30
0.0
 11
-0.0000000228246799
 21
1.674999970942494
 31
0.0
  0
LINE
  5
19D7
330
19D1
100
AcDbEntity
  8
GEOMETRY
100
AcDbLine
 10
0.1249999771753201
 20
1.793641055394303
 30
0.0
 11
0.1249999771753201
 21
1.678641284276139
 31
0.0
  0
LINE
  5
19D8
330
19D1
100
AcDbEntity
  8
GEOMETRY
100
AcDbLine
 10
-0.0000000228246799
 20
1.793641055394303
 30
0.0
 11
-0.0000000228246799
 21
1.674999970942494
 31
0.0
  0
LINE
  5
19D9
330
19D1
100
AcDbEntity
  8
GEOMETRY
100
AcDbLine
 10
0.3045000801721462
 20
1.793641055394303
 30
0.0
 11
0.4849996338525662
 21
1.793641055394303
 31
0.0
  0
LINE
  5
19DA
330
19D1
100
AcDbEntity
  8
GEOMETRY
100
AcDbLine
 10
0.3045000801721462
 20
1.793641055394303
 30
0.0
 11
0.3045000801721462
 21
1.71564146356691
 31
0.0
  0
LINE
  5
19DB
330
19D1
100
AcDbEntity
  8
GEOMETRY
100
AcDbLine
 10
0.18049953085574
 20
1.793641055394303
 30
0.0
 11
0.18049953085574
 21
1.71564146356691
 31
0.0
  0
LINE
  5
19DC
330
19D1
100
AcDbEntity
  8
GEOMETRY
100
AcDbLine
 10
0.3599996338525662
 20
1.793641055394303
 30
0.0
 11
0.3599996338525662
 21
1.678641284276139
 31
0.0
  0
LINE
  5
19DD
330
19D1
100
AcDbEntity
  8
GEOMETRY
100
AcDbLine
 10
0.18049953085574
 20
1.71564146356691
 30
0.0
 11
0.3045000801721462
 21
1.71564146356691
 31
0.0
  0
LINE
  5
19DE
330
19D1
100
AcDbEntity
  8
GEOMETRY
100
AcDbLine
 10
0.4849996338525662
 20
1.793641055394303
 30
0.0
 11
0.4849996338525662
 21
1.674999970942494
 31
0.0
  0
LINE
  5
19DF
330
19D1
100
AcDbEntity
  8
GEOMETRY
100
AcDbLine
 10
7.111678371520923
 20
1.789999384432794
 30
0.0
 11
7.531700395030149
 21
1.78999938443278
 31
0.0
  0
LINE
  5
19E0
330
19D1
100
AcDbEntity
  8
GEOMETRY
100
AcDbLine
 10
7.111678371520923
 20
1.789999384432794
 30
0.0
 11
7.11167837152092
 21
1.674999613314623
 31
0.0
  0
LINE
  5
19E1
330
19D1
100
AcDbEntity
  8
GEOMETRY
100
AcDbLine
 10
7.321689383275533
 20
1.789999384432787
 30
0.0
 11
7.321689383275533
 21
1.674999613314625
 31
0.0
  0
LINE
  5
19E2
330
19D1
100
AcDbEntity
  8
GEOMETRY
100
AcDbLine
 10
7.531700395030149
 20
1.78999938443278
 30
0.0
 11
7.531700395030146
 21
1.674999613314625
 31
0.0
  0
LINE
  5
19E3
330
19D1
100
AcDbEntity
  8
GEOMETRY
100
AcDbLine
 10
15.49319523189397
 20
1.79364065348081
 30
0.0
 11
15.67369478557439
 21
1.79364065348081
 31
0.0
  0
LINE
  5
19E4
330
19D1
100
AcDbEntity
  8
GEOMETRY
100
AcDbLine
 10
15.18869512889715
 20
1.79364065348081
 30
0.0
 11
15.36919468257757
 21
1.79364065348081
 31
0.0
  0
LINE
  5
19E5
330
19D1
100
AcDbEntity
  8
GEOMETRY
100
AcDbLine
 10
15.18869512889715
 20
1.79364065348081
 30
0.0
 11
15.18869512889714
 21
1.677197510511525
 31
0.0
  0
LINE
  5
19E6
330
19D1
100
AcDbEntity
  8
GEOMETRY
100
AcDbLine
 10
15.36919468257757
 20
1.715641061653418
 30
0.0
 11
15.49319523189397
 21
1.715641061653418
 31
0.0
  0
LINE
  5
19E7
330
19D1
100
AcDbEntity
  8
GEOMETRY
100
AcDbLine
 10
15.31369512889715
 20
1.79364065348081
 30
0.0
 11
15.31369512889715
 21
1.690879632908108
 31
0.0
  0
LINE
  5
19E8
330
19D1
100
AcDbEntity
  8
GEOMETRY
100
AcDbLine
 10
15.36919468257757
 20
1.79364065348081
 30
0.0
 11
15.36919468257757
 21
1.715641061653418
 31
0.0
  0
LINE
  5
19E9
330
19D1
100
AcDbEntity
  8
GEOMETRY
100
AcDbLine
 10
15.54869478557439
 20
1.79364065348081
 30
0.0
 11
15.5486947855744
 21
1.690715943678487
 31
0.0
  0
LINE
  5
19EA
330
19D1
100
AcDbEntity
  8
GEOMETRY
100
AcDbLine
 10
15.49319523189397
 20
1.79364065348081
 30
0.0
 11
15.49319523189397
 21
1.715641061653418
 31
0.0
  0
LINE
  5
19EB
330
19D1
100
AcDbEntity
  8
GEOMETRY
100
AcDbLine
 10
15.67369478557439
 20
1.79364065348081
 30
0.0
 11
15.67369478557439
 21
1.676856824293331
 31
0.0
  0
LINE
  5
19EC
330
19D1
100
AcDbEntity
  8
CENTER
100
AcDbLine
 10
0.2924999962488064
 20
0.0499999709424941
 30
0.0
 11
0.1924996147790798
 21
0.0499999709424941
 31
0.0
  0
LINE
  5
19ED
330
19D1
100
AcDbEntity
  8
CENTER
100
AcDbLine
 10
0.2424998055139431
 20
0.0000000186262099
 30
0.0
 11
0.2424998055139431
 21
0.1000000424680678
 31
0.0
  0
ENDBLK
  5
19EF
330
19D1
100
AcDbEntity
  8
0
100
AcDbBlockEnd
  0
BLOCK
  5
1B56
330
1B1B
100
AcDbEntity
  8
0
100
AcDbBlockBegin
  2
A$C681E7F3F
 70
     0
 10
0.0
 20
0.0
 30
0.0
  3
A$C681E7F3F
  1

  0
ARC
  5
1B1C
330
1B1B
100
AcDbEntity
  8
GEOMETRY
100
AcDbCircle
 10
0.8366989679619294
 20
0.0499999449249335
 30
0.0
 40
1.645
100
AcDbArc
 50
59.33635453813417
 51
83.71175884582603
  0
ARC
  5
1B1D
330
1B1B
100
AcDbEntity
  8
GEOMETRY
100
AcDbCircle
 10
1.580290500378463
 20
1.435265673093422
 30
0.0
 40
0.1088145967809232
100
AcDbArc
 50
54.01988547448727
 51
73.10809365360597
  0
ARC
  5
1B1E
330
1B1B
100
AcDbEntity
  8
GEOMETRY
100
AcDbCircle
 10
1.394885293040733
 20
1.183936646013735
 30
0.0
 40
0.4211283989016131
100
AcDbArc
 50
53.6965048900991
 51
73.43147423799303
  0
ARC
  5
1B1F
330
1B1B
100
AcDbEntity
  8
GEOMETRY
100
AcDbCircle
 10
1.66357600000305
 20
1.602778789680858
 30
0.0
 40
0.1088145967809232
100
AcDbArc
 50
234.0198854744864
 51
253.1080936536051
  0
ARC
  5
1B20
330
1B1B
100
AcDbEntity
  8
GEOMETRY
100
AcDbCircle
 10
1.75204783586502
 20
1.902301919038148
 30
0.0
 40
0.4211283989016131
100
AcDbArc
 50
233.6965048900993
 51
253.4314742379933
  0
LINE
  5
1B21
330
1B1B
100
AcDbEntity
  8
GEOMETRY
100
AcDbLine
 10
1.016876340417525
 20
1.674999944924934
 30
0.0
 11
0.6565215955063315
 21
1.674999944924934
 31
0.0
  0
LINE
  5
1B22
330
1B1B
100
AcDbEntity
  8
GEOMETRY
100
AcDbLine
 10
0.6565215955063315
 20
1.763150270672628
 30
0.0
 11
0.7906327638908835
 21
1.763150270672628
 31
0.0
  0
ARC
  5
1B23
330
1B1B
100
AcDbEntity
  8
GEOMETRY
100
AcDbCircle
 10
0.8366989679619294
 20
0.0499999449249335
 30
0.0
 40
1.645
100
AcDbArc
 50
96.28824115417398
 51
120.5727247092606
  0
ARC
  5
1B24
330
1B1B
100
AcDbEntity
  8
GEOMETRY
100
AcDbCircle
 10
-0.0756151789566317
 20
1.902301919038148
 30
0.0
 40
0.4211283989016131
100
AcDbArc
 50
286.5685257620068
 51
306.3034951099007
  0
LINE
  5
1B25
330
1B1B
100
AcDbEntity
  8
GEOMETRY
100
AcDbLine
 10
0.0322130984596925
 20
1.523320724094755
 30
0.0
 11
0.0444745911503262
 21
1.498659037920329
 31
0.0
  0
ARC
  5
1B26
330
1B1B
100
AcDbEntity
  8
GEOMETRY
100
AcDbCircle
 10
0.0128566569053383
 20
1.602778789680858
 30
0.0
 40
0.1088145967809232
100
AcDbArc
 50
286.8919063463949
 51
305.9801145255136
  0
LINE
  5
1B27
330
1B1B
100
AcDbEntity
  8
GEOMETRY
100
AcDbLine
 10
0.0109881846440523
 20
1.447786011924655
 30
0.0
 11
0.0007882399757158
 21
1.464989532749264
 31
0.0
  0
ARC
  5
1B28
330
1B1B
100
AcDbEntity
  8
GEOMETRY
100
AcDbCircle
 10
0.1419577637337674
 20
1.464694870038588
 30
0.0
 40
0.107585465189005
100
AcDbArc
 50
96.83901865781948
 51
136.0330022140873
  0
ARC
  5
1B29
330
1B1B
100
AcDbEntity
  8
GEOMETRY
100
AcDbCircle
 10
0.2815473638676558
 20
1.183936646013735
 30
0.0
 40
0.4211283989016131
100
AcDbArc
 50
106.5685257620069
 51
126.3034951099009
  0
ARC
  5
1B2A
330
1B1B
100
AcDbEntity
  8
GEOMETRY
100
AcDbCircle
 10
0.0639744211772531
 20
1.62154369501329
 30
0.0
 40
0.107585465189005
100
AcDbArc
 50
276.8390186578204
 51
316.0330022140882
  0
LINE
  5
1B2B
330
1B1B
100
AcDbEntity
  8
GEOMETRY
100
AcDbLine
 10
0.1146558637567558
 20
1.571269907348362
 30
0.0
 11
0.0734659857841287
 21
1.5507907971968
 31
0.0
  0
LINE
  5
1B2C
330
1B1B
100
AcDbEntity
  8
GEOMETRY
100
AcDbLine
 10
0.0645242222849412
 20
1.539385424853957
 30
0.0
 11
0.0767857149755749
 21
1.514723738679528
 31
0.0
  0
ARC
  5
1B2D
330
1B1B
100
AcDbEntity
  8
GEOMETRY
100
AcDbCircle
 10
0.0961421565299254
 20
1.435265673093422
 30
0.0
 40
0.1088145967809232
100
AcDbArc
 50
106.891906346394
 51
125.9801145255127
  0
ARC
  5
1B2E
330
1B1B
100
AcDbEntity
  8
GEOMETRY
100
AcDbCircle
 10
0.1930755280056822
 20
1.48345977537102
 30
0.0
 40
0.1088145967809232
100
AcDbArc
 50
106.8919063463949
 51
125.9801145255136
  0
ARC
  5
1B2F
330
1B1B
100
AcDbEntity
  8
GEOMETRY
100
AcDbCircle
 10
0.1097900283810951
 20
1.650972891958456
 30
0.0
 40
0.1088145967809232
100
AcDbArc
 50
286.891906346394
 51
305.9801145255126
  0
LINE
  5
1B30
330
1B1B
100
AcDbEntity
  8
GEOMETRY
100
AcDbLine
 10
0.1614575937606979
 20
1.587579527131552
 30
0.0
 11
0.1737190864513316
 21
1.562917840957123
 31
0.0
  0
LINE
  5
1B31
330
1B1B
100
AcDbEntity
  8
GEOMETRY
100
AcDbLine
 10
0.1291464699354456
 20
1.571514826372354
 30
0.0
 11
0.1414079626260793
 21
1.546853140197924
 31
0.0
  0
LINE
  5
1B32
330
1B1B
100
AcDbEntity
  8
GEOMETRY
100
AcDbLine
 10
0.6565215955063315
 20
1.763150270672628
 30
0.0
 11
0.6565215955063315
 21
1.674999944924934
 31
0.0
  0
LINE
  5
1B33
330
1B1B
100
AcDbEntity
  8
GEOMETRY
100
AcDbLine
 10
0.7493965955063318
 20
1.763150270672628
 30
0.0
 11
0.7493965955063318
 21
1.677705440731832
 31
0.0
  0
LINE
  5
1B34
330
1B1B
100
AcDbEntity
  8
GEOMETRY
100
AcDbLine
 10
0.8827651720329736
 20
1.763150270672628
 30
0.0
 11
1.016876340417525
 21
1.763150270672628
 31
0.0
  0
LINE
  5
1B35
330
1B1B
100
AcDbEntity
  8
GEOMETRY
100
AcDbLine
 10
0.7906327638908835
 20
1.705196573944876
 30
0.0
 11
0.8827651720329736
 21
1.705196573944876
 31
0.0
  0
LINE
  5
1B36
330
1B1B
100
AcDbEntity
  8
GEOMETRY
100
AcDbLine
 10
0.9240013404175254
 20
1.763150270672628
 30
0.0
 11
0.9240013404175254
 21
1.677705440731832
 31
0.0
  0
LINE
  5
1B37
330
1B1B
100
AcDbEntity
  8
GEOMETRY
100
AcDbLine
 10
0.7906327638908835
 20
1.763150270672628
 30
0.0
 11
0.7906327638908835
 21
1.705196573944876
 31
0.0
  0
LINE
  5
1B38
330
1B1B
100
AcDbEntity
  8
GEOMETRY
100
AcDbLine
 10
0.8827651720329736
 20
1.763150270672628
 30
0.0
 11
0.8827651720329736
 21
1.705196573944876
 31
0.0
  0
LINE
  5
1B39
330
1B1B
100
AcDbEntity
  8
GEOMETRY
100
AcDbLine
 10
1.016876340417525
 20
1.763150270672628
 30
0.0
 11
1.016876340417525
 21
1.674999944924934
 31
0.0
  0
LINE
  5
1B3A
330
1B1B
100
AcDbEntity
  8
GEOMETRY
100
AcDbLine
 10
1.611908434623448
 20
1.539385424853957
 30
0.0
 11
1.599646941932814
 21
1.514723738679528
 31
0.0
  0
ARC
  5
1B3B
330
1B1B
100
AcDbEntity
  8
GEOMETRY
100
AcDbCircle
 10
1.612458235731136
 20
1.62154369501329
 30
0.0
 40
0.107585465189005
100
AcDbArc
 50
223.9669977859118
 51
263.1609813421796
  0
LINE
  5
1B3C
330
1B1B
100
AcDbEntity
  8
GEOMETRY
100
AcDbLine
 10
1.547286186972943
 20
1.571514826372354
 30
0.0
 11
1.535024694282309
 21
1.546853140197924
 31
0.0
  0
LINE
  5
1B3D
330
1B1B
100
AcDbEntity
  8
GEOMETRY
100
AcDbLine
 10
1.561776793151633
 20
1.571269907348362
 30
0.0
 11
1.60296667112426
 21
1.5507907971968
 31
0.0
  0
ARC
  5
1B3E
330
1B1B
100
AcDbEntity
  8
GEOMETRY
100
AcDbCircle
 10
1.534474893174621
 20
1.464694870038588
 30
0.0
 40
0.107585465189005
100
AcDbArc
 50
43.96699778591268
 51
83.16098134218051
  0
LINE
  5
1B3F
330
1B1B
100
AcDbEntity
  8
GEOMETRY
100
AcDbLine
 10
1.514975063147691
 20
1.587579527131552
 30
0.0
 11
1.502713570457057
 21
1.562917840957123
 31
0.0
  0
ARC
  5
1B40
330
1B1B
100
AcDbEntity
  8
GEOMETRY
100
AcDbCircle
 10
1.566642628527294
 20
1.650972891958456
 30
0.0
 40
0.1088145967809232
100
AcDbArc
 50
234.0198854744873
 51
253.108093653606
  0
ARC
  5
1B41
330
1B1B
100
AcDbEntity
  8
GEOMETRY
100
AcDbCircle
 10
1.483357128902706
 20
1.48345977537102
 30
0.0
 40
0.1088145967809232
100
AcDbArc
 50
54.01988547448634
 51
73.10809365360508
  0
LINE
  5
1B42
330
1B1B
100
AcDbEntity
  8
GEOMETRY
100
AcDbLine
 10
1.644219558448696
 20
1.523320724094755
 30
0.0
 11
1.631958065758063
 21
1.498659037920329
 31
0.0
  0
LINE
  5
1B43
330
1B1B
100
AcDbEntity
  8
GEOMETRY
100
AcDbLine
 10
1.665444472264336
 20
1.447786011924655
 30
0.0
 11
1.675644416932673
 21
1.464989532749264
 31
0.0
  0
LINE
  5
1B44
330
1B1B
100
AcDbEntity
  8
GEOMETRY
100
AcDbLine
 10
15.97932791561271
 20
1.705196172031383
 30
0.0
 11
16.0714603237548
 21
1.705196172031383
 31
0.0
  0
LINE
  5
1B45
330
1B1B
100
AcDbEntity
  8
GEOMETRY
100
AcDbLine
 10
15.84521674722816
 20
1.763149868759136
 30
0.0
 11
15.84521674722816
 21
1.685228264580313
 31
0.0
  0
LINE
  5
1B46
330
1B1B
100
AcDbEntity
  8
GEOMETRY
100
AcDbLine
 10
15.93809174722816
 20
1.763149868759136
 30
0.0
 11
15.93809174722816
 21
1.692742026073535
 31
0.0
  0
LINE
  5
1B47
330
1B1B
100
AcDbEntity
  8
GEOMETRY
100
AcDbLine
 10
15.97932791561271
 20
1.763149868759136
 30
0.0
 11
15.97932791561271
 21
1.705196172031383
 31
0.0
  0
LINE
  5
1B48
330
1B1B
100
AcDbEntity
  8
GEOMETRY
100
AcDbLine
 10
15.84521674722816
 20
1.763149868759136
 30
0.0
 11
15.97932791561271
 21
1.763149868759136
 31
0.0
  0
LINE
  5
1B49
330
1B1B
100
AcDbEntity
  8
GEOMETRY
100
AcDbLine
 10
16.11269649213935
 20
1.763149868759136
 30
0.0
 11
16.11269649213936
 21
1.692620544428494
 31
0.0
  0
LINE
  5
1B4A
330
1B1B
100
AcDbEntity
  8
GEOMETRY
100
AcDbLine
 10
16.20557149213935
 20
1.763149868759136
 30
0.0
 11
16.20557149213935
 21
1.68497638483765
 31
0.0
  0
LINE
  5
1B4B
330
1B1B
100
AcDbEntity
  8
GEOMETRY
100
AcDbLine
 10
16.0714603237548
 20
1.763149868759136
 30
0.0
 11
16.0714603237548
 21
1.705196172031383
 31
0.0
  0
LINE
  5
1B4C
330
1B1B
100
AcDbEntity
  8
GEOMETRY
100
AcDbLine
 10
16.0714603237548
 20
1.763149868759136
 30
0.0
 11
16.20557149213935
 21
1.763149868759136
 31
0.0
  0
LINE
  5
1B4D
330
1B1B
100
AcDbEntity
  8
GEOMETRY
100
AcDbLine
 10
7.759850363989844
 20
1.760444417237865
 30
0.0
 11
8.071926727457197
 21
1.760444417237854
 31
0.0
  0
LINE
  5
1B4E
330
1B1B
100
AcDbEntity
  8
GEOMETRY
100
AcDbLine
 10
7.759850363989844
 20
1.760444417237865
 30
0.0
 11
7.759850363989841
 21
1.674999587297063
 31
0.0
  0
LINE
  5
1B4F
330
1B1B
100
AcDbEntity
  8
GEOMETRY
100
AcDbLine
 10
8.071926727457197
 20
1.760444417237854
 30
0.0
 11
8.071926727457196
 21
1.674999587297065
 31
0.0
  0
LINE
  5
1B50
330
1B1B
100
AcDbEntity
  8
GEOMETRY
100
AcDbLine
 10
7.915888545723518
 20
1.760444417237859
 30
0.0
 11
7.915888545723518
 21
1.674999587297065
 31
0.0
  0
LWPOLYLINE
  5
1B51
330
1B1B
100
AcDbEntity
  8
GEOMETRY
100
AcDbPolyline
 90
        6
 70
   129
 43
0.0
 10
7.915888545723518
 20
5.629227859508937
 10
8.071926727457196
 20
5.719316545736734
 10
8.071926727457196
 20
5.899493918192334
 10
7.915888545723518
 20
5.989582604420132
 10
7.759850363989841
 20
5.899493918192334
 10
7.759850363989841
 20
5.719316545736734
  0
LINE
  5
1B52
330
1B1B
100
AcDbEntity
  8
GEOMETRY
100
AcDbLine
 10
7.759850363989841
 20
5.783400231964535
 30
0.0
 11
8.071926727457196
 21
5.783400231964535
 31
0.0
  0
LINE
  5
1B53
330
1B1B
100
AcDbEntity
  8
GEOMETRY
100
AcDbLine
 10
7.759850363989841
 20
5.835410231964534
 30
0.0
 11
8.071926727457196
 21
5.835410231964534
 31
0.0
  0
LINE
  5
1B54
330
1B1B
100
AcDbEntity
  8
CENTER
100
AcDbLine
 10
0.8866991586967918
 20
0.0499999449249344
 30
0.0
 11
0.7866987772270653
 21
0.0499999449249344
 31
0.0
  0
LINE
  5
1B55
330
1B1B
100
AcDbEntity
  8
CENTER
100
AcDbLine
 10
0.8366989679619285
 20
-0.0000000073913498
 30
0.0
 11
0.8366989679619285
 21
0.1000000164505082
 31
0.0
  0
ENDBLK
  5
1B57
330
1B1B
100
AcDbEntity
  8
0
100
AcDbBlockEnd
  0
BLOCK
  5
1C48
330
1C46
100
AcDbEntity
  8
0
100
AcDbBlockBegin
  2
GENAXEH
 70
     0
 10
0.0
 20
0.0
 30
0.0
  3
GENAXEH
  1

  0
LINE
  5
1C47
330
1C46
100
AcDbEntity
  8
0
100
AcDbLine
 10
-1.0
 20
0.0
 30
0.0
 11
1.0
 21
0.0
 31
0.0
  0
ENDBLK
  5
1C49
330
1C46
100
AcDbEntity
  8
0
100
AcDbBlockEnd
  0
ENDSEC
  0
SECTION
  2
ENTITIES
  0
LINE
  5
477
330
19
100
AcDbEntity
  8
GEOMETRY
100
AcDbLine
 10
9.608784454002915
 20
8.342127460353019
 30
0.0
 11
10.64053489460045
 21
8.342127460353019
 31
0.0
  0
LINE
  5
47F
330
19
100
AcDbEntity
  8
GEOMETRY
100
AcDbLine
 10
9.608784454002915
 20
8.342127460353019
 30
0.0
 11
9.546784417763291
 21
8.280127662531974
 31
0.0
  0
LINE
  5
4C6
330
19
100
AcDbEntity
  8
GEOMETRY
100
AcDbLine
 10
9.608784454002915
 20
5.092127341143729
 30
0.0
 11
9.546784417763291
 21
5.154127377383353
 31
0.0
  0
LINE
  5
4CA
102
{ACAD_REACTORS
330
1081
102
}
330
19
100
AcDbEntity
  8
GEOMETRY
100
AcDbLine
 10
13.60928453697258
 20
5.092127341143729
 30
0.0
 11
13.79678453697258
 21
5.092127341143729
 31
0.0
  0
LINE
  5
4FE
330
19
100
AcDbEntity
  8
GEOMETRY
100
AcDbLine
 10
14.17178453697258
 20
7.373628038279655
 30
0.0
 11
14.17178453697258
 21
6.06062759768212
 31
0.0
  0
CIRCLE
  5
4FF
330
19
100
AcDbEntity
  8
GEOMETRY
100
AcDbCircle
 10
18.51906551612907
 20
6.717127817980887
 30
0.0
 40
1.625
  0
LINE
  5
506
330
19
100
AcDbEntity
  8
GEOMETRY
100
AcDbLine
 10
12.53499163879448
 20
7.748127836100699
 30
0.0
 11
13.48605098022514
 21
7.748127836100699
 31
0.0
  0
LINE
  5
507
330
19
100
AcDbEntity
  8
GEOMETRY
100
AcDbLine
 10
14.14078463806206
 20
7.404627937190177
 30
0.0
 11
13.98685564292961
 21
7.404627937190177
 31
0.0
  0
LINE
  5
508
330
19
100
AcDbEntity
  8
GEOMETRY
100
AcDbLine
 10
14.14078463806206
 20
7.404627937190177
 30
0.0
 11
14.17178453697258
 21
7.373628038279655
 31
0.0
  0
LINE
  5
509
330
19
100
AcDbEntity
  8
GEOMETRY
100
AcDbLine
 10
11.96466399921471
 20
8.190915960185172
 30
0.0
 11
12.12541498436027
 21
7.961340326182487
 31
0.0
  0
LINE
  5
50A
330
19
100
AcDbEntity
  8
GEOMETRY
100
AcDbLine
 10
13.8844615389257
 20
7.457930940501334
 30
0.0
 11
13.79323305381828
 21
7.588219064585807
 31
0.0
  0
LINE
  5
50B
330
19
100
AcDbEntity
  8
GEOMETRY
100
AcDbLine
 10
14.14078463806206
 20
6.029627698771598
 30
0.0
 11
14.04678453697258
 21
6.029627698771598
 31
0.0
  0
LINE
  5
50C
330
19
100
AcDbEntity
  8
GEOMETRY
100
AcDbLine
 10
14.14078463806206
 20
6.029627698771598
 30
0.0
 11
14.17178453697258
 21
6.06062759768212
 31
0.0
  0
LINE
  5
50D
102
{ACAD_REACTORS
330
1081
102
}
330
19
100
AcDbEntity
  8
GEOMETRY
100
AcDbLine
 10
13.92178453697258
 20
5.904627698771598
 30
0.0
 11
13.92178453697258
 21
5.217127311341407
 31
0.0
  0
ARC
  5
50E
330
19
100
AcDbEntity
  8
GEOMETRY
100
AcDbCircle
 10
-12.53499163879448
 20
8.248127836100699
 30
0.0
 40
0.5
210
0.0
220
0.0
230
-1.0
100
AcDbArc
 50
270.0
 51
325.0000915527344
  0
ARC
  5
50F
330
19
100
AcDbEntity
  8
GEOMETRY
100
AcDbCircle
 10
11.55508817924553
 20
7.904127258174064
 30
0.0
 40
0.5
100
AcDbArc
 50
35.00004959106445
 51
61.16357421875
  0
ARC
  5
510
330
19
100
AcDbEntity
  8
GEOMETRY
100
AcDbCircle
 10
13.48605121864372
 20
7.373127836100699
 30
0.0
 40
0.375
100
AcDbArc
 50
35.00002670288086
 51
90.00002288818359
  0
ARC
  5
511
330
19
100
AcDbEntity
  8
GEOMETRY
100
AcDbCircle
 10
-13.98685564292961
 20
7.529627937190177
 30
0.0
 40
0.125
210
0.0
220
0.0
230
-1.0
100
AcDbArc
 50
270.0
 51
325.0000305175781
  0
ARC
  5
512
330
19
100
AcDbEntity
  8
GEOMETRY
100
AcDbCircle
 10
14.04678453697258
 20
5.904627698771598
 30
0.0
 40
0.125
100
AcDbArc
 50
90.0
 51
180.0
  0
LINE
  5
513
330
19
100
AcDbEntity
  8
GEOMETRY
100
AcDbLine
 10
19.55006565345818
 20
6.717127817980887
 30
0.0
 11
19.55006565345818
 21
5.461076992861869
 31
0.0
  0
LINE
  5
514
330
19
100
AcDbEntity
  8
GEOMETRY
100
AcDbLine
 10
17.48806537879997
 20
6.717127817980887
 30
0.0
 11
17.48806537879997
 21
5.461076992861869
 31
0.0
  0
CIRCLE
  5
515
330
19
100
AcDbEntity
  8
GEOMETRY
100
AcDbCircle
 10
-3.33151326365435
 20
6.717127817980887
 30
0.0
 40
1.625
210
0.0
220
0.0
230
-1.0
  0
LINE
  5
518
102
{ACAD_REACTORS
330
113F
102
}
330
19
100
AcDbEntity
  8
CENTER
100
AcDbLine
 10
3.181513168286918
 20
6.717127817980887
 30
0.0
 11
1.578514911603568
 21
6.717127817980887
 31
0.0
  0
LINE
  5
519
102
{ACAD_REACTORS
330
113F
102
}
330
19
100
AcDbEntity
  8
CENTER
100
AcDbLine
 10
3.33151326365435
 20
6.86712779413903
 30
0.0
 11
3.33151326365435
 21
8.741041797511222
 31
0.0
  0
LINE
  5
51A
102
{ACAD_REACTORS
330
113F
102
}
330
19
100
AcDbEntity
  8
CENTER
100
AcDbLine
 10
3.481513359021781
 20
6.717127817980887
 30
0.0
 11
5.064456321668266
 21
6.717127817980887
 31
0.0
  0
LINE
  5
51B
102
{ACAD_REACTORS
330
113F
102
}
330
19
100
AcDbEntity
  8
CENTER
100
AcDbLine
 10
3.33151326365435
 20
6.567127841822745
 30
0.0
 11
3.33151326365435
 21
4.987888234965446
 31
0.0
  0
CIRCLE
  5
51C
330
19
100
AcDbEntity
  8
GEOMETRY
100
AcDbCircle
 10
3.33151326365435
 20
6.717127817980887
 30
0.0
 40
0.4999996423721314
  0
CIRCLE
  5
51D
330
19
100
AcDbEntity
  8
GEOMETRY
100
AcDbCircle
 10
3.33151326365435
 20
6.717127817980887
 30
0.0
 40
0.8749996423721313
  0
CIRCLE
  5
51E
330
19
100
AcDbEntity
  8
GEOMETRY
100
AcDbCircle
 10
3.33151326365435
 20
6.717127817980887
 30
0.0
 40
1.340999722480773
  0
CIRCLE
  5
51F
330
19
100
AcDbEntity
  8
GEOMETRY
100
AcDbCircle
 10
3.33151326365435
 20
6.717127817980887
 30
0.0
 40
1.562999844551086
  0
CIRCLE
  5
520
330
19
100
AcDbEntity
  8
GEOMETRY
100
AcDbCircle
 10
3.33151326365435
 20
6.717127817980887
 30
0.0
 40
1.371999740600585
  0
ARC
  5
521
330
19
100
AcDbEntity
  8
GEOMETRY
100
AcDbCircle
 10
3.33151326365435
 20
6.774607557170035
 30
0.0
 40
1.237620711326599
100
AcDbArc
 50
119.3172760009765
 51
60.68274688720704
  0
LINE
  5
522
102
{ACAD_REACTORS
330
113F
102
}
330
19
100
AcDbEntity
  8
GEOMETRY
100
AcDbLine
 10
2.725518085431693
 20
7.85371579539025
 30
0.0
 11
3.065959312390922
 21
7.85371579539025
 31
0.0
  0
ARC
  5
524
102
{ACAD_REACTORS
330
113F
102
}
330
19
100
AcDbEntity
  8
GEOMETRY
100
AcDbCircle
 10
-3.065959312390922
 20
7.97871579539025
 30
0.0
 40
0.125
210
0.0
220
0.0
230
-1.0
100
AcDbArc
 50
180.0
 51
270.0
  0
CIRCLE
  5
525
330
19
100
AcDbEntity
  8
GEOMETRY
100
AcDbCircle
 10
3.065959312390922
 20
7.97871579539025
 30
0.0
 40
0.0465000011026859
  0
ARC
  5
526
102
{ACAD_REACTORS
330
113F
102
}
330
19
100
AcDbEntity
  8
GEOMETRY
100
AcDbCircle
 10
3.597067214917777
 20
7.97871579539025
 30
0.0
 40
0.125
100
AcDbArc
 50
180.0
 51
270.0
  0
LINE
  5
527
102
{ACAD_REACTORS
330
113F
102
}
330
19
100
AcDbEntity
  8
GEOMETRY
100
AcDbLine
 10
3.937508441877006
 20
7.85371579539025
 30
0.0
 11
3.597067214917777
 21
7.85371579539025
 31
0.0
  0
CIRCLE
  5
529
330
19
100
AcDbEntity
  8
GEOMETRY
100
AcDbCircle
 10
-3.597067214917777
 20
7.97871579539025
 30
0.0
 40
0.0465000011026859
210
0.0
220
0.0
230
-1.0
  0
CIRCLE
  5
52A
102
{ACAD_REACTORS
330
113F
102
}
330
19
100
AcDbEntity
  8
GEOMETRY
100
AcDbCircle
 10
3.33151326365435
 20
6.717127817980887
 30
0.0
 40
0.9220997095108032
  0
ARC
  5
52B
102
{ACAD_REACTORS
330
113F
102
}
330
19
100
AcDbEntity
  8
GEOMETRY
100
AcDbCircle
 10
3.33151326365435
 20
6.717127817980887
 30
0.0
 40
1.180140972137451
100
AcDbArc
 50
105.6143722534179
 51
74.38563537597656
  0
ARC
  5
52C
102
{ACAD_REACTORS
330
113F
102
}
330
19
100
AcDbEntity
  8
GEOMETRY
100
AcDbCircle
 10
3.33151326365435
 20
6.717127817980887
 30
0.0
 40
1.180140972137451
100
AcDbArc
 50
80.94803619384766
 51
99.05191802978515
  0
LINE
  5
5BC
330
19
100
AcDbEntity
  8
CENTER
100
AcDbLine
 10
12.92178453697258
 20
6.367139808877318
 30
0.0
 11
12.92178453697258
 21
5.145250576846244
 31
0.0
  0
ARC
  5
5BE
330
19
100
AcDbEntity
  8
GEOMETRY
100
AcDbCircle
 10
18.51906551612907
 20
6.717127817980887
 30
0.0
 40
1.031000018119812
100
AcDbArc
 50
0.0
 51
180.0
  0
LINE
  5
5BF
330
19
100
AcDbEntity
  8
CENTER
 48
0.4
100
AcDbLine
 10
11.38978447212273
 20
5.592865544669272
 30
0.0
 11
11.38978447212273
 21
5.036947417370917
 31
0.0
  0
LINE
  5
5C3
330
19
100
AcDbEntity
  8
GEOMETRY
100
AcDbLine
 10
9.608784454002915
 20
5.092127341143729
 30
0.0
 11
11.22028447879845
 21
5.092127341143729
 31
0.0
  0
ARC
  5
5C5
330
19
100
AcDbEntity
  8
GEOMETRY
100
AcDbCircle
 10
-11.38978479108566
 20
3.471625080312258
 30
0.0
 40
1.629342814591738
210
0.0
220
0.0
230
-1.0
100
AcDbArc
 50
84.02872515716776
 51
95.97125958404275
  0
DIMENSION
  5
62F
330
19
100
AcDbEntity
  8
DIMENSIONS
100
AcDbDimension
  2
*D1
 10
11.38978447212273
 20
4.32
 30
0.0
 11
10.56
 21
4.32
 31
0.0
 70
   160
  1
{3X <>\X[]}
 71
     5
 42
1.843000054359436
 73
     0
 74
     0
 75
     0
  3
Deublin
100
AcDbAlignedDimension
 13
9.546784417763291
 23
5.154127377383353
 33
0.0
 14
11.38978447212273
 24
5.036947417370917
 34
0.0
100
AcDbRotatedDimension
1001
ACAD
1000
DSTYLE
1002
{
1070
    79
1070
     0
1070
   141
1040
-0.09
1070
   170
1070
     1
1070
   171
1070
     0
1070
   274
1070
     0
1002
}
  0
DIMENSION
  5
630
330
19
100
AcDbEntity
  8
DIMENSIONS
100
AcDbDimension
  2
*D5
 10
20.14406551612907
 20
10.08
 30
0.0
 11
18.48
 21
10.08
 31
0.0
 70
   160
  1
{<>\X[]}
 71
     5
 42
3.25
 73
     0
 74
     0
 75
     0
  3
Deublin
100
AcDbAlignedDimension
 13
16.89406551612907
 23
6.717127817980887
 33
0.0
 14
20.14406551612907
 24
6.717127817980887
 34
0.0
100
AcDbRotatedDimension
1001
ACAD
1000
DSTYLE
1002
{
1070
     3
1000
%%C<>
1070
    79
1070
     0
1070
   141
1040
-0.09
1070
   170
1070
     1
1070
   171
1070
     0
1070
   274
1070
     0
1002
}
  0
ARC
  5
74A
102
{ACAD_REACTORS
330
1081
102
}
330
19
100
AcDbEntity
  8
GEOMETRY
100
AcDbCircle
 10
-13.79678453697258
 20
5.217127311341407
 30
0.0
 40
0.125
210
0.0
220
0.0
230
-1.0
100
AcDbArc
 50
180.0
 51
270.0
  0
LINE
  5
74B
330
19
100
AcDbEntity
  8
GEOMETRY
100
AcDbLine
 10
13.60928453697258
 20
5.279127377383353
 30
0.0
 11
12.23428453697258
 21
5.279127377383353
 31
0.0
  0
LINE
  5
74C
102
{ACAD_REACTORS
330
1081
102
}
330
19
100
AcDbEntity
  8
GEOMETRY
100
AcDbLine
 10
12.23428453697258
 20
5.279127377383353
 30
0.0
 11
12.23428453697258
 21
5.092127341143729
 31
0.0
  0
LINE
  5
74D
102
{ACAD_REACTORS
330
1081
102
}
330
19
100
AcDbEntity
  8
GEOMETRY
100
AcDbLine
 10
13.60928453697258
 20
5.279127377383353
 30
0.0
 11
13.60928453697258
 21
5.092127341143729
 31
0.0
  0
LINE
  5
74E
102
{ACAD_REACTORS
330
1081
102
}
330
19
100
AcDbEntity
  8
GEOMETRY
100
AcDbLine
 10
11.55928446544701
 20
5.092127341143729
 30
0.0
 11
12.23428453697258
 21
5.092127341143729
 31
0.0
  0
ARC
  5
74F
330
19
100
AcDbEntity
  8
GEOMETRY
100
AcDbCircle
 10
-12.92178453697258
 20
3.635151285044791
 30
0.0
 40
1.611035466194152
210
0.0
220
0.0
230
-1.0
100
AcDbArc
 50
64.7388916015625
 51
115.261116027832
  0
LINE
  5
750
330
19
100
AcDbEntity
  8
GEOMETRY
100
AcDbLine
 10
13.57778467430168
 20
5.349127370230796
 30
0.0
 11
12.26578451885277
 21
5.349127370230796
 31
0.0
  0
LINE
  5
751
102
{ACAD_REACTORS
330
1081
102
}
330
19
100
AcDbEntity
  8
GEOMETRY
100
AcDbLine
 10
12.23428453697258
 20
5.279127377383353
 30
0.0
 11
12.26578451885277
 21
5.349127370230796
 31
0.0
  0
LINE
  5
752
102
{ACAD_REACTORS
330
1081
102
}
330
19
100
AcDbEntity
  8
GEOMETRY
100
AcDbLine
 10
13.60928453697258
 20
5.279127377383353
 30
0.0
 11
13.57778467430168
 21
5.349127370230796
 31
0.0
  0
LINE
  5
753
102
{ACAD_REACTORS
330
1081
102
}
330
19
100
AcDbEntity
  8
HIDDEN
100
AcDbLine
 10
13.57778467430168
 20
5.349127370230796
 30
0.0
 11
13.55699791206413
 21
5.944381255023124
 31
0.0
  0
LINE
  5
754
330
19
100
AcDbEntity
  8
GEOMETRY
100
AcDbLine
 10
13.50634445442253
 20
5.390373426787498
 30
0.0
 11
13.48555769218498
 21
5.985627311579825
 31
0.0
  0
LINE
  5
755
330
19
100
AcDbEntity
  8
GEOMETRY
100
AcDbLine
 10
13.57778467430168
 20
5.349127370230796
 30
0.0
 11
13.50634445442253
 21
5.390373426787498
 31
0.0
  0
LINE
  5
756
102
{ACAD_REACTORS
330
1081
102
}
330
19
100
AcDbEntity
  8
HIDDEN
100
AcDbLine
 10
13.48555769218498
 20
5.985627311579825
 30
0.0
 11
13.55699791206413
 21
5.944381255023124
 31
0.0
  0
LINE
  5
757
330
19
100
AcDbEntity
  8
GEOMETRY
100
AcDbLine
 10
12.33722461952263
 20
5.390373426787498
 30
0.0
 11
12.3438746675162
 21
5.58080553242256
 31
0.0
  0
LINE
  5
758
330
19
100
AcDbEntity
  8
GEOMETRY
100
AcDbLine
 10
12.26578439964348
 20
5.349127370230796
 30
0.0
 11
12.33722461952263
 21
5.390373426787498
 31
0.0
  0
LINE
  5
759
102
{ACAD_REACTORS
330
1081
102
}
330
19
100
AcDbEntity
  8
HIDDEN
100
AcDbLine
 10
12.26578439964348
 20
5.349127370230796
 30
0.0
 11
12.27292324138754
 21
5.553556671557864
 31
0.0
  0
LINE
  5
75B
330
19
100
AcDbEntity
  8
GEOMETRY
100
AcDbLine
 10
12.33722461952263
 20
5.390373426787498
 30
0.0
 11
13.50634445442253
 21
5.390373426787498
 31
0.0
  0
LINE
  5
75C
330
19
100
AcDbEntity
  8
HIDDEN
100
AcDbLine
 10
13.55699791206413
 20
5.944381255023124
 30
0.0
 11
12.66490949831794
 21
5.944381255023124
 31
0.0
  0
LINE
  5
84A
330
19
100
AcDbEntity
  8
HIDDEN
100
AcDbLine
 10
14.17178453697258
 20
7.184758135377972
 30
0.0
 11
14.42778457893425
 21
7.192579883448722
 31
0.0
  0
LINE
  5
84B
330
19
100
AcDbEntity
  8
GEOMETRY
100
AcDbLine
 10
14.17178453697258
 20
7.241758006922843
 30
0.0
 11
14.39544595970207
 21
7.248591798655631
 31
0.0
  0
LINE
  5
84E
330
19
100
AcDbEntity
  8
GEOMETRY
100
AcDbLine
 10
14.17178453697258
 20
6.19333137881005
 30
0.0
 11
14.39591898216301
 21
6.186483162753226
 31
0.0
  0
LINE
  5
84F
330
19
100
AcDbEntity
  8
GEOMETRY
100
AcDbLine
 10
8.83778442634636
 20
7.592127937190177
 30
0.0
 11
8.83778442634636
 21
7.464627879969718
 31
0.0
  0
LINE
  5
850
102
{ACAD_REACTORS
330
1943
330
194B
102
}
330
19
100
AcDbEntity
  8
GEOMETRY
100
AcDbLine
 10
8.740784304276047
 20
7.592127937190177
 30
0.0
 11
8.740784304276047
 21
5.842127698771598
 31
0.0
  0
LINE
  5
851
330
19
100
AcDbEntity
  8
GEOMETRY
100
AcDbLine
 10
8.740784304276047
 20
7.592127937190177
 30
0.0
 11
8.83778442634636
 21
7.592127937190177
 31
0.0
  0
LINE
  5
855
330
19
100
AcDbEntity
  8
GEOMETRY
100
AcDbLine
 10
8.740784304276047
 20
5.842127698771598
 30
0.0
 11
8.83778442634636
 21
5.842127698771598
 31
0.0
  0
LINE
  5
868
330
19
100
AcDbEntity
  8
CENTER
100
AcDbLine
 10
7.356019954780264
 20
6.717127817980887
 30
0.0
 11
8.672609775705964
 21
6.717127817980887
 31
0.0
  0
DIMENSION
  5
88D
330
19
100
AcDbEntity
  8
DIMENSIONS
100
AcDbDimension
  2
*D3
 10
9.546784417763291
 20
9.359999999999999
 30
0.0
 11
8.64
 21
9.359999999999999
 31
0.0
 70
   160
  1
{<>\X[]}
 71
     5
 42
1.931000113487244
 73
     0
 74
     0
 75
     0
  3
Deublin
100
AcDbAlignedDimension
 13
7.615784304276046
 23
7.517226683294445
 33
0.0
 14
9.546784417763291
 24
8.280127662531974
 34
0.0
100
AcDbRotatedDimension
1001
ACAD
1000
DSTYLE
1002
{
1070
    79
1070
     0
1070
   141
1040
-0.09
1070
   170
1070
     1
1070
   171
1070
     1
1070
   274
1070
     1
1002
}
  0
DIMENSION
  5
88E
330
19
100
AcDbEntity
  8
DIMENSIONS
100
AcDbDimension
  2
*D2
 10
8.740784304276047
 20
8.64
 30
0.0
 11
8.16
 21
8.64
 31
0.0
 70
   160
  1
{<>\X[]}
 71
     5
 42
1.125
 73
     0
 74
     0
 75
     0
  3
Deublin
100
AcDbAlignedDimension
 13
7.615784304276046
 23
7.517226683294445
 33
0.0
 14
8.740784304276047
 24
7.592127937190177
 34
0.0
100
AcDbRotatedDimension
1001
ACAD
1000
DSTYLE
1002
{
1070
    79
1070
     0
1070
   141
1040
-0.09
1070
   170
1070
     1
1070
   171
1070
     1
1070
   274
1070
     1
1002
}
  0
CIRCLE
  5
88F
330
19
100
AcDbEntity
  8
GEOMETRY
100
AcDbCircle
 10
3.33151326365435
 20
6.717127817980887
 30
0.0
 40
0.7490000128746033
  0
CIRCLE
  5
890
330
19
100
AcDbEntity
  8
HIDDEN
100
AcDbCircle
 10
3.33151326365435
 20
6.717127817980887
 30
0.0
 40
0.6999999880790711
  0
CIRCLE
  5
892
330
19
100
AcDbEntity
  8
GEOMETRY
100
AcDbCircle
 10
18.51906551612907
 20
6.717127817980887
 30
0.0
 40
0.6875
  0
CIRCLE
  5
893
330
19
100
AcDbEntity
  8
GEOMETRY
100
AcDbCircle
 10
18.51906551612907
 20
6.717127817980887
 30
0.0
 40
0.656499981880188
  0
CIRCLE
  5
894
330
19
100
AcDbEntity
  8
GEOMETRY
100
AcDbCircle
 10
3.33151326365435
 20
6.717127817980887
 30
0.0
 40
0.5310000181198121
  0
LINE
  5
992
330
19
100
AcDbEntity
  8
GEOMETRY
100
AcDbLine
 10
14.42778457893425
 20
7.192579883448722
 30
0.0
 11
14.42778457893425
 21
6.241675752513053
 31
0.0
  0
LINE
  5
993
330
19
100
AcDbEntity
  8
GEOMETRY
100
AcDbLine
 10
14.42778457893425
 20
7.192579883448722
 30
0.0
 11
14.39544595970207
 21
7.248591798655631
 31
0.0
  0
LINE
  5
994
330
19
100
AcDbEntity
  8
HIDDEN
100
AcDbLine
 10
14.17178453697258
 20
6.249497500583803
 30
0.0
 11
14.42778457893425
 21
6.241675752513053
 31
0.0
  0
LINE
  5
995
330
19
100
AcDbEntity
  8
GEOMETRY
100
AcDbLine
 10
14.42778457893425
 20
6.241675752513053
 30
0.0
 11
14.39544595970207
 21
6.185663837306144
 31
0.0
  0
DIMENSION
  5
998
330
19
100
AcDbEntity
  8
DIMENSIONS
100
AcDbDimension
  2
*D4
 10
14.42778457893425
 20
10.08
 30
0.0
 11
11.04
 21
10.08
 31
0.0
 70
   160
  1
{<>\X[]}
 71
     5
 42
6.812000274658204
 73
     0
 74
     0
 75
     0
  3
Deublin
100
AcDbAlignedDimension
 13
7.615784304276046
 23
7.66579269185987
 33
0.0
 14
14.42778457893425
 24
7.192579883448722
 34
0.0
100
AcDbRotatedDimension
1001
ACAD
1000
DSTYLE
1002
{
1070
    79
1070
     0
1070
   141
1040
-0.09
1070
   170
1070
     1
1070
   171
1070
     1
1070
   274
1070
     1
1002
}
  0
CIRCLE
  5
9B6
330
19
100
AcDbEntity
  8
GEOMETRY
100
AcDbCircle
 10
18.51906551612907
 20
6.717127817980887
 30
0.0
 40
0.5310000181198121
  0
CIRCLE
  5
9B7
330
19
100
AcDbEntity
  8
HIDDEN
100
AcDbCircle
 10
18.51906551612907
 20
6.717127817980887
 30
0.0
 40
0.4750000238418579
  0
DIMENSION
  5
9BC
330
19
100
AcDbEntity
  8
DIMENSIONS
100
AcDbDimension
  2
*D0
 10
8.679284304276047
 20
3.599999999999999
 30
0.0
 11
10.56
 21
3.599999999999999
 31
0.0
 70
   160
  1
<>[]\PAPPOX. LOCKUP
 71
     5
 42
4.242500232696533
 73
     0
 74
     0
 75
     0
  3
Deublin
100
AcDbAlignedDimension
 13
12.92178453697258
 23
5.145250576846244
 33
0.0
 14
8.679284304276047
 24
5.842127698771597
 34
0.0
100
AcDbRotatedDimension
1001
ACAD
1000
DSTYLE
1002
{
1070
    79
1070
     0
1070
   141
1040
-0.09
1070
   170
1070
     1
1070
   171
1070
     0
1070
   274
1070
     0
1002
}
  0
LINE
  5
9C2
330
19
100
AcDbEntity
  8
GEOMETRY
100
AcDbLine
 10
8.83778442634636
 20
7.464627879969718
 30
0.0
 11
9.546784417763291
 21
7.464627879969718
 31
0.0
  0
LINE
  5
9C3
330
19
100
AcDbEntity
  8
GEOMETRY
100
AcDbLine
 10
8.83778442634636
 20
5.969627755992057
 30
0.0
 11
9.546784417763291
 21
5.969627755992057
 31
0.0
  0
LINE
  5
9C4
330
19
100
AcDbEntity
  8
GEOMETRY
100
AcDbLine
 10
9.546784417763291
 20
8.280127662531974
 30
0.0
 11
9.546784417763291
 21
5.154127973429801
 31
0.0
  0
LEADER
  5
EB7
330
19
100
AcDbEntity
  8
DIMENSIONS
100
AcDbLeader
  3
Deublin
 73
     0
 40
0.1428571428571428
 41
0.6114285714285716
 76
     3
 10
12.92178464423375
 20
5.246186751238941
 30
0.0
 10
13.57401910352737
 20
4.468883991162027
 30
0.0
 10
13.76852290085367
 20
4.468883991162027
 30
0.0
340
EB8
1001
ACAD
1000
DSTYLE
1002
{
1070
   147
1040
0.09
1070
    77
1070
     0
1002
}
  0
MTEXT
  5
EB8
102
{ACAD_REACTORS
330
EB7
102
}
330
19
100
AcDbEntity
  8
DIMENSIONS
100
AcDbMText
 10
13.85852290085367
 20
4.468883991162027
 30
0.0
 40
0.12
 41
0.0
 46
0.0
 71
     4
 72
     1
  1
1" NPT
  7
ROMANS
 73
     1
 44
1.0
  0
LEADER
  5
EB9
330
19
100
AcDbEntity
  8
DIMENSIONS
100
AcDbLeader
  3
Deublin
 73
     0
 40
0.1828571428571428
 41
1.439999999999999
 76
     3
 10
14.28361524833732
 20
7.245174902789237
 30
0.0
 10
14.66736077389276
 20
8.068119838057439
 30
0.0
 10
14.92691050138059
 20
8.068119838057439
 30
0.0
340
EBA
1001
ACAD
1000
DSTYLE
1002
{
1070
   147
1040
0.09
1070
    77
1070
     0
1002
}
  0
MTEXT
  5
EBA
102
{ACAD_REACTORS
330
EB9
102
}
330
19
100
AcDbEntity
  8
DIMENSIONS
100
AcDbMText
 10
15.01691050138059
 20
8.068119838057439
 30
0.0
 40
0.12
 41
0.0
 46
0.0
 71
     4
 72
     1
  1
3/4" NPT PLUG
  7
ROMANS
 73
     1
 44
1.0
  0
LINE
  5
ED3
330
19
100
AcDbEntity
  8
GEOMETRY
100
AcDbLine
 10
8.83778442634636
 20
5.969627755992057
 30
0.0
 11
8.83778442634636
 21
5.842127698771598
 31
0.0
  0
LINE
  5
ED4
330
19
100
AcDbEntity
  8
GEOMETRY
100
AcDbLine
 10
9.608784454002915
 20
5.092127341143729
 30
0.0
 11
9.608784454002915
 21
8.342127460353019
 31
0.0
  0
ARC
  5
ED7
330
19
100
AcDbEntity
  8
GEOMETRY
 62
     7
100
AcDbCircle
 10
11.55508817924553
 20
5.530128377787711
 30
0.0
 40
0.5
100
AcDbArc
 50
298.83642578125
 51
324.9999504089355
  0
LINE
  5
F6B
330
19
100
AcDbEntity
  8
GEOMETRY
100
AcDbLine
 10
13.64270962966972
 20
11.51713769639012
 30
0.0
 11
13.83155717147881
 21
11.71269624436375
 31
0.0
  0
LINE
  5
F6E
330
19
100
AcDbEntity
  8
GEOMETRY
100
AcDbLine
 10
13.64271010650688
 20
13.43592612946507
 30
0.0
 11
13.83155764831596
 21
13.24036710465428
 31
0.0
  0
LINE
  5
F6F
330
19
100
AcDbEntity
  8
GEOMETRY
100
AcDbLine
 10
9.608783738747179
 20
10.85103242600437
 30
0.0
 11
9.608783738747179
 21
14.1020325919437
 31
0.0
  0
LINE
  5
F72
330
19
100
AcDbEntity
  8
GEOMETRY
100
AcDbLine
 10
9.546784417763293
 20
10.91303270066258
 30
0.0
 11
9.546784894600451
 21
14.04003279412266
 31
0.0
  0
LINE
  5
F73
330
19
100
AcDbEntity
  8
GEOMETRY
100
AcDbLine
 10
9.608783738747179
 20
10.85103337967869
 30
0.0
 11
11.7962435235288
 21
10.85103244181762
 31
0.0
  0
LINE
  5
F74
330
19
100
AcDbEntity
  8
GEOMETRY
100
AcDbLine
 10
9.608783738747179
 20
10.85103242600437
 30
0.0
 11
9.546784417763293
 21
10.91303270066258
 31
0.0
  0
LINE
  5
FA1
330
19
100
AcDbEntity
  8
GEOMETRY
100
AcDbLine
 10
9.608784692421496
 20
14.1020325919437
 30
0.0
 11
11.79624336347207
 21
14.10203212301341
 31
0.0
  0
LINE
  5
FA3
330
19
100
AcDbEntity
  8
GEOMETRY
100
AcDbLine
 10
9.608784692421496
 20
14.1020325919437
 30
0.0
 11
9.546784894600451
 21
14.04003279412266
 31
0.0
  0
LINE
  5
FCD
330
19
100
AcDbEntity
  8
CENTER
100
AcDbLine
 10
14.48771139317867
 20
12.47653310502049
 30
0.0
 11
10.65468983561028
 21
12.47653310502049
 31
0.0
  0
ARC
  5
FE0
330
19
100
AcDbEntity
  8
GEOMETRY
100
AcDbCircle
 10
-13.46287431015068
 20
11.69080178940769
 30
0.0
 40
0.25
210
0.0
220
0.0
230
-1.0
100
AcDbArc
 50
223.9999237060548
 51
268.9995727539063
  0
LINE
  5
FE2
330
19
100
AcDbEntity
  8
GEOMETRY
100
AcDbLine
 10
12.51903609621139
 20
13.53081946334784
 30
0.0
 11
13.46763314498955
 21
13.5122162600803
 31
0.0
  0
ARC
  5
FE5
330
19
100
AcDbEntity
  8
GEOMETRY
100
AcDbCircle
 10
13.46287478698784
 20
13.26226155961033
 30
0.0
 40
0.25
100
AcDbArc
 50
43.99988174438481
 51
88.9995269775391
  0
ARC
  5
FEA
330
19
100
AcDbEntity
  8
GEOMETRY
100
AcDbCircle
 10
-14.01139249099785
 20
11.53903119767185
 30
0.0
 40
0.25
210
0.0
220
0.0
230
-1.0
100
AcDbArc
 50
43.99992752075196
 51
90.00006866455077
  0
LINE
  5
FEB
330
19
100
AcDbEntity
  8
GEOMETRY
100
AcDbLine
 10
14.01139249099785
 20
11.78903119767185
 30
0.0
 11
14.14078465443765
 21
11.78903119767185
 31
0.0
  0
ARC
  5
FED
330
19
100
AcDbEntity
  8
GEOMETRY
100
AcDbCircle
 10
14.01139296783501
 20
13.41403167450901
 30
0.0
 40
0.25
100
AcDbArc
 50
223.9998931884766
 51
270.0000305175781
  0
LINE
  5
FEE
330
19
100
AcDbEntity
  8
GEOMETRY
100
AcDbLine
 10
14.01139296783501
 20
13.16403119767185
 30
0.0
 11
14.14078668099557
 21
13.16403119767185
 31
0.0
  0
LINE
  5
1038
330
19
100
AcDbEntity
  8
CENTER
100
AcDbLine
 10
7.502485048503615
 20
12.47653310502049
 30
0.0
 11
10.1888732778704
 21
12.47653310502049
 31
0.0
  0
LINE
  5
1039
330
19
100
AcDbEntity
  8
GEOMETRY
100
AcDbLine
 10
8.837784426346358
 20
12.93136149677167
 30
0.0
 11
8.837784426346361
 21
12.02170471326931
 31
0.0
  0
LINE
  5
103A
330
19
100
AcDbEntity
  8
GEOMETRY
100
AcDbLine
 10
8.740784304276047
 20
13.35153322422978
 30
0.0
 11
8.740784304276047
 21
11.6015329858112
 31
0.0
  0
LINE
  5
103B
330
19
100
AcDbEntity
  8
GEOMETRY
100
AcDbLine
 10
8.740784304276047
 20
11.6015329858112
 30
0.0
 11
9.546784522752886
 21
11.60153287769556
 31
0.0
  0
LINE
  5
103D
330
19
100
AcDbEntity
  8
GEOMETRY
100
AcDbLine
 10
8.837784426346361
 20
12.02170471326931
 30
0.0
 11
9.546784417763291
 21
12.02170471326931
 31
0.0
  0
LINE
  5
104E
330
19
100
AcDbEntity
  8
GEOMETRY
100
AcDbLine
 10
8.740784304276047
 20
13.35153322422978
 30
0.0
 11
9.546784789610935
 21
13.3515331161141
 31
0.0
  0
LINE
  5
105C
330
19
100
AcDbEntity
  8
GEOMETRY
100
AcDbLine
 10
8.837784426346358
 20
12.93136149677167
 30
0.0
 11
9.546784417763291
 21
12.93136149677167
 31
0.0
  0
ARC
  5
105D
330
19
100
AcDbEntity
  8
GEOMETRY
 62
     7
100
AcDbCircle
 10
14.56472001833969
 20
6.770036976245269
 30
0.0
 40
1.031563237065848
100
AcDbArc
 50
187.879789302528
 51
226.0818200763271
  0
LINE
  5
105E
330
19
100
AcDbEntity
  8
GEOMETRY
100
AcDbLine
 10
11.79624336349665
 20
8.342127460353019
 30
0.0
 11
11.79624352350413
 21
5.092128263706088
 31
0.0
  0
ARC
  5
105F
330
19
100
AcDbEntity
  8
GEOMETRY
 62
     7
100
AcDbCircle
 10
7.648884786485241
 20
7.385322544787977
 30
0.0
 40
4.818095046035114
100
AcDbArc
 50
333.6041396863856
 51
351.4012313227762
  0
LINE
  5
1060
330
19
100
AcDbEntity
  8
GEOMETRY
 62
     7
100
AcDbLine
 10
12.41282249012042
 20
6.88436404085985
 30
0.0
 11
12.41282249012042
 21
7.570034703478128
 31
0.0
  0
LINE
  5
1061
330
19
100
AcDbEntity
  8
GEOMETRY
 62
     7
100
AcDbLine
 10
13.92913703674707
 20
7.295766446429375
 30
0.0
 11
13.92913703674707
 21
6.143839734830379
 31
0.0
  0
SPLINE
  5
1062
102
{ACAD_REACTORS
330
1081
102
}
330
19
100
AcDbEntity
  8
GEOMETRY
100
AcDbSpline
210
0.0
220
0.0
230
1.0
 70
     8
 71
     3
 72
    21
 73
    17
 74
    15
 42
0.0000000001
 43
0.0000000001
 44
0.0000000001
 40
0.0
 40
0.0
 40
0.0
 40
0.0
 40
0.164717872522918
 40
0.2867865943620009
 40
0.4762430799481936
 40
0.655374165455994
 40
0.8267287658424361
 40
0.990993261758453
 40
1.204811653329115
 40
1.40309881757765
 40
1.723463261876776
 40
2.044998784963467
 40
2.182006724166234
 40
2.431022412843413
 40
2.516007661391621
 40
2.597850317232314
 40
2.597850317232314
 40
2.597850317232314
 40
2.597850317232314
 10
12.0297559210158
 20
5.092127341143729
 30
0.0
 10
12.05773145279444
 20
5.140724108082867
 30
0.0
 10
12.10643902387569
 20
5.225334849309751
 30
0.0
 10
12.1152691522373
 20
5.383433480841427
 30
0.0
 10
12.19151537062575
 20
5.552101562940596
 30
0.0
 10
12.39836635309812
 20
5.571650543261645
 30
0.0
 10
12.46229391144914
 20
5.755996253886351
 30
0.0
 10
12.68509775964022
 20
5.7903250723672
 30
0.0
 10
12.63648845797143
 20
6.049021762551479
 30
0.0
 10
12.90619491533129
 20
6.148954544160547
 30
0.0
 10
13.16969645352812
 20
6.132574220059213
 30
0.0
 10
13.44769951380503
 20
6.194374161394298
 30
0.0
 10
13.65073658181652
 20
6.060290113392591
 30
0.0
 10
13.70280105062427
 20
5.857703584708288
 30
0.0
 10
13.85885410466613
 20
5.884703567859158
 30
0.0
 10
13.90107282221066
 20
5.844454224861978
 30
0.0
 10
13.92178453697258
 20
5.824708648492134
 30
0.0
 11
12.0297559210158
 21
5.092127341143729
 31
0.0
 11
12.09936870197906
 21
5.24141243167536
 31
0.0
 11
12.12056571307655
 21
5.36162665534278
 31
0.0
 11
12.21529395586965
 21
5.525700784772143
 31
0.0
 11
12.3776418535657
 21
5.601404852753174
 31
0.0
 11
12.48778646755689
 21
5.732670092182081
 31
0.0
 11
12.63004369396001
 21
5.814802340140089
 31
0.0
 11
12.68538396589168
 21
6.02133504669378
 31
0.0
 11
12.85710568737529
 21
6.120478628818048
 31
0.0
 11
13.17625104824319
 21
6.148400229910879
 31
0.0
 11
13.49778657132988
 21
6.148400229910879
 31
0.0
 11
13.61001690481165
 21
6.069815704391155
 31
0.0
 11
13.7700811041109
 21
5.879058619830557
 31
0.0
 11
13.85474295813063
 21
5.871651667370743
 31
0.0
 11
13.92178453697258
 21
5.824708648492134
 31
0.0
  0
LINE
  5
1063
102
{ACAD_REACTORS
330
1081
102
}
330
19
100
AcDbEntity
  8
GEOMETRY
100
AcDbLine
 10
13.49449791206413
 20
5.985627311579826
 30
0.0
 11
12.67232583231549
 21
5.985627311579825
 31
0.0
  0
LINE
  5
1064
102
{ACAD_REACTORS
330
1081
102
}
330
19
100
AcDbEntity
  8
GEOMETRY
100
AcDbLine
 10
13.55699791206413
 20
6.048127311579827
 30
0.0
 11
13.55699791206413
 21
6.118441781496098
 31
0.0
  0
ARC
  5
1065
102
{ACAD_REACTORS
330
1081
102
}
330
19
100
AcDbEntity
  8
GEOMETRY
100
AcDbCircle
 10
13.49449791206413
 20
6.048127311579826
 30
0.0
 40
0.0625
100
AcDbArc
 50
270.0
 51
0.0
  0
HATCH
  5
1081
330
19
100
AcDbEntity
  8
HATCH
100
AcDbHatch
 10
0.0
 20
0.0
 30
0.0
210
0.0
220
0.0
230
1.0
  2
ANSI33
 70
     0
 71
     1
 91
        2
 92
        5
 93
        5
 72
     4
 94
        3
 73
     0
 74
     0
 95
       11
 96
        7
 40
0.0
 40
0.0
 40
0.0
 40
0.0
 40
0.063703940749653
 40
0.2531604263358457
 40
0.3752291481749286
 40
0.5399470206978467
 40
0.5399470206978467
 40
0.5399470206978467
 40
0.5399470206978467
 10
12.27292324138755
 20
5.553556671557863
 10
12.25251157111142
 20
5.545971044966492
 10
12.17357840861396
 20
5.51242231005227
 10
12.1152691522373
 20
5.383433480841427
 10
12.10643902387569
 20
5.225334849309751
 10
12.05773145279444
 20
5.140724108082867
 10
12.0297559210158
 20
5.092127341143729
 72
     1
 10
12.0297559210158
 20
5.092127341143729
 11
12.23428453697258
 21
5.092127341143729
 72
     1
 10
12.23428453697258
 20
5.092127341143729
 11
12.23428453697258
 21
5.279127377383357
 72
     1
 10
12.23428453697258
 20
5.279127377383357
 11
12.26578438961433
 21
5.349127083034134
 72
     1
 10
12.26578438961433
 20
5.349127083034134
 11
12.27292324138754
 21
5.553556671557863
 97
        5
330
1062
330
74E
330
74C
330
751
330
759
 92
        5
 93
       11
 72
     4
 94
        3
 73
     0
 74
     0
 95
       11
 96
        7
 40
2.11206482649562
 40
2.11206482649562
 40
2.11206482649562
 40
2.11206482649562
 40
2.193907482336313
 40
2.278892730884521
 40
2.5279084195617
 40
2.597850317232314
 40
2.597850317232314
 40
2.597850317232314
 40
2.597850317232314
 10
13.92178453697258
 20
5.824708648492134
 10
13.90107282221066
 20
5.844454224861978
 10
13.85885410466613
 20
5.884703567859158
 10
13.70280105062427
 20
5.857703584708288
 10
13.65814994067695
 20
6.031444209999794
 10
13.57639968920453
 20
6.105220601149943
 10
13.55699791206413
 20
6.118441781496098
 72
     1
 10
13.55699791206413
 20
6.118441781496097
 11
13.55699791206413
 21
6.048127311579826
 72
     2
 10
13.49449791206413
 20
6.048127311579826
 40
0.0625
 50
360.0
 51
450.0
 73
     0
 72
     1
 10
13.49449791206413
 20
5.985627311579826
 11
13.48555769218498
 21
5.985627311579826
 72
     1
 10
13.48555769218498
 20
5.985627311579826
 11
13.55699791206413
 21
5.944381255023124
 72
     1
 10
13.55699791206413
 20
5.944381255023124
 11
13.57778467430168
 21
5.349127370230785
 72
     1
 10
13.57778467430168
 20
5.349127370230785
 11
13.60928453697258
 21
5.279127377383352
 72
     1
 10
13.60928453697258
 20
5.279127377383352
 11
13.60928453697258
 21
5.092127341143729
 72
     1
 10
13.60928453697258
 20
5.092127341143729
 11
13.79687085371318
 21
5.092127341143729
 72
     2
 10
13.79678453697258
 20
5.217127311341407
 40
0.125
 50
270.0395646826474
 51
360.0
 73
     1
 72
     1
 10
13.92178453697258
 20
5.217127311341407
 11
13.92178453697258
 21
5.824708648492132
 97
       11
330
1062
330
1064
330
1065
330
1063
330
756
330
753
330
752
330
74D
330
4CA
330
74A
330
50D
 75
     0
 76
     1
 52
0.0
 41
1.0
 77
     0
 78
     2
 53
45.0
 43
0.0
 44
0.0
 45
-0.1767766952966369
 46
0.1767766952966369
 79
     0
 53
45.0
 43
0.176776695
 44
0.0
 45
-0.1767766952966369
 46
0.1767766952966369
 79
     2
 49
0.125
 49
-0.0625
 47
0.0069220086080934
 98
        2
 10
12.21034643219045
 20
5.360281417224001
 10
13.83146170516355
 20
5.429501473912637
  0
LINE
  5
1082
330
19
100
AcDbEntity
  8
GEOMETRY
100
AcDbLine
 10
14.39591899899963
 20
6.1864831622388
 30
0.0
 11
14.39544595970207
 21
7.248591798655631
 31
0.0
  0
LINE
  5
1083
330
19
100
AcDbEntity
  8
GEOMETRY
100
AcDbLine
 10
14.39591899899963
 20
11.9458884492784
 30
0.0
 11
14.39544595970207
 21
13.00799708569523
 31
0.0
  0
LINE
  5
1084
330
19
100
AcDbEntity
  8
GEOMETRY
100
AcDbLine
 10
14.42778457893425
 20
12.95198517048832
 30
0.0
 11
14.42778457893425
 21
12.00108103955265
 31
0.0
  0
LINE
  5
1085
330
19
100
AcDbEntity
  8
GEOMETRY
100
AcDbLine
 10
14.17178453697258
 20
13.00116329396244
 30
0.0
 11
14.39544595970207
 21
13.00799708569523
 31
0.0
  0
LINE
  5
1086
330
19
100
AcDbEntity
  8
HIDDEN
100
AcDbLine
 10
14.17178453697258
 20
12.94416342241757
 30
0.0
 11
14.42778457893425
 21
12.95198517048832
 31
0.0
  0
LINE
  5
1087
330
19
100
AcDbEntity
  8
GEOMETRY
100
AcDbLine
 10
14.42778457893425
 20
12.95198517048832
 30
0.0
 11
14.39544595970207
 21
13.00799708569523
 31
0.0
  0
LINE
  5
1088
330
19
100
AcDbEntity
  8
GEOMETRY
100
AcDbLine
 10
14.42778457893425
 20
12.00108103955265
 30
0.0
 11
14.39544595970207
 21
11.94506912434574
 31
0.0
  0
LINE
  5
1089
330
19
100
AcDbEntity
  8
GEOMETRY
100
AcDbLine
 10
14.17178453697258
 20
11.95273666584965
 30
0.0
 11
14.39591898216301
 21
11.94588844979282
 31
0.0
  0
LINE
  5
108A
330
19
100
AcDbEntity
  8
HIDDEN
100
AcDbLine
 10
14.17178453697258
 20
12.0089027876234
 30
0.0
 11
14.42778457893425
 21
12.00108103955265
 31
0.0
  0
LINE
  5
108B
330
19
100
AcDbEntity
  8
GEOMETRY
100
AcDbLine
 10
14.14078463806206
 20
6.029627698771598
 30
0.0
 11
14.14078463806206
 21
7.404627937190176
 31
0.0
  0
LINE
  5
108C
330
19
100
AcDbEntity
  8
CENTER
100
AcDbLine
 10
18.42906551612907
 20
6.717127817980887
 30
0.0
 11
18.60906551612907
 21
6.717127817980887
 31
0.0
  0
LINE
  5
108D
330
19
100
AcDbEntity
  8
CENTER
100
AcDbLine
 10
18.51906551612907
 20
6.627127817980888
 30
0.0
 11
18.51906551612907
 21
6.807127817980887
 31
0.0
  0
LINE
  5
108E
330
19
100
AcDbEntity
  8
CENTER
100
AcDbLine
 10
18.33906551612907
 20
6.717127817980887
 30
0.0
 11
16.80406551612907
 21
6.717127817980887
 31
0.0
  0
LINE
  5
108F
330
19
100
AcDbEntity
  8
CENTER
100
AcDbLine
 10
18.69906551612907
 20
6.717127817980887
 30
0.0
 11
20.23406551612907
 21
6.717127817980887
 31
0.0
  0
LINE
  5
1090
330
19
100
AcDbEntity
  8
CENTER
100
AcDbLine
 10
18.51906551612907
 20
6.537127817980888
 30
0.0
 11
18.51906551612907
 21
5.002127817980888
 31
0.0
  0
LINE
  5
1091
330
19
100
AcDbEntity
  8
CENTER
100
AcDbLine
 10
18.51906551612907
 20
6.897127817980887
 30
0.0
 11
18.52058287662134
 21
8.815569279054644
 31
0.0
  0
DIMENSION
  5
10C6
330
19
100
AcDbEntity
  8
DIMENSIONS
100
AcDbDimension
  2
*D6
 10
9.079671234543456
 20
13.35153322422978
 30
0.0
 11
8.545385520257738
 21
11.24499501412401
 31
0.0
 70
   160
  1
{<>\X[]}
 71
     5
 42
1.750000238418579
 73
     0
 74
     0
 75
     0
  3
Deublin
100
AcDbAlignedDimension
 13
8.740784304276047
 23
11.6015329858112
 33
0.0
 14
8.740784304276047
 24
13.35153322422978
 34
0.0
 50
90.0
100
AcDbRotatedDimension
1001
ACAD
1000
DSTYLE
1002
{
1070
     3
1000
%%C<>
1070
   170
1070
     1
1070
   171
1070
     0
1070
   274
1070
     0
1002
}
  0
ELLIPSE
  5
1116
330
19
100
AcDbEntity
  8
GEOMETRY
100
AcDbEllipse
 10
11.3897844855782
 20
7.529627817980888
 30
0.0
 11
0.1694999798687995
 21
0.0
 31
0.0
210
0.0
220
0.0
230
1.0
 40
0.8387699735233486
 41
0.0
 42
3.141592653589793
  0
ELLIPSE
  5
1117
330
19
100
AcDbEntity
  8
GEOMETRY
100
AcDbEllipse
 10
11.3897844855782
 20
7.529627817980888
 30
0.0
 11
-0.1694999798687995
 21
0.0
 31
0.0
210
0.0
220
0.0
230
1.0
 40
0.8909238258714323
 41
0.0
 42
3.141592653589793
  0
ELLIPSE
  5
1121
330
19
100
AcDbEntity
  8
GEOMETRY
100
AcDbEllipse
 10
11.38978447212273
 20
13.88382271724015
 30
0.0
 11
-0.1695003509521484
 21
0.0
 31
0.0
210
0.0
220
0.0
230
-1.0
 40
0.4541520350423065
 41
0.0
 42
3.141592653589793
  0
ELLIPSE
  5
1122
330
19
100
AcDbEntity
  8
GEOMETRY
100
AcDbEllipse
 10
11.38978447212273
 20
13.88382271724015
 30
0.0
 11
-0.1695003509521484
 21
0.0
 31
0.0
210
0.0
220
0.0
230
-1.0
 40
0.5444849593553466
 41
3.141592653589793
 42
6.283185307179586
  0
HATCH
  5
113F
330
19
100
AcDbEntity
  8
HATCH
100
AcDbHatch
 10
0.0
 20
0.0
 30
0.0
210
0.0
220
0.0
230
1.0
  2
ANSI37
 70
     0
 71
     1
 91
        4
 92
        7
 72
     1
 73
     1
 93
        7
 10
3.649161628558094
 20
7.85371579539025
 42
0.0
 10
3.597067214917777
 20
7.85371579539025
 42
-0.1750764610910849
 10
3.51718434078851
 20
7.882571495398792
 42
0.0395170419123973
 10
3.33151326365435
 20
7.897268790118339
 42
0.0
 10
3.33151326365435
 20
7.639227527491691
 42
-0.4142135623730951
 10
4.253612973165153
 20
6.717127817980887
 42
0.0
 10
4.511654235791802
 20
6.717127817980887
 42
0.3364673815833179
 97
        7
330
527
330
526
330
52C
330
519
330
52A
330
51A
330
52B
 92
        7
 72
     1
 73
     1
 93
        4
 10
4.511654235791802
 20
6.717127817980887
 42
0.0
 10
4.253612973165153
 20
6.717127817980887
 42
-0.4142135623730951
 10
3.33151326365435
 20
5.795028108470084
 42
0.0
 10
3.33151326365435
 20
5.536986845843435
 42
0.4142135623730954
 97
        4
330
51A
330
52A
330
51B
330
52B
 92
        7
 72
     1
 73
     1
 93
        4
 10
2.409413554143546
 20
6.717127817980887
 42
0.0
 10
2.151372291516898
 20
6.717127817980887
 42
0.4142135623730953
 10
3.33151326365435
 20
5.536986845843435
 42
0.0
 10
3.33151326365435
 20
5.795028108470084
 42
-0.4142135623730951
 97
        4
330
518
330
52B
330
51B
330
52A
 92
        7
 72
     1
 73
     1
 93
        7
 10
3.33151326365435
 20
7.639227527491691
 42
0.0
 10
3.33151326365435
 20
7.897268790118339
 42
0.0395170419123973
 10
3.145842186520189
 20
7.882571495398792
 42
-0.1750764610910858
 10
3.065959312390921
 20
7.85371579539025
 42
0.0
 10
3.013864898750608
 20
7.85371579539025
 42
0.3364673815833181
 10
2.151372291516898
 20
6.717127817980887
 42
0.0
 10
2.409413554143546
 20
6.717127817980887
 42
-0.4142135623730951
 97
        7
330
519
330
52C
330
524
330
522
330
52B
330
518
330
52A
 75
     0
 76
     1
 52
0.0
 41
0.5
 77
     0
 78
     2
 53
45.0
 43
0.0
 44
0.0
 45
-0.0441941738241592
 46
0.0441941738241592
 79
     0
 53
135.0
 43
0.0
 44
0.0
 45
-0.0441941738241592
 46
-0.0441941738241592
 79
     0
 47
0.0106442207402022
 98
        4
 10
4.139605509690355
 20
7.313430625932575
 10
4.150258707520976
 20
6.014835682457587
 10
2.722730955907799
 20
5.833883943446004
 10
2.403135158750977
 20
7.100546196512688
  0
DIMENSION
  5
1140
330
19
100
AcDbEntity
  8
DIMENSIONS
100
AcDbDimension
  2
*D7
 10
2.831513621282218
 20
4.504401161433513
 30
0.0
 11
3.326237599002212
 21
4.504401161433513
 31
0.0
 70
   160
  1
{<>\X[]}
 71
     5
 42
0.9999992847442626
 73
     0
 74
     0
 75
     0
  3
Deublin
100
AcDbAlignedDimension
 13
3.831512906026481
 23
6.717127817980887
 33
0.0
 14
2.831513621282218
 24
6.717127817980887
 34
0.0
100
AcDbRotatedDimension
1001
ACAD
1000
DSTYLE
1002
{
1070
     3
1000
%%C<>
1070
   170
1070
     1
1070
   171
1070
     0
1070
   274
1070
     0
1002
}
  0
INSERT
  5
115E
330
19
100
AcDbEntity
  8
DIMENSIONS
100
AcDbBlockReference
  2
note
 10
0.9076222626486877
 20
16.03131066587716
 30
0.0
  0
TEXT
  5
115F
330
19
100
AcDbEntity
  8
DIMENSIONS
100
AcDbText
 10
0.9519713875004043
 20
15.71877865131909
 30
0.0
 40
0.12
  1
1 - WHEN ORDERING FROM DEUBLIN USE PART NUMBER 357-000-019.
  7
ROMANS
100
AcDbText
  0
LINE
  5
1160
330
19
100
AcDbEntity
  8
GEOMETRY
 62
     7
100
AcDbLine
 10
13.5378780440692
 20
6.88436404085985
 30
0.0
 11
13.5378780440692
 21
7.570034703478128
 31
0.0
  0
LINE
  5
1161
330
19
100
AcDbEntity
  8
GEOMETRY
100
AcDbLine
 10
14.14078465443765
 20
11.78903119767185
 30
0.0
 11
14.14078465443765
 21
13.16403119767185
 31
0.0
  0
LINE
  5
1162
330
19
100
AcDbEntity
  8
GEOMETRY
100
AcDbLine
 10
14.17178455334817
 20
13.13303332531925
 30
0.0
 11
14.17178455334817
 21
11.82003288472172
 31
0.0
  0
LINE
  5
1163
330
19
100
AcDbEntity
  8
GEOMETRY
100
AcDbLine
 10
14.14078465443765
 20
11.7890329858112
 30
0.0
 11
14.17178455334817
 21
11.82003288472172
 31
0.0
  0
LINE
  5
1164
330
19
100
AcDbEntity
  8
GEOMETRY
100
AcDbLine
 10
14.14078668099557
 20
13.16403119767185
 30
0.0
 11
14.17178455334817
 21
13.13303332531925
 31
0.0
  0
ARC
  5
1165
330
19
100
AcDbEntity
  8
GEOMETRY
100
AcDbCircle
 10
11.55508817935261
 20
13.66403200893175
 30
0.0
 40
0.5
100
AcDbArc
 50
35.00004959106445
 51
61.16357421875
  0
LINE
  5
1166
330
19
100
AcDbEntity
  8
GEOMETRY
100
AcDbLine
 10
11.79624336347207
 20
14.10203212301341
 30
0.0
 11
11.7962435235288
 21
10.85103244181762
 31
0.0
  0
ARC
  5
1167
330
19
100
AcDbEntity
  8
GEOMETRY
100
AcDbCircle
 10
-12.51903609621139
 20
14.03081946334784
 30
0.0
 40
0.5
210
0.0
220
0.0
230
-1.0
100
AcDbArc
 50
270.0
 51
325.0000915527344
  0
LINE
  5
1168
330
19
100
AcDbEntity
  8
GEOMETRY
100
AcDbLine
 10
11.96466399932178
 20
13.95082071094286
 30
0.0
 11
12.10945961580948
 21
13.74403189963284
 31
0.0
  0
LINE
  5
116E
330
19
100
AcDbEntity
  8
GEOMETRY
100
AcDbLine
 10
12.51903833442863
 20
11.42224663595186
 30
0.0
 11
13.46763534371063
 21
11.44085185306137
 31
0.0
  0
ARC
  5
116F
330
19
100
AcDbEntity
  8
GEOMETRY
100
AcDbCircle
 10
11.55509070037811
 20
11.28903204393683
 30
0.0
 40
0.5
100
AcDbArc
 50
298.8365474184065
 51
325.0000720460921
  0
ARC
  5
1170
330
19
100
AcDbEntity
  8
GEOMETRY
100
AcDbCircle
 10
-12.51903939591306
 20
10.92224663595299
 30
0.0
 40
0.5
210
0.0
220
0.0
230
-1.0
100
AcDbArc
 50
34.99978681010914
 51
89.99987836284352
  0
LINE
  5
1171
330
19
100
AcDbEntity
  8
GEOMETRY
100
AcDbLine
 10
11.96466712918985
 20
11.00224421144308
 30
0.0
 11
12.10946230667101
 21
11.20903333014922
 31
0.0
  0
LINE
  5
1172
330
19
100
AcDbEntity
  8
GEOMETRY
 62
     7
100
AcDbLine
 10
13.92913703674711
 20
13.055170910864
 30
0.0
 11
13.92913703674711
 21
11.903244199265
 31
0.0
  0
LINE
  5
1173
330
19
100
AcDbEntity
  8
GEOMETRY
 62
     7
100
AcDbLine
 10
13.53787804406924
 20
11.67031743334679
 30
0.0
 11
13.53787804406924
 21
13.32943916791275
 31
0.0
  0
LINE
  5
1174
330
19
100
AcDbEntity
  8
GEOMETRY
 62
     7
100
AcDbLine
 10
12.41282249012046
 20
11.63231167641518
 30
0.0
 11
12.41282249012046
 21
13.32943916791275
 31
0.0
  0
ARC
  5
1222
330
19
100
AcDbEntity
  8
GEOMETRY
100
AcDbCircle
 10
19.07725184120788
 20
7.85106451906969
 30
0.0
 40
0.4211283989016131
100
AcDbArc
 50
53.6965048900991
 51
73.43147423799303
  0
ARC
  5
1223
330
19
100
AcDbEntity
  8
GEOMETRY
100
AcDbCircle
 10
19.16572367706985
 20
8.150587648426975
 30
0.0
 40
0.1088145967809232
100
AcDbArc
 50
54.01988547448635
 51
73.10809365360508
  0
ARC
  5
1224
330
19
100
AcDbEntity
  8
GEOMETRY
100
AcDbCircle
 10
19.43441438403216
 20
8.569429792094103
 30
0.0
 40
0.4211283989016131
100
AcDbArc
 50
233.6965048900993
 51
253.4314742379933
  0
ARC
  5
1225
330
19
100
AcDbEntity
  8
GEOMETRY
100
AcDbCircle
 10
19.24900917669444
 20
8.318100765014412
 30
0.0
 40
0.1088145967809232
100
AcDbArc
 50
234.0198854744873
 51
253.108093653606
  0
LINE
  5
1226
330
19
100
AcDbEntity
  8
GEOMETRY
100
AcDbLine
 10
19.19734161131484
 20
8.254707400187507
 30
0.0
 11
19.1850801186242
 21
8.230045714013078
 31
0.0
  0
ARC
  5
123D
330
19
100
AcDbEntity
  8
GEOMETRY
100
AcDbCircle
 10
19.21684144134177
 20
8.131822743094542
 30
0.0
 40
0.107585465189005
100
AcDbArc
 50
43.96699778591268
 51
83.16098134218051
  0
ARC
  5
123E
330
19
100
AcDbEntity
  8
GEOMETRY
100
AcDbCircle
 10
19.29482478389828
 20
8.288671568069245
 30
0.0
 40
0.107585465189005
100
AcDbArc
 50
223.9669977859118
 51
263.1609813421796
  0
LINE
  5
123F
330
19
100
AcDbEntity
  8
GEOMETRY
100
AcDbLine
 10
19.24414334131878
 20
8.238397780404318
 30
0.0
 11
19.2853332192914
 21
8.217918670252755
 31
0.0
  0
LINE
  5
1242
330
19
100
AcDbEntity
  8
GEOMETRY
100
AcDbLine
 10
19.22965273514009
 20
8.238642699428309
 30
0.0
 11
19.21739124244945
 21
8.21398101325388
 31
0.0
  0
LINE
  5
1249
330
19
100
AcDbEntity
  8
GEOMETRY
100
AcDbLine
 10
19.32658610661584
 20
8.190448597150711
 30
0.0
 11
19.31432461392521
 21
8.165786910976285
 31
0.0
  0
LINE
  5
124A
330
19
100
AcDbEntity
  8
GEOMETRY
100
AcDbLine
 10
19.29427498279059
 20
8.206513297909912
 30
0.0
 11
19.28201349009996
 21
8.181851611735483
 31
0.0
  0
ARC
  5
124B
330
19
100
AcDbEntity
  8
GEOMETRY
100
AcDbCircle
 10
19.26265704854561
 20
8.102393546149377
 30
0.0
 40
0.1088145967809232
100
AcDbArc
 50
54.01988547448727
 51
73.10809365360599
  0
ARC
  5
1250
330
19
100
AcDbEntity
  8
GEOMETRY
100
AcDbCircle
 10
19.34594254817019
 20
8.269906662736813
 30
0.0
 40
0.1088145967809232
100
AcDbArc
 50
234.0198854744864
 51
253.1080936536051
  0
LINE
  5
125C
330
19
100
AcDbEntity
  8
GEOMETRY
100
AcDbLine
 10
19.34781102043148
 20
8.114913884980609
 30
0.0
 11
19.35801096509982
 21
8.132117405805219
 31
0.0
  0
ARC
  5
125D
330
19
100
AcDbEntity
  8
GEOMETRY
100
AcDbCircle
 10
17.60675136921051
 20
8.569429792094103
 30
0.0
 40
0.4211283989016131
100
AcDbArc
 50
286.5685257620068
 51
306.3034951099007
  0
LINE
  5
125E
330
19
100
AcDbEntity
  8
GEOMETRY
100
AcDbLine
 10
17.71457964662683
 20
8.190448597150711
 30
0.0
 11
17.72684113931747
 21
8.165786910976285
 31
0.0
  0
ARC
  5
125F
330
19
100
AcDbEntity
  8
GEOMETRY
100
AcDbCircle
 10
17.69522320507248
 20
8.269906662736813
 30
0.0
 40
0.1088145967809232
100
AcDbArc
 50
286.8919063463949
 51
305.9801145255136
  0
LINE
  5
1260
330
19
100
AcDbEntity
  8
GEOMETRY
100
AcDbLine
 10
17.6933547328112
 20
8.114913884980609
 30
0.0
 11
17.68315478814286
 21
8.132117405805219
 31
0.0
  0
ARC
  5
1261
330
19
100
AcDbEntity
  8
GEOMETRY
100
AcDbCircle
 10
17.87544207617283
 20
8.150587648426975
 30
0.0
 40
0.1088145967809232
100
AcDbArc
 50
106.8919063463949
 51
125.9801145255136
  0
ARC
  5
1262
330
19
100
AcDbEntity
  8
GEOMETRY
100
AcDbCircle
 10
17.79215657654824
 20
8.318100765014412
 30
0.0
 40
0.1088145967809232
100
AcDbArc
 50
286.891906346394
 51
305.9801145255126
  0
LINE
  5
1263
330
19
100
AcDbEntity
  8
GEOMETRY
100
AcDbLine
 10
17.84382414192784
 20
8.254707400187507
 30
0.0
 11
17.85608563461847
 21
8.230045714013078
 31
0.0
  0
ARC
  5
1264
330
19
100
AcDbEntity
  8
GEOMETRY
100
AcDbCircle
 10
17.82432431190091
 20
8.131822743094542
 30
0.0
 40
0.107585465189005
100
AcDbArc
 50
96.83901865781948
 51
136.0330022140873
  0
LINE
  5
1265
330
19
100
AcDbEntity
  8
GEOMETRY
100
AcDbLine
 10
17.7970224119239
 20
8.238397780404318
 30
0.0
 11
17.75583253395127
 21
8.217918670252755
 31
0.0
  0
LINE
  5
1266
330
19
100
AcDbEntity
  8
GEOMETRY
100
AcDbLine
 10
17.81151301810259
 20
8.238642699428309
 30
0.0
 11
17.82377451079322
 21
8.21398101325388
 31
0.0
  0
ARC
  5
1267
330
19
100
AcDbEntity
  8
GEOMETRY
100
AcDbCircle
 10
17.9639139120348
 20
7.85106451906969
 30
0.0
 40
0.4211283989016131
100
AcDbArc
 50
106.5685257620069
 51
126.3034951099009
  0
ARC
  5
1268
330
19
100
AcDbEntity
  8
GEOMETRY
100
AcDbCircle
 10
17.7463409693444
 20
8.288671568069245
 30
0.0
 40
0.107585465189005
100
AcDbArc
 50
276.8390186578204
 51
316.0330022140882
  0
LINE
  5
1269
330
19
100
AcDbEntity
  8
GEOMETRY
100
AcDbLine
 10
17.74689077045209
 20
8.206513297909912
 30
0.0
 11
17.75915226314272
 21
8.181851611735483
 31
0.0
  0
ARC
  5
126A
330
19
100
AcDbEntity
  8
GEOMETRY
100
AcDbCircle
 10
17.77850870469707
 20
8.102393546149377
 30
0.0
 40
0.1088145967809232
100
AcDbArc
 50
106.891906346394
 51
125.9801145255127
  0
ARC
  5
126B
330
19
100
AcDbEntity
  8
GEOMETRY
100
AcDbCircle
 10
18.51906551612907
 20
6.717127817980887
 30
0.0
 40
1.645
100
AcDbArc
 50
59.33635453813417
 51
120.5727247092607
  0
LINE
  5
12A9
330
19
100
AcDbEntity
  8
GEOMETRY
100
AcDbLine
 10
11.64053501380974
 20
13.31037858165706
 30
0.0
 11
10.76553489460045
 21
13.31037858165706
 31
0.0
  0
LINE
  5
12AA
330
19
100
AcDbEntity
  8
GEOMETRY
100
AcDbLine
 10
10.64053489460045
 20
13.20204585832345
 30
0.0
 11
10.64053489460045
 21
11.75102035171753
 31
0.0
  0
LINE
  5
12AB
330
19
100
AcDbEntity
  8
GEOMETRY
100
AcDbLine
 10
11.76553501380974
 20
13.20204585832345
 30
0.0
 11
11.76553501380974
 21
11.75102035171753
 31
0.0
  0
LINE
  5
12AD
330
19
100
AcDbEntity
  8
GEOMETRY
100
AcDbLine
 10
11.64053501380974
 20
11.64268762838391
 30
0.0
 11
10.76553489460045
 21
11.64268762838391
 31
0.0
  0
ELLIPSE
  5
12B0
330
19
100
AcDbEntity
  8
GEOMETRY
100
AcDbEllipse
 10
11.64053501380974
 20
11.75102035171753
 30
0.0
 11
0.1250000000000035
 21
0.0
 31
0.0
210
0.0
220
0.0
230
1.0
 40
0.8666617866689174
 41
4.712388980384689
 42
6.283185307179586
  0
ELLIPSE
  5
12B1
330
19
100
AcDbEntity
  8
GEOMETRY
100
AcDbEllipse
 10
10.76553489460045
 20
11.75102035171753
 30
0.0
 11
-0.1250000000000035
 21
0.0
 31
0.0
210
0.0
220
0.0
230
-1.0
 40
0.8666617866689174
 41
4.712388980384689
 42
6.283185307179586
  0
ELLIPSE
  5
12B2
330
19
100
AcDbEntity
  8
GEOMETRY
100
AcDbEllipse
 10
10.76553489460045
 20
13.20204585832345
 30
0.0
 11
-0.1250000000000035
 21
0.0
 31
0.0
210
0.0
220
0.0
230
1.0
 40
0.8666617866689174
 41
4.712388980384689
 42
6.283185307179586
  0
ELLIPSE
  5
12B3
330
19
100
AcDbEntity
  8
GEOMETRY
100
AcDbEllipse
 10
11.64053501380974
 20
13.20204585832345
 30
0.0
 11
0.1250000000000035
 21
0.0
 31
0.0
210
0.0
220
0.0
230
-1.0
 40
0.8666617866689174
 41
4.712388980384689
 42
6.283185307179586
  0
LINE
  5
12BB
330
19
100
AcDbEntity
  8
GEOMETRY
100
AcDbLine
 10
11.58638501380974
 20
11.78228970643324
 30
0.0
 11
11.58638501380973
 21
11.7043583593471
 31
0.0
  0
LINE
  5
12BD
330
19
100
AcDbEntity
  8
GEOMETRY
100
AcDbLine
 10
11.69468501380973
 20
11.78228970643323
 30
0.0
 11
11.69468501380974
 21
11.7043583593435
 31
0.0
  0
ELLIPSE
  5
12BE
330
19
100
AcDbEntity
  8
GEOMETRY
100
AcDbEllipse
 10
11.64053501380974
 20
11.73321242984768
 30
0.0
 11
0.0541499999999999
 21
0.0
 31
0.0
210
0.0
220
0.0
230
1.0
 40
0.9549512518640524
 41
3.141592653589793
 42
6.283185307179586
  0
ELLIPSE
  5
12BF
330
19
100
AcDbEntity
  8
GEOMETRY
100
AcDbEllipse
 10
11.64053501380974
 20
11.73321242984768
 30
0.0
 11
-0.0541499999999999
 21
0.0
 31
0.0
210
0.0
220
0.0
230
1.0
 40
0.9465039569581181
 41
3.141592653589793
 42
6.283185307179586
  0
LINE
  5
12C2
330
19
100
AcDbEntity
  8
GEOMETRY
100
AcDbLine
 10
11.69468501380974
 20
11.7043583593435
 30
0.0
 11
11.64053501381276
 21
11.67204723551825
 31
0.0
  0
LINE
  5
12C4
330
19
100
AcDbEntity
  8
GEOMETRY
100
AcDbLine
 10
11.58638501380973
 20
11.7043583593471
 30
0.0
 11
11.64053501381276
 21
11.67204723551825
 31
0.0
  0
LINE
  5
12C6
330
19
100
AcDbEntity
  8
GEOMETRY
100
AcDbLine
 10
11.64053501380973
 20
11.81355322350985
 30
0.0
 11
11.64053501380973
 21
11.80024412407062
 31
0.0
  0
LINE
  5
12C7
330
19
100
AcDbEntity
  8
GEOMETRY
100
AcDbLine
 10
11.69468501380973
 20
11.78228970643323
 30
0.0
 11
11.64053501380671
 21
11.8135532235116
 31
0.0
  0
LINE
  5
12C8
330
19
100
AcDbEntity
  8
GEOMETRY
100
AcDbLine
 10
11.58638501380974
 20
11.78228970643324
 30
0.0
 11
11.64053501381276
 21
11.8135532235116
 31
0.0
  0
ARC
  5
12C9
330
19
100
AcDbEntity
  8
GEOMETRY
100
AcDbCircle
 10
11.57505254490985
 20
11.85113605305704
 30
0.0
 40
0.082933359812297
100
AcDbArc
 50
277.8537808986466
 51
322.1462191013535
  0
ARC
  5
12CA
330
19
100
AcDbEntity
  8
GEOMETRY
100
AcDbCircle
 10
11.70601748270962
 20
11.85113605305704
 30
0.0
 40
0.082933359812297
100
AcDbArc
 50
217.8537808986465
 51
262.1462191013534
  0
ELLIPSE
  5
12CB
330
19
100
AcDbEntity
  8
GEOMETRY
100
AcDbEllipse
 10
10.76553489460045
 20
11.73321242984768
 30
0.0
 11
0.0541499999999999
 21
0.0
 31
0.0
210
0.0
220
0.0
230
1.0
 40
0.9549512518640524
 41
3.141592653589793
 42
6.283185307179586
  0
LINE
  5
12CC
330
19
100
AcDbEntity
  8
GEOMETRY
100
AcDbLine
 10
10.71138489460045
 20
11.78228970643324
 30
0.0
 11
10.71138489460045
 21
11.7043583593471
 31
0.0
  0
LINE
  5
12CD
330
19
100
AcDbEntity
  8
GEOMETRY
100
AcDbLine
 10
10.81968489460044
 20
11.78228970643323
 30
0.0
 11
10.81968489460044
 21
11.7043583593435
 31
0.0
  0
LINE
  5
12CE
330
19
100
AcDbEntity
  8
GEOMETRY
100
AcDbLine
 10
10.81968489460044
 20
11.7043583593435
 30
0.0
 11
10.76553489460347
 21
11.67204723551825
 31
0.0
  0
LINE
  5
12CF
330
19
100
AcDbEntity
  8
GEOMETRY
100
AcDbLine
 10
10.71138489460045
 20
11.7043583593471
 30
0.0
 11
10.76553489460347
 21
11.67204723551825
 31
0.0
  0
ELLIPSE
  5
12D0
330
19
100
AcDbEntity
  8
GEOMETRY
100
AcDbEllipse
 10
10.76553489460045
 20
11.73321242984768
 30
0.0
 11
-0.0541499999999999
 21
0.0
 31
0.0
210
0.0
220
0.0
230
1.0
 40
0.9465039569581181
 41
3.141592653589793
 42
6.283185307179586
  0
ARC
  5
12D1
330
19
100
AcDbEntity
  8
GEOMETRY
100
AcDbCircle
 10
10.83101736350033
 20
11.85113605305703
 30
0.0
 40
0.082933359812297
100
AcDbArc
 50
217.8537808986465
 51
262.1462191013534
  0
ARC
  5
12D2
330
19
100
AcDbEntity
  8
GEOMETRY
100
AcDbCircle
 10
10.70005242570056
 20
11.85113605305703
 30
0.0
 40
0.082933359812297
100
AcDbArc
 50
277.8537808986466
 51
322.1462191013535
  0
LINE
  5
12D3
330
19
100
AcDbEntity
  8
GEOMETRY
100
AcDbLine
 10
10.81968489460044
 20
11.78228970643323
 30
0.0
 11
10.76553489459742
 21
11.81355322351159
 31
0.0
  0
LINE
  5
12D4
330
19
100
AcDbEntity
  8
GEOMETRY
100
AcDbLine
 10
10.71138489460045
 20
11.78228970643324
 30
0.0
 11
10.76553489460347
 21
11.81355322351159
 31
0.0
  0
LINE
  5
12D5
330
19
100
AcDbEntity
  8
GEOMETRY
100
AcDbLine
 10
10.76553489460044
 20
11.81355322350985
 30
0.0
 11
10.76553489460044
 21
11.80024412407062
 31
0.0
  0
LINE
  5
12D7
330
19
100
AcDbEntity
  8
GEOMETRY
100
AcDbLine
 10
10.81968489460044
 20
13.17077650360774
 30
0.0
 11
10.81968489460044
 21
13.24870785069747
 31
0.0
  0
LINE
  5
12D8
330
19
100
AcDbEntity
  8
GEOMETRY
100
AcDbLine
 10
10.71138489460045
 20
13.17077650360773
 30
0.0
 11
10.71138489460045
 21
13.24870785069387
 31
0.0
  0
ELLIPSE
  5
12D9
330
19
100
AcDbEntity
  8
GEOMETRY
100
AcDbEllipse
 10
10.76553489460045
 20
13.21985378019329
 30
0.0
 11
0.0541499999999999
 21
0.0
 31
0.0
210
0.0
220
0.0
230
-1.0
 40
0.9549512518640524
 41
3.141592653589793
 42
6.283185307179586
  0
LINE
  5
12DA
330
19
100
AcDbEntity
  8
GEOMETRY
100
AcDbLine
 10
10.81968489460044
 20
13.24870785069747
 30
0.0
 11
10.76553489460347
 21
13.28101897452272
 31
0.0
  0
LINE
  5
12DB
330
19
100
AcDbEntity
  8
GEOMETRY
100
AcDbLine
 10
10.71138489460045
 20
13.24870785069387
 30
0.0
 11
10.76553489460347
 21
13.28101897452272
 31
0.0
  0
LINE
  5
12DC
330
19
100
AcDbEntity
  8
GEOMETRY
100
AcDbLine
 10
10.81968489460044
 20
13.17077650360774
 30
0.0
 11
10.76553489459742
 21
13.13951298652938
 31
0.0
  0
ARC
  5
12DD
330
19
100
AcDbEntity
  8
GEOMETRY
100
AcDbCircle
 10
10.83101736350033
 20
13.10193015698394
 30
0.0
 40
0.082933359812297
100
AcDbArc
 50
97.85378089864661
 51
142.1462191013534
  0
ELLIPSE
  5
12DE
330
19
100
AcDbEntity
  8
GEOMETRY
100
AcDbEllipse
 10
10.76553489460045
 20
13.21985378019329
 30
0.0
 11
-0.0541499999999999
 21
0.0
 31
0.0
210
0.0
220
0.0
230
-1.0
 40
0.9465039569581181
 41
3.141592653589793
 42
6.283185307179586
  0
LINE
  5
12DF
330
19
100
AcDbEntity
  8
GEOMETRY
100
AcDbLine
 10
10.76553489460044
 20
13.13951298653112
 30
0.0
 11
10.76553489460044
 21
13.15282208597035
 31
0.0
  0
LINE
  5
12E0
330
19
100
AcDbEntity
  8
GEOMETRY
100
AcDbLine
 10
10.71138489460045
 20
13.17077650360773
 30
0.0
 11
10.76553489460347
 21
13.13951298652938
 31
0.0
  0
ARC
  5
12E1
330
19
100
AcDbEntity
  8
GEOMETRY
100
AcDbCircle
 10
10.70005242570056
 20
13.10193015698394
 30
0.0
 40
0.082933359812297
100
AcDbArc
 50
37.85378089864654
 51
82.1462191013534
  0
ELLIPSE
  5
12E2
330
19
100
AcDbEntity
  8
GEOMETRY
100
AcDbEllipse
 10
11.64053501380974
 20
13.21985378019329
 30
0.0
 11
0.0541499999999999
 21
0.0
 31
0.0
210
0.0
220
0.0
230
-1.0
 40
0.9549512518640524
 41
3.141592653589793
 42
6.283185307179586
  0
LINE
  5
12E3
330
19
100
AcDbEntity
  8
GEOMETRY
100
AcDbLine
 10
11.69468501380973
 20
13.17077650360774
 30
0.0
 11
11.69468501380974
 21
13.24870785069747
 31
0.0
  0
LINE
  5
12E4
330
19
100
AcDbEntity
  8
GEOMETRY
100
AcDbLine
 10
11.58638501380974
 20
13.17077650360773
 30
0.0
 11
11.58638501380973
 21
13.24870785069387
 31
0.0
  0
LINE
  5
12E5
330
19
100
AcDbEntity
  8
GEOMETRY
100
AcDbLine
 10
11.69468501380974
 20
13.24870785069747
 30
0.0
 11
11.64053501381276
 21
13.28101897452272
 31
0.0
  0
LINE
  5
12E6
330
19
100
AcDbEntity
  8
GEOMETRY
100
AcDbLine
 10
11.58638501380973
 20
13.24870785069387
 30
0.0
 11
11.64053501381276
 21
13.28101897452272
 31
0.0
  0
ARC
  5
12E7
330
19
100
AcDbEntity
  8
GEOMETRY
100
AcDbCircle
 10
11.70601748270962
 20
13.10193015698394
 30
0.0
 40
0.082933359812297
100
AcDbArc
 50
97.85378089864661
 51
142.1462191013534
  0
LINE
  5
12E8
330
19
100
AcDbEntity
  8
GEOMETRY
100
AcDbLine
 10
11.69468501380973
 20
13.17077650360774
 30
0.0
 11
11.64053501380671
 21
13.13951298652938
 31
0.0
  0
ELLIPSE
  5
12E9
330
19
100
AcDbEntity
  8
GEOMETRY
100
AcDbEllipse
 10
11.64053501380974
 20
13.21985378019329
 30
0.0
 11
-0.0541499999999999
 21
0.0
 31
0.0
210
0.0
220
0.0
230
-1.0
 40
0.9465039569581181
 41
3.141592653589793
 42
6.283185307179586
  0
ARC
  5
12EA
330
19
100
AcDbEntity
  8
GEOMETRY
100
AcDbCircle
 10
11.57505254490985
 20
13.10193015698394
 30
0.0
 40
0.082933359812297
100
AcDbArc
 50
37.85378089864654
 51
82.1462191013534
  0
LINE
  5
12EB
330
19
100
AcDbEntity
  8
GEOMETRY
100
AcDbLine
 10
11.58638501380974
 20
13.17077650360773
 30
0.0
 11
11.64053501381276
 21
13.13951298652938
 31
0.0
  0
LINE
  5
12EC
330
19
100
AcDbEntity
  8
GEOMETRY
100
AcDbLine
 10
11.64053501380973
 20
13.13951298653112
 30
0.0
 11
11.64053501380973
 21
13.15282208597035
 31
0.0
  0
LINE
  5
12ED
330
19
100
AcDbEntity
  8
GEOMETRY
100
AcDbLine
 10
11.64053501380974
 20
8.133446918093243
 30
0.0
 11
10.76553489460045
 21
8.133446918093239
 31
0.0
  0
LINE
  5
12EE
330
19
100
AcDbEntity
  8
GEOMETRY
100
AcDbLine
 10
10.81968489460044
 20
8.17489444297146
 30
0.0
 11
10.81968489460044
 21
8.233782378893453
 31
0.0
  0
LINE
  5
12EF
330
19
100
AcDbEntity
  8
GEOMETRY
100
AcDbLine
 10
10.71138489460045
 20
8.174894442971455
 30
0.0
 11
10.71138489460045
 21
8.233782378889848
 31
0.0
  0
ELLIPSE
  5
12F0
330
19
100
AcDbEntity
  8
GEOMETRY
100
AcDbEllipse
 10
10.76553489460045
 20
8.214708082019953
 30
0.0
 11
0.0541499999999999
 21
0.0
 31
0.0
210
0.0
220
0.0
230
-1.0
 40
0.5819256152507436
 41
3.141592653589793
 42
6.283185307179586
  0
LINE
  5
12F2
330
19
100
AcDbEntity
  8
GEOMETRY
100
AcDbLine
 10
10.81968489460044
 20
8.233782378893453
 30
0.0
 11
10.76553489460347
 21
8.252419557717608
 31
0.0
  0
LINE
  5
12F3
330
19
100
AcDbEntity
  8
GEOMETRY
100
AcDbLine
 10
10.71138489460045
 20
8.233782378889848
 30
0.0
 11
10.76553489460347
 21
8.252419557717608
 31
0.0
  0
LINE
  5
12F4
330
19
100
AcDbEntity
  8
GEOMETRY
100
AcDbLine
 10
10.81968489460044
 20
8.17489444297146
 30
0.0
 11
10.76553489459742
 21
8.157359893944764
 31
0.0
  0
ARC
  5
12F5
330
19
100
AcDbEntity
  8
GEOMETRY
100
AcDbCircle
 10
10.81205741961177
 20
8.119378636655198
 30
0.0
 40
0.0692462708558054
100
AcDbArc
 50
83.67603897247825
 51
132.2093595406179
  0
ELLIPSE
  5
12F6
330
19
100
AcDbEntity
  8
GEOMETRY
100
AcDbEllipse
 10
10.76553489460045
 20
8.214708082019953
 30
0.0
 11
-0.0541499999999999
 21
0.0
 31
0.0
210
0.0
220
0.0
230
-1.0
 40
0.5876100661800061
 41
3.141592653589793
 42
6.283185307179586
  0
LINE
  5
12F7
330
19
100
AcDbEntity
  8
GEOMETRY
100
AcDbLine
 10
10.76553489460044
 20
8.157359893946511
 30
0.0
 11
10.76553489460044
 21
8.170668993385742
 31
0.0
  0
LINE
  5
12F8
330
19
100
AcDbEntity
  8
GEOMETRY
100
AcDbLine
 10
10.71138489460045
 20
8.174894442971455
 30
0.0
 11
10.76553489460347
 21
8.157359893944764
 31
0.0
  0
ARC
  5
12F9
330
19
100
AcDbEntity
  8
GEOMETRY
100
AcDbCircle
 10
10.71901236958912
 20
8.119378636655198
 30
0.0
 40
0.0692462708558048
100
AcDbArc
 50
47.79064045938203
 51
96.32396102752176
  0
ELLIPSE
  5
1309
330
19
100
AcDbEntity
  8
GEOMETRY
100
AcDbEllipse
 10
10.76553489460045
 20
8.191998516621861
 30
0.0
 11
0.1250000000000035
 21
0.0
 31
0.0
210
0.0
220
0.0
230
1.0
 40
0.4684127882289469
 41
3.141592653589793
 42
4.712388980384689
  0
ELLIPSE
  5
130A
330
19
100
AcDbEntity
  8
GEOMETRY
100
AcDbEllipse
 10
11.64053501380974
 20
8.191998516621861
 30
0.0
 11
-0.1250000000000035
 21
0.0
 31
0.0
210
0.0
220
0.0
230
-1.0
 40
0.4684127882289469
 41
3.141592653589793
 42
4.712388980384689
  0
ELLIPSE
  5
130B
330
19
100
AcDbEntity
  8
GEOMETRY
100
AcDbEllipse
 10
11.64053501380974
 20
8.173465483509229
 30
0.0
 11
-0.1250000000000035
 21
0.0
 31
0.0
210
0.0
220
0.0
230
-1.0
 40
0.4684127882289469
 41
3.141592653589793
 42
4.712388980384689
  0
LINE
  5
130C
330
19
100
AcDbEntity
  8
GEOMETRY
100
AcDbLine
 10
11.64053501380974
 20
8.114913884980611
 30
0.0
 11
10.76553489460045
 21
8.114913884980607
 31
0.0
  0
ELLIPSE
  5
130D
330
19
100
AcDbEntity
  8
GEOMETRY
100
AcDbEllipse
 10
10.76553489460045
 20
8.173465483509229
 30
0.0
 11
0.1250000000000035
 21
0.0
 31
0.0
210
0.0
220
0.0
230
1.0
 40
0.4684127882289469
 41
3.141592653589793
 42
4.712388980384689
  0
LINE
  5
130E
330
19
100
AcDbEntity
  8
GEOMETRY
100
AcDbLine
 10
10.64053489460045
 20
8.362127460353017
 30
0.0
 11
11.76553501380974
 21
8.362127460353017
 31
0.0
  0
LINE
  5
130F
330
19
100
AcDbEntity
  8
GEOMETRY
100
AcDbLine
 10
10.64053489460045
 20
8.173465483509229
 30
0.0
 11
10.64053489460045
 21
8.362127460353017
 31
0.0
  0
LINE
  5
1310
330
19
100
AcDbEntity
  8
GEOMETRY
100
AcDbLine
 10
11.76553501380974
 20
8.173465483509229
 30
0.0
 11
11.76553501380974
 21
8.362127460353017
 31
0.0
  0
LINE
  5
1311
330
19
100
AcDbEntity
  8
GEOMETRY
100
AcDbLine
 10
11.76553501380974
 20
8.342127460353019
 30
0.0
 11
11.79624338640266
 21
8.342127460353019
 31
0.0
  0
LINE
  5
1313
330
19
100
AcDbEntity
  8
GEOMETRY
100
AcDbLine
 10
11.64053501380973
 20
8.157359893946514
 30
0.0
 11
11.64053501380973
 21
8.170668993385746
 31
0.0
  0
LINE
  5
1314
330
19
100
AcDbEntity
  8
GEOMETRY
100
AcDbLine
 10
11.58638501380973
 20
8.174894442971458
 30
0.0
 11
11.64053501381276
 21
8.157359893944768
 31
0.0
  0
LINE
  5
1315
330
19
100
AcDbEntity
  8
GEOMETRY
100
AcDbLine
 10
11.69468501380973
 20
8.174894442971464
 30
0.0
 11
11.64053501380671
 21
8.157359893944768
 31
0.0
  0
ELLIPSE
  5
1316
330
19
100
AcDbEntity
  8
GEOMETRY
100
AcDbEllipse
 10
11.64053501380974
 20
8.214708082019956
 30
0.0
 11
-0.0541499999999999
 21
0.0
 31
0.0
210
0.0
220
0.0
230
-1.0
 40
0.5876100661800061
 41
3.141592653589793
 42
6.283185307179586
  0
ARC
  5
1317
330
19
100
AcDbEntity
  8
GEOMETRY
100
AcDbCircle
 10
11.68705753882105
 20
8.119378636655202
 30
0.0
 40
0.0692462708558054
100
AcDbArc
 50
83.67603897247825
 51
132.2093595406179
  0
LINE
  5
1318
330
19
100
AcDbEntity
  8
GEOMETRY
100
AcDbLine
 10
11.69468501380973
 20
8.233782378893456
 30
0.0
 11
11.64053501381276
 21
8.252419557717612
 31
0.0
  0
ELLIPSE
  5
1319
330
19
100
AcDbEntity
  8
GEOMETRY
100
AcDbEllipse
 10
11.64053501380974
 20
8.214708082019956
 30
0.0
 11
0.0541499999999999
 21
0.0
 31
0.0
210
0.0
220
0.0
230
-1.0
 40
0.5819256152507436
 41
3.141592653589793
 42
6.283185307179586
  0
ARC
  5
131A
330
19
100
AcDbEntity
  8
GEOMETRY
100
AcDbCircle
 10
11.59401248879841
 20
8.119378636655202
 30
0.0
 40
0.0692462708558048
100
AcDbArc
 50
47.79064045938203
 51
96.32396102752176
  0
LINE
  5
131B
330
19
100
AcDbEntity
  8
GEOMETRY
100
AcDbLine
 10
11.58638501380973
 20
8.233782378889852
 30
0.0
 11
11.64053501381276
 21
8.252419557717612
 31
0.0
  0
LINE
  5
131C
330
19
100
AcDbEntity
  8
GEOMETRY
100
AcDbLine
 10
11.58638501380973
 20
8.174894442971458
 30
0.0
 11
11.58638501380973
 21
8.233782378889852
 31
0.0
  0
LINE
  5
131D
330
19
100
AcDbEntity
  8
GEOMETRY
100
AcDbLine
 10
11.69468501380973
 20
8.174894442971464
 30
0.0
 11
11.69468501380973
 21
8.233782378893456
 31
0.0
  0
INSERT
  5
14C9
330
19
100
AcDbEntity
  8
border
100
AcDbBlockReference
 66
     1
  2
C_ASSY
 10
0.0
 20
0.0
 30
0.0
  0
ATTRIB
  5
14CA
330
14C9
100
AcDbEntity
  8
0
 62
     2
100
AcDbText
 10
18.85749999999999
 20
0.6775517359283317
 30
0.0
 40
0.18
  1
357-000-019-IC
  7
ROMANS
 72
     4
 11
20.0875
 21
0.7675517359283317
 31
0.0
100
AcDbAttribute
  2
PARTNUM1
 70
     0
280
     0
  0
ATTRIB
  5
14CB
330
14C9
100
AcDbEntity
  8
0
 62
     2
100
AcDbText
 10
18.85749999999999
 20
16.18442313563726
 30
0.0
 40
0.18
  1
357-000-019-IC
  7
ROMANS
 72
     4
 11
20.08749999999999
 21
16.27442313563725
 31
0.0
100
AcDbAttribute
  2
PARTNUM2
 70
     0
280
     0
  0
ATTRIB
  5
14CC
330
14C9
100
AcDbEntity
  8
0
 62
     2
100
AcDbText
 10
19.15321428571428
 20
1.530051666666667
 30
0.0
 40
0.12
  1
INTERFACE CONTROL
  7
ROMANS
 72
     4
 11
20.0875
 21
1.590051666666667
 31
0.0
100
AcDbAttribute
  2
DESC1
 70
     0
280
     0
  0
ATTRIB
  5
14CD
330
14C9
100
AcDbEntity
  8
0
 62
     2
100
AcDbText
 10
19.13321428571428
 20
1.310155
 30
0.0
 40
0.12
  1
DRAWING FOR UNION
  7
ROMANS
 72
     4
 11
20.0875
 21
1.370155
 31
0.0
100
AcDbAttribute
  2
DESC2
 70
     0
280
     0
  0
ATTRIB
  5
14CE
330
14C9
100
AcDbEntity
  8
0
 62
     2
100
AcDbText
 10
19.4275
 20
1.090258333333333
 30
0.0
 40
0.12
  1
357-000-019
  7
ROMANS
 72
     4
 11
20.0875
 21
1.150258333333333
 31
0.0
100
AcDbAttribute
  2
DESC3
 70
     0
280
     0
  0
ATTRIB
  5
14CF
330
14C9
100
AcDbEntity
  8
0
 62
     7
100
AcDbText
 10
17.6982
 20
1.967199999999999
 30
0.0
 40
0.075
  1
LMG
  7
ROMANS
 72
     4
 11
17.8107
 21
2.004699999999999
 31
0.0
100
AcDbAttribute
  2
DRN_BY
 70
     0
280
     0
  0
ATTRIB
  5
14D0
330
14C9
100
AcDbEntity
  8
0
 62
     7
100
AcDbText
 10
18.0346
 20
1.972557142857142
 30
0.0
 40
0.075
  1
11/08/01
  7
ROMANS
 72
     4
 11
18.3221
 21
2.004699999999999
 31
0.0
100
AcDbAttribute
  2
DDATE
 70
     0
280
     0
  0
ATTRIB
  5
14D1
330
14C9
100
AcDbEntity
  8
0
 62
     7
100
AcDbText
 10
17.8107
 20
1.8002
 30
0.0
 40
0.075
  1

  7
ROMANS
 72
     4
 11
17.8107
 21
1.8002
 31
0.0
100
AcDbAttribute
  2
ENG
 70
     0
280
     0
  0
ATTRIB
  5
14D2
330
14C9
100
AcDbEntity
  8
0
 62
     7
100
AcDbText
 10
18.3221
 20
1.8002
 30
0.0
 40
0.075
  1

  7
ROMANS
 72
     4
 11
18.3221
 21
1.8002
 31
0.0
100
AcDbAttribute
  2
EDATE
 70
     0
280
     0
  0
ATTRIB
  5
14D3
330
14C9
100
AcDbEntity
  8
0
 62
     7
100
AcDbText
 10
17.8107
 20
1.6095
 30
0.0
 40
0.075
  1

  7
ROMANS
 72
     4
 11
17.8107
 21
1.6095
 31
0.0
100
AcDbAttribute
  2
APPROV
 70
     0
280
     0
  0
ATTRIB
  5
14D4
330
14C9
100
AcDbEntity
  8
0
 62
     7
100
AcDbText
 10
18.3221
 20
1.6095
 30
0.0
 40
0.075
  1

  7
ROMANS
 72
     4
 11
18.3221
 21
1.6095
 31
0.0
100
AcDbAttribute
  2
ADATE
 70
     0
280
     0
  0
ATTRIB
  5
14D5
330
14C9
100
AcDbEntity
  8
0
 62
     7
100
AcDbText
 10
17.71666693721326
 20
2.1648
 30
0.0
 40
0.075
  1
FULL
  7
ROMANS
 72
     4
 11
17.85416693721326
 21
2.202300000000001
 31
0.0
100
AcDbAttribute
  2
SCALE
 70
     0
280
     0
  0
SEQEND
  5
14D6
330
14C9
100
AcDbEntity
  8
border
  0
INSERT
  5
1548
330
19
100
AcDbEntity
  8
DIMENSIONS
100
AcDbBlockReference
 66
     1
  2
noteind
 10
15.16685895335148
 20
8.293805975895629
 30
0.0
  0
ATTRIB
  5
1549
330
1548
100
AcDbEntity
  8
0
100
AcDbText
 10
15.10971609620862
 20
8.315220861324753
 30
0.0
 40
0.12
  1
2
  7
ROMANS
 72
     1
 11
15.16685895335148
 21
8.375220861324754
 31
0.0
100
AcDbAttribute
  2
NOTE
 70
     0
 74
     2
280
     0
  0
SEQEND
  5
154A
330
1548
100
AcDbEntity
  8
DIMENSIONS
  0
INSERT
  5
154B
330
19
100
AcDbEntity
  8
DIMENSIONS
100
AcDbBlockReference
 66
     1
  2
noteind
 10
1.01725443962242
 20
15.37472089711592
 30
0.0
  0
ATTRIB
  5
154C
330
154B
100
AcDbEntity
  8
0
100
AcDbText
 10
0.960111582479563
 20
15.39613578254505
 30
0.0
 40
0.12
  1
2
  7
ROMANS
 72
     1
 11
1.01725443962242
 21
15.45613578254505
 31
0.0
100
AcDbAttribute
  2
NOTE
 70
     0
 74
     2
280
     0
  0
SEQEND
  5
154D
330
154B
100
AcDbEntity
  8
DIMENSIONS
  0
TEXT
  5
154E
330
19
100
AcDbEntity
  8
DIMENSIONS
100
AcDbText
 10
0.9519713875004043
 20
15.39487881997201
 30
0.0
 40
0.12
  1
  - PLUG INSTALLED HAND TIGHT FROM FACTORY. IF PORT IS NOT
  7
ROMANS
100
AcDbText
  0
TEXT
  5
154F
330
19
100
AcDbEntity
  8
DIMENSIONS
100
AcDbText
 10
0.9519713875004043
 20
15.18448143045913
 30
0.0
 40
0.12
  1
    UTILIZED, TIGHTEN BEFORE USE.
  7
ROMANS
100
AcDbText
  0
DIMENSION
  5
155A
330
19
100
AcDbEntity
  8
DIMENSIONS
100
AcDbDimension
  2
*D11
 10
18.80031551612907
 20
9.359999999999999
 30
0.0
 11
19.2688869447005
 21
9.359999999999999
 31
0.0
 70
   160
  1
{<>\X[]}
 71
     5
 42
0.5625
 73
     0
 74
     0
 75
     0
  3
Deublin
100
AcDbAlignedDimension
 13
18.23781551612907
 23
6.87950758119047
 33
0.0
 14
18.80031551612907
 24
6.87950758119047
 34
0.0
100
AcDbRotatedDimension
1001
ACAD
1000
DSTYLE
1002
{
1070
   170
1070
     1
1070
   171
1070
     0
1070
   274
1070
     0
1002
}
  0
LWPOLYLINE
  5
1568
330
19
100
AcDbEntity
  8
GEOMETRY
100
AcDbPolyline
 90
        6
 70
   129
 43
0.0
 10
18.80031551612907
 20
6.87950758119047
 10
18.51906551612907
 20
7.041887344400052
 10
18.23781551612907
 20
6.87950758119047
 10
18.23781551612907
 20
6.554748054771305
 10
18.51906551612907
 20
6.392368291561723
 10
18.80031551612907
 20
6.554748054771305
  0
TEXT
  5
17B1
330
19
100
AcDbEntity
  8
DIMENSIONS
100
AcDbText
 10
17.15104677826359
 20
13.87560397690156
 30
0.0
 40
0.1100000068545341
  1
WATER SERVICE
 41
1.49618375301361
  7
ROMANS
 72
     1
 11
18.11109807960524
 21
13.87560397690156
 31
0.0
100
AcDbText
  0
TEXT
  5
17B2
330
19
100
AcDbEntity
  8
DIMENSIONS
100
AcDbText
 10
15.46318175315679
 20
13.65560418670991
 30
0.0
 40
0.1100000068545341
  1
150 PSI (10bar) MAX. WATER PRESSURE
 41
1.508988857269287
  7
ROMANS
 72
     1
 11
18.11109807960524
 21
13.65560418670991
 31
0.0
100
AcDbText
  0
TEXT
  5
17B5
330
19
100
AcDbEntity
  8
DIMENSIONS
100
AcDbText
 10
15.78492117771934
 20
13.44855442713997
 30
0.0
 40
0.1100000068545341
  1
3000 RPM (3000/min) MAX. SPEED
 41
1.507940173149108
  7
ROMANS
 72
     1
 11
18.1110985564424
 21
13.44855442713997
 31
0.0
100
AcDbText
  0
TEXT
  5
17B6
330
19
100
AcDbEntity
  8
DIMENSIONS
100
AcDbText
 10
15.85761942820624
 20
13.22855463694832
 30
0.0
 40
0.1100000068545341
  1
200%%dF (93%%dC) MAX. TEMPERATURE
 41
1.602270483970642
  7
ROMANS
 72
     1
 11
18.1110985564424
 21
13.22855463694832
 31
0.0
100
AcDbText
  0
TEXT
  5
17B7
330
19
100
AcDbEntity
  8
DIMENSIONS
100
AcDbText
 10
16.34388276869163
 20
14.22194177215913
 30
0.0
 40
0.1560000032186508
  1
OPERATING DATA:
 41
1.627560973167419
  7
COMPLEX
 72
     1
 11
18.09699848167434
 21
14.22194177215913
 31
0.0
100
AcDbText
  0
LINE
  5
17B8
330
19
100
AcDbEntity
  8
DIMENSIONS
100
AcDbLine
 10
16.27261856071486
 20
14.1653664738498
 30
0.0
 11
19.89948442451491
 21
14.1653664738498
 31
0.0
  0
LINE
  5
17B9
330
19
100
AcDbEntity
  8
DIMENSIONS
100
AcDbLine
 10
15.35071267985644
 20
14.44154674118379
 30
0.0
 11
15.35071267985644
 21
13.07392786573894
 31
0.0
  0
LINE
  5
17BA
330
19
100
AcDbEntity
  8
DIMENSIONS
100
AcDbLine
 10
21.03159542246084
 20
14.44154674118379
 30
0.0
 11
21.03159542246084
 21
13.07392786573894
 31
0.0
  0
LINE
  5
17BB
330
19
100
AcDbEntity
  8
DIMENSIONS
100
AcDbLine
 10
15.47571267985644
 20
12.94892786573894
 30
0.0
 11
20.90659542246084
 21
12.94892786573894
 31
0.0
  0
LINE
  5
17BC
330
19
100
AcDbEntity
  8
DIMENSIONS
100
AcDbLine
 10
15.47571267985644
 20
14.56654674118379
 30
0.0
 11
20.90659542246084
 21
14.56654674118379
 31
0.0
  0
LINE
  5
17BD
330
19
100
AcDbEntity
  8
DIMENSIONS
100
AcDbLine
 10
20.90659542246084
 20
14.56654674118379
 30
0.0
 11
21.03159542246084
 21
14.44154674118379
 31
0.0
  0
LINE
  5
17BE
330
19
100
AcDbEntity
  8
DIMENSIONS
100
AcDbLine
 10
20.90659542246084
 20
12.94892786573894
 30
0.0
 11
21.03159542246084
 21
13.07392786573894
 31
0.0
  0
LINE
  5
17BF
330
19
100
AcDbEntity
  8
DIMENSIONS
100
AcDbLine
 10
15.47571267985644
 20
12.94892786573894
 30
0.0
 11
15.35071267985644
 21
13.07392786573894
 31
0.0
  0
LINE
  5
17C0
330
19
100
AcDbEntity
  8
DIMENSIONS
100
AcDbLine
 10
15.35071267985644
 20
14.44154674118379
 30
0.0
 11
15.47571267985644
 21
14.56654674118379
 31
0.0
  0
LINE
  5
17C1
330
19
100
AcDbEntity
  8
DIMENSIONS
100
AcDbLine
 10
15.44982423686327
 20
14.62904674118379
 30
0.0
 11
20.93248386545401
 21
14.62904674118379
 31
0.0
  0
LINE
  5
17C2
330
19
100
AcDbEntity
  8
DIMENSIONS
100
AcDbLine
 10
20.93248386545401
 20
14.62904674118379
 30
0.0
 11
21.09409542246084
 21
14.46743518417695
 31
0.0
  0
LINE
  5
17C3
330
19
100
AcDbEntity
  8
DIMENSIONS
100
AcDbLine
 10
21.09409542246084
 20
14.46743518417695
 30
0.0
 11
21.09409542246084
 21
13.04803942274578
 31
0.0
  0
LINE
  5
17C4
330
19
100
AcDbEntity
  8
DIMENSIONS
100
AcDbLine
 10
20.93248386545401
 20
12.88642786573894
 30
0.0
 11
21.09409542246084
 21
13.04803942274578
 31
0.0
  0
LINE
  5
17C5
330
19
100
AcDbEntity
  8
DIMENSIONS
100
AcDbLine
 10
15.44982423686327
 20
12.88642786573894
 30
0.0
 11
20.93248386545401
 21
12.88642786573894
 31
0.0
  0
LINE
  5
17C6
330
19
100
AcDbEntity
  8
DIMENSIONS
100
AcDbLine
 10
15.44982423686327
 20
12.88642786573894
 30
0.0
 11
15.28821267985644
 21
13.04803942274578
 31
0.0
  0
LINE
  5
17C7
330
19
100
AcDbEntity
  8
DIMENSIONS
100
AcDbLine
 10
15.28821267985644
 20
14.46743518417695
 30
0.0
 11
15.28821267985644
 21
13.04803942274578
 31
0.0
  0
LINE
  5
17C8
330
19
100
AcDbEntity
  8
DIMENSIONS
100
AcDbLine
 10
15.28821267985644
 20
14.46743518417695
 30
0.0
 11
15.44982423686327
 21
14.62904674118379
 31
0.0
  0
ELLIPSE
  5
17F3
330
19
100
AcDbEntity
  8
GEOMETRY
100
AcDbEllipse
 10
11.3897844855782
 20
7.349561999456249
 30
0.0
 11
0.1694999798687995
 21
0.0
 31
0.0
210
0.0
220
0.0
230
1.0
 40
0.8387699735233486
 41
0.661340614174605
 42
2.480252039415212
  0
ELLIPSE
  5
17F4
330
19
100
AcDbEntity
  8
GEOMETRY
100
AcDbEllipse
 10
11.38978447212273
 20
13.73229747988485
 30
0.0
 11
-0.1695003509521484
 21
0.0
 31
0.0
210
0.0
220
0.0
230
-1.0
 40
0.4541520350423065
 41
1.108818014936475
 42
2.03277463865327
  0
ELLIPSE
  5
17F5
330
19
100
AcDbEntity
  8
GEOMETRY
100
AcDbEllipse
 10
11.38978447212273
 20
11.22076873015612
 30
0.0
 11
-0.1695003509521484
 21
0.0
 31
0.0
210
0.0
220
0.0
230
1.0
 40
0.4541520350423065
 41
1.108818014936475
 42
2.03277463865327
  0
ELLIPSE
  5
17F6
330
19
100
AcDbEntity
  8
GEOMETRY
100
AcDbEllipse
 10
11.38978447212273
 20
11.06924349280082
 30
0.0
 11
-0.1695003509521484
 21
0.0
 31
0.0
210
0.0
220
0.0
230
1.0
 40
0.4541520350423065
 41
0.0
 42
3.141592653589793
  0
ELLIPSE
  5
17F7
330
19
100
AcDbEntity
  8
GEOMETRY
100
AcDbEllipse
 10
11.38978447212273
 20
11.06924349280082
 30
0.0
 11
-0.1695003509521484
 21
0.0
 31
0.0
210
0.0
220
0.0
230
1.0
 40
0.5444849593553466
 41
3.141592653589793
 42
6.283185307179586
  0
LEADER
  5
17F9
330
19
100
AcDbEntity
  8
DIMENSIONS
100
AcDbLeader
  3
Deublin
 40
0.3428571428571428
 41
1.988571428571428
 76
     3
 10
11.31286210829076
 20
7.704737449781312
 30
0.0
 10
11.2019735670919
 20
9.366991755126484
 30
0.0
 10
11.36538824973002
 20
9.366991755126484
 30
0.0
1001
ACAD
1000
DSTYLE
1002
{
1070
   147
1040
0.09
1070
    77
1070
     0
1002
}
  0
LINE
  5
1845
330
19
100
AcDbEntity
  8
HIDDEN
100
AcDbLine
 10
7.615783827438889
 20
7.416127342097404
 30
0.0
 11
8.642156975403366
 21
7.416127342097404
 31
0.0
  0
LINE
  5
1846
330
19
100
AcDbEntity
  8
GEOMETRY
100
AcDbLine
 10
7.646783011093674
 20
7.46312822710717
 30
0.0
 11
8.593895094528733
 21
7.46312822710717
 31
0.0
  0
LINE
  5
1848
330
19
100
AcDbEntity
  8
GEOMETRY
100
AcDbLine
 10
7.615783827438889
 20
7.432128089778069
 30
0.0
 11
7.615783827438889
 21
6.717127817980888
 31
0.0
  0
LINE
  5
184A
330
19
100
AcDbEntity
  8
GEOMETRY
100
AcDbLine
 10
7.646783011093674
 20
7.46312822710717
 30
0.0
 11
7.615783827438889
 21
7.432128089778069
 31
0.0
  0
LINE
  5
184B
102
{ACAD_REACTORS
330
1943
102
}
330
19
100
AcDbEntity
  8
GEOMETRY
100
AcDbLine
 10
8.678284304276047
 20
7.592127937190178
 30
0.0
 11
8.678284304276047
 21
7.404627937190178
 31
0.0
  0
ARC
  5
184E
330
19
100
AcDbEntity
  8
GEOMETRY
100
AcDbCircle
 10
8.678284304276047
 20
7.467127937190178
 30
0.0
 40
0.0625
100
AcDbArc
 50
225.0000457763672
 51
0.0000128066048973
  0
LINE
  5
184F
330
19
100
AcDbEntity
  8
GEOMETRY
100
AcDbLine
 10
8.634090082779465
 20
7.422932762019279
 30
0.0
 11
8.593895094528733
 21
7.46312822710717
 31
0.0
  0
LINE
  5
1850
102
{ACAD_REACTORS
330
1943
102
}
330
19
100
AcDbEntity
  8
GEOMETRY
100
AcDbLine
 10
8.678284304276047
 20
7.467127937190178
 30
0.0
 11
8.740784304276047
 21
7.467127937190178
 31
0.0
  0
LINE
  5
1852
102
{ACAD_REACTORS
330
1943
102
}
330
19
100
AcDbEntity
  8
GEOMETRY
100
AcDbLine
 10
8.678284304276047
 20
7.592127937190178
 30
0.0
 11
8.740784304276047
 21
7.592127937190178
 31
0.0
  0
LINE
  5
1883
330
19
100
AcDbEntity
  8
GEOMETRY
100
AcDbLine
 10
7.646783011093674
 20
7.46312822710717
 30
0.0
 11
7.646783011093674
 21
6.717127817980887
 31
0.0
  0
LINE
  5
1884
330
19
100
AcDbEntity
  8
GEOMETRY
100
AcDbLine
 10
8.593895094528733
 20
7.46312822710717
 30
0.0
 11
8.593895094528733
 21
6.717127817980887
 31
0.0
  0
LINE
  5
1885
330
19
100
AcDbEntity
  8
GEOMETRY
100
AcDbLine
 10
8.593895094528733
 20
5.971127408854605
 30
0.0
 11
8.593895094528733
 21
6.717127817980887
 31
0.0
  0
LINE
  5
1886
330
19
100
AcDbEntity
  8
GEOMETRY
100
AcDbLine
 10
7.646783011093674
 20
5.971127408854605
 30
0.0
 11
7.646783011093674
 21
6.717127817980887
 31
0.0
  0
LINE
  5
1887
330
19
100
AcDbEntity
  8
GEOMETRY
100
AcDbLine
 10
7.615783827438889
 20
6.002127546183706
 30
0.0
 11
7.615783827438889
 21
6.717127817980887
 31
0.0
  0
LINE
  5
1888
330
19
100
AcDbEntity
  8
GEOMETRY
100
AcDbLine
 10
7.646783011093674
 20
5.971127408854605
 30
0.0
 11
8.593895094528733
 21
5.971127408854605
 31
0.0
  0
LINE
  5
1889
330
19
100
AcDbEntity
  8
HIDDEN
100
AcDbLine
 10
7.615783827438889
 20
6.01812829386437
 30
0.0
 11
8.642156975403366
 21
6.01812829386437
 31
0.0
  0
LINE
  5
188A
330
19
100
AcDbEntity
  8
GEOMETRY
100
AcDbLine
 10
7.646783011093674
 20
5.971127408854605
 30
0.0
 11
7.615783827438889
 21
6.002127546183706
 31
0.0
  0
LINE
  5
188B
102
{ACAD_REACTORS
330
194B
102
}
330
19
100
AcDbEntity
  8
GEOMETRY
100
AcDbLine
 10
8.679284304276047
 20
5.842127698771597
 30
0.0
 11
8.679284304276047
 21
6.029627698771597
 31
0.0
  0
ARC
  5
188C
330
19
100
AcDbEntity
  8
GEOMETRY
100
AcDbCircle
 10
8.678284304276047
 20
5.967127698771597
 30
0.0
 40
0.0625
100
AcDbArc
 50
359.9999871933951
 51
134.9999542236328
  0
LINE
  5
188D
330
19
100
AcDbEntity
  8
GEOMETRY
100
AcDbLine
 10
8.634090082779465
 20
6.011322873942495
 30
0.0
 11
8.593895094528733
 21
5.971127408854605
 31
0.0
  0
LINE
  5
188E
102
{ACAD_REACTORS
330
194B
102
}
330
19
100
AcDbEntity
  8
GEOMETRY
100
AcDbLine
 10
8.679284304276047
 20
5.967127698771597
 30
0.0
 11
8.740784304276047
 21
5.967127698771597
 31
0.0
  0
LINE
  5
188F
102
{ACAD_REACTORS
330
194B
102
}
330
19
100
AcDbEntity
  8
GEOMETRY
100
AcDbLine
 10
8.679284304276047
 20
5.842127698771597
 30
0.0
 11
8.740784304276047
 21
5.842127698771597
 31
0.0
  0
LINE
  5
1890
330
19
100
AcDbEntity
  8
GEOMETRY
100
AcDbLine
 10
8.678284304276047
 20
11.6015329858112
 30
0.0
 11
8.678284304276047
 21
12.47653310502049
 31
0.0
  0
LINE
  5
1891
330
19
100
AcDbEntity
  8
GEOMETRY
100
AcDbLine
 10
8.678284304276047
 20
11.6015329858112
 30
0.0
 11
8.740784304276047
 21
11.6015329858112
 31
0.0
  0
LINE
  5
1892
330
19
100
AcDbEntity
  8
GEOMETRY
100
AcDbLine
 10
8.593895094528733
 20
13.22253351414677
 30
0.0
 11
8.593895094528733
 21
12.47653310502049
 31
0.0
  0
LINE
  5
1893
330
19
100
AcDbEntity
  8
GEOMETRY
100
AcDbLine
 10
7.646783011093674
 20
13.22253351414677
 30
0.0
 11
7.646783011093674
 21
12.47653310502049
 31
0.0
  0
LINE
  5
1894
330
19
100
AcDbEntity
  8
GEOMETRY
100
AcDbLine
 10
7.615783827438889
 20
13.19153337681767
 30
0.0
 11
7.615783827438889
 21
12.47653310502049
 31
0.0
  0
LINE
  5
1895
330
19
100
AcDbEntity
  8
HIDDEN
100
AcDbLine
 10
7.615783827438889
 20
11.77753358090397
 30
0.0
 11
8.642156975403366
 21
11.77753358090397
 31
0.0
  0
LINE
  5
1896
330
19
100
AcDbEntity
  8
GEOMETRY
100
AcDbLine
 10
7.646783011093674
 20
11.7305326958942
 30
0.0
 11
8.593895094528733
 21
11.7305326958942
 31
0.0
  0
LINE
  5
1897
330
19
100
AcDbEntity
  8
GEOMETRY
100
AcDbLine
 10
7.615783827438889
 20
11.7615328332233
 30
0.0
 11
7.615783827438889
 21
12.47653310502048
 31
0.0
  0
LINE
  5
1898
330
19
100
AcDbEntity
  8
GEOMETRY
100
AcDbLine
 10
7.646783011093674
 20
11.7305326958942
 30
0.0
 11
7.646783011093674
 21
12.47653310502049
 31
0.0
  0
LINE
  5
1899
330
19
100
AcDbEntity
  8
GEOMETRY
100
AcDbLine
 10
7.646783011093674
 20
11.7305326958942
 30
0.0
 11
7.615783827438889
 21
11.7615328332233
 31
0.0
  0
LINE
  5
189A
330
19
100
AcDbEntity
  8
GEOMETRY
100
AcDbLine
 10
8.593895094528733
 20
11.7305326958942
 30
0.0
 11
8.593895094528733
 21
12.47653310502049
 31
0.0
  0
ARC
  5
189B
330
19
100
AcDbEntity
  8
GEOMETRY
100
AcDbCircle
 10
8.678284304276047
 20
11.72653298581119
 30
0.0
 40
0.0625
100
AcDbArc
 50
90.0
 51
134.9999542236328
  0
LINE
  5
189C
330
19
100
AcDbEntity
  8
GEOMETRY
100
AcDbLine
 10
8.634090082779465
 20
11.77072816098209
 30
0.0
 11
8.593895094528733
 21
11.7305326958942
 31
0.0
  0
LINE
  5
189E
330
19
100
AcDbEntity
  8
GEOMETRY
100
AcDbLine
 10
7.646783011093674
 20
13.22253351414677
 30
0.0
 11
8.593895094528733
 21
13.22253351414677
 31
0.0
  0
LINE
  5
189F
330
19
100
AcDbEntity
  8
HIDDEN
100
AcDbLine
 10
7.615783827438889
 20
13.17553262913701
 30
0.0
 11
8.642156975403366
 21
13.17553262913701
 31
0.0
  0
LINE
  5
18A0
330
19
100
AcDbEntity
  8
GEOMETRY
100
AcDbLine
 10
7.646783011093674
 20
13.22253351414677
 30
0.0
 11
7.615783827438889
 21
13.19153337681767
 31
0.0
  0
LINE
  5
18A1
330
19
100
AcDbEntity
  8
GEOMETRY
100
AcDbLine
 10
8.678284304276047
 20
13.35153322422978
 30
0.0
 11
8.678284304276047
 21
12.47653310502049
 31
0.0
  0
ARC
  5
18A2
330
19
100
AcDbEntity
  8
GEOMETRY
100
AcDbCircle
 10
8.678284304276047
 20
13.22653322422978
 30
0.0
 40
0.0625
100
AcDbArc
 50
225.0000457763672
 51
270.0
  0
LINE
  5
18A3
330
19
100
AcDbEntity
  8
GEOMETRY
100
AcDbLine
 10
8.634090082779465
 20
13.18233804905888
 30
0.0
 11
8.593895094528733
 21
13.22253351414677
 31
0.0
  0
LINE
  5
18A5
330
19
100
AcDbEntity
  8
GEOMETRY
100
AcDbLine
 10
8.678284304276047
 20
13.35153322422978
 30
0.0
 11
8.740784304276047
 21
13.35153322422978
 31
0.0
  0
DIMENSION
  5
18B1
330
19
100
AcDbEntity
  8
DIMENSIONS
100
AcDbDimension
  2
*D14
 10
9.112379621208299
 20
5.969627755992057
 30
0.0
 11
9.112379621208297
 21
6.654319381198959
 31
0.0
 70
   160
  1
<>\X[]\PACROSS\PPARTS
 71
     5
 42
1.495000123977661
 73
     0
 74
     0
 75
     0
  3
Deublin
100
AcDbAlignedDimension
 13
9.193004064348052
 23
7.464627879969718
 33
0.0
 14
9.193004064348052
 24
5.969627755992057
 34
0.0
 50
90.0
100
AcDbRotatedDimension
1001
ACAD
1000
DSTYLE
1002
{
1070
    47
1040
0.005
1070
    48
1040
0.02
1070
    72
1070
     1
1070
   170
1070
     1
1070
   171
1070
     1
1070
   274
1070
     1
1002
}
  0
LINE
  5
18F1
330
19
100
AcDbEntity
  8
CENTER
100
AcDbLine
 10
9.608784454002915
 20
6.717127817980887
 30
0.0
 11
14.48911370529228
 21
6.717127817980887
 31
0.0
  0
DIMENSION
  5
18FC
330
19
100
AcDbEntity
  8
DIMENSIONS
100
AcDbDimension
  2
*D15
 10
8.679284304276047
 20
5.241575910562325
 30
0.0
 11
7.83214144713319
 21
5.241575910562325
 31
0.0
 70
   160
  1
<>[]\PGASKET
 71
     5
 42
0.0615000000000006
 73
     0
 74
     0
 75
     0
  3
Deublin
100
AcDbAlignedDimension
 13
8.740784304276047
 23
5.842127698771597
 33
0.0
 14
8.679284304276047
 24
5.842127698771597
 34
0.0
100
AcDbRotatedDimension
1001
ACAD
1000
DSTYLE
1002
{
1070
   170
1070
     1
1070
   171
1070
     1
1070
   274
1070
     1
1002
}
  0
HATCH
  5
1943
330
19
100
AcDbEntity
  8
HATCH
100
AcDbHatch
 10
0.0
 20
0.0
 30
0.0
210
0.0
220
0.0
230
1.0
  2
BRASS
 70
     0
 71
     1
 91
        1
 92
        7
 72
     0
 73
     1
 93
        4
 10
8.740784304276047
 20
7.592127937190178
 10
8.678284304276047
 20
7.592127937190178
 10
8.678284304276047
 20
7.467127937190178
 10
8.740784304276047
 20
7.467127937190178
 97
        4
330
1852
330
184B
330
1850
330
850
 75
     0
 76
     1
 52
45.0
 41
0.2
 77
     0
 78
     2
 53
45.0
 43
0.0
 44
0.0
 45
-0.0353553390593274
 46
0.0353553390593274
 79
     0
 53
45.0
 43
-0.0176776695296637
 44
0.0176776695296637
 45
-0.0353553390593274
 46
0.0353553390593274
 79
     2
 49
0.025
 49
-0.0125
 47
0.0013568497989638
 98
        1
 10
8.714612185512329
 20
7.499346351161214
  0
HATCH
  5
194B
330
19
100
AcDbEntity
  8
HATCH
100
AcDbHatch
 10
0.0
 20
0.0
 30
0.0
210
0.0
220
0.0
230
1.0
  2
BRASS
 70
     0
 71
     1
 91
        1
 92
        7
 72
     0
 73
     1
 93
        4
 10
8.740784304276047
 20
5.967127698771597
 10
8.679284304276047
 20
5.967127698771597
 10
8.679284304276047
 20
5.842127698771597
 10
8.740784304276047
 20
5.842127698771597
 97
        4
330
188E
330
188B
330
188F
330
850
 75
     0
 76
     1
 52
45.0
 41
0.2
 77
     0
 78
     2
 53
45.0
 43
0.0
 44
0.0
 45
-0.0353553390593274
 46
0.0353553390593274
 79
     0
 53
45.0
 43
-0.0176776695296637
 44
0.0176776695296637
 45
-0.0353553390593274
 46
0.0353553390593274
 79
     2
 49
0.025
 49
-0.0125
 47
0.0013568498735772
 98
        1
 10
8.715863698939351
 20
5.903490610524102
  0
LEADER
  5
194C
330
19
100
AcDbEntity
  8
DIMENSIONS
100
AcDbLeader
  3
Deublin
 73
     0
 40
0.1828571428571428
 41
1.748571428571427
 76
     3
 10
7.92681539345051
 20
13.22795321562001
 30
0.0
 10
7.92681539345051
 20
13.96804239999464
 30
0.0
 10
7.655274096543308
 20
13.96804239999464
 30
0.0
340
194D
1001
ACAD
1000
DSTYLE
1002
{
1070
   147
1040
0.09
1070
    77
1070
     0
1002
}
  0
MTEXT
  5
194D
102
{ACAD_REACTORS
330
194C
102
}
330
19
100
AcDbEntity
  8
DIMENSIONS
100
AcDbMText
 10
7.565274096543308
 20
13.96804239999464
 30
0.0
 40
0.12
 41
0.0
 46
0.0
 71
     6
 72
     1
  1
1 1/2-12 UNF RH
  7
ROMANS
 73
     1
 44
1.0
  0
LINE
  5
1A0B
330
19
100
AcDbEntity
  8
CENTER
100
AcDbLine
 10
3.381513454389213
 20
6.717127817980887
 30
0.0
 11
3.281513072919486
 21
6.717127817980887
 31
0.0
  0
LINE
  5
1A0C
330
19
100
AcDbEntity
  8
CENTER
100
AcDbLine
 10
3.33151326365435
 20
6.667127865664603
 30
0.0
 11
3.33151326365435
 21
6.767127889506461
 31
0.0
  0
MTEXT
  5
1A95
330
19
100
AcDbEntity
  8
DIMENSIONS
100
AcDbMText
 10
11.48334127599583
 20
9.290309865888914
 30
0.0
 40
0.12
 41
0.0
 46
0.0
 71
     4
 72
     1
  1
3X %%C.339 [8.6] VENTS\PSPACED 120%%D APART
  7
ROMANS
 73
     1
 44
1.0
  0
LINE
  5
1B19
330
19
100
AcDbEntity
  8
GEOMETRY
100
AcDbLine
 10
3.190959312390922
 20
7.97871579539025
 30
0.0
 11
3.190959312390921
 21
8.05074127115154
 31
0.0
  0
LINE
  5
1B1A
330
19
100
AcDbEntity
  8
GEOMETRY
100
AcDbLine
 10
3.472067214917777
 20
7.97871579539025
 30
0.0
 11
3.472067214917778
 21
8.05074127115154
 31
0.0
  0
INSERT
  5
1B58
330
19
100
AcDbEntity
  8
GEOMETRY
100
AcDbBlockReference
  2
A$C681E7F3F
 10
2.494814295692421
 20
6.667127873055953
 30
0.0
  0
ENDSEC
  0
SECTION
  2
OBJECTS
  0
DICTIONARY
  5
C
330
0
100
AcDbDictionary
281
     1
  3
ACAD_COLOR
350
1B5D
  3
ACAD_GROUP
350
D
  3
ACAD_LAYOUT
350
D9A
  3
ACAD_MATERIAL
350
1B5C
  3
ACAD_MLEADERSTYLE
350
1BAC
  3
ACAD_MLINESTYLE
350
E
  3
ACAD_PLOTSETTINGS
350
D9B
  3
ACAD_PLOTSTYLENAME
350
D98
  3
ACAD_SCALELIST
350
1B8A
  3
ACAD_TABLESTYLE
350
1B88
  3
ACAD_VISUALSTYLE
350
1B77
  3
AcadDim
350
17F2
  3
ACDB_RECOMPOSE_DATA
350
1C88
  3
AcDbVariableDictionary
350
E50
  3
AcmDictionary
350
1C10
  3
AMG
350
1BB6
  3
AMGSNAPSETTINGS
350
1C62
  0
DICTIONARY
  5
1C69
330
F
100
AcDbDictionary
280
     1
281
     1
  3
ADSK_XREC_LAYER_RECONCILED
360
1C6A
  0
DICTIONARY
  5
1C6B
330
48
100
AcDbDictionary
280
     1
281
     1
  3
ADSK_XREC_LAYER_RECONCILED
360
1C6C
  0
DICTIONARY
  5
1C6D
330
49
100
AcDbDictionary
280
     1
281
     1
  3
ADSK_XREC_LAYER_RECONCILED
360
1C6E
  0
DICTIONARY
  5
1C6F
330
4B
100
AcDbDictionary
280
     1
281
     1
  3
ADSK_XREC_LAYER_RECONCILED
360
1C70
  0
DICTIONARY
  5
1C71
330
9D3
100
AcDbDictionary
280
     1
281
     1
  3
ADSK_XREC_LAYER_RECONCILED
360
1C72
  0
DICTIONARY
  5
1C73
330
9D4
100
AcDbDictionary
280
     1
281
     1
  3
ADSK_XREC_LAYER_RECONCILED
360
1C74
  0
DICTIONARY
  5
1C75
330
138D
100
AcDbDictionary
280
     1
281
     1
  3
ADSK_XREC_LAYER_RECONCILED
360
1C76
  0
DICTIONARY
  5
1C77
330
1C5D
100
AcDbDictionary
280
     1
281
     1
  3
ADSK_XREC_LAYER_RECONCILED
360
1C78
  0
DICTIONARY
  5
1C79
330
1C5E
100
AcDbDictionary
280
     1
281
     1
  3
ADSK_XREC_LAYER_RECONCILED
360
1C7A
  0
DICTIONARY
  5
1C7B
330
1C5F
100
AcDbDictionary
280
     1
281
     1
  3
ADSK_XREC_LAYER_RECONCILED
360
1C7C
  0
DICTIONARY
  5
1C7D
330
1C60
100
AcDbDictionary
280
     1
281
     1
  3
ADSK_XREC_LAYER_RECONCILED
360
1C7E
  0
DICTIONARY
  5
1C7F
330
1C61
100
AcDbDictionary
280
     1
281
     1
  3
ADSK_XREC_LAYER_RECONCILED
360
1C80
  0
DICTIONARY
  5
1B5D
102
{ACAD_REACTORS
330
C
102
}
330
C
100
AcDbDictionary
281
     1
  0
DICTIONARY
  5
D
102
{ACAD_REACTORS
330
C
102
}
330
C
100
AcDbDictionary
281
     1
  0
DICTIONARY
  5
D9A
102
{ACAD_REACTORS
330
C
102
}
330
C
100
AcDbDictionary
281
     1
  3
Layout1
350
D9D
  3
Model
350
D9C
  0
DICTIONARY
  5
1B5C
102
{ACAD_REACTORS
330
C
102
}
330
C
100
AcDbDictionary
281
     1
  3
ByBlock
350
1B67
  3
ByLayer
350
1B5F
  3
Global
350
1B6F
  0
DICTIONARY
  5
1BAC
102
{ACAD_REACTORS
330
C
102
}
330
C
100
AcDbDictionary
281
     1
  3
Standard
350
1BAD
  0
DICTIONARY
  5
E
102
{ACAD_REACTORS
330
C
102
}
330
C
100
AcDbDictionary
281
     1
  3
STANDARD
350
1C
  0
DICTIONARY
  5
D9B
102
{ACAD_REACTORS
330
C
102
}
330
C
100
AcDbDictionary
281
     1
  3
A_CUSTOMERSERVICE_METRIC
350
1C4D
  3
A_CUSTOMERSERVICE_METRIC_Landscape
350
1C4F
  3
A_ENGINEERING_METRIC
350
1C50
  3
A_ENGINEERING_METRIC_Landscape
350
1C51
  3
A_EXECSECR_METRIC
350
1C52
  3
A_EXECSECR_METRIC_Landscape
350
1C53
  3
A_TOOL_ENG_METRIC
350
1C54
  3
A_TOOL_ENG_METRIC_Landscape
350
1C55
  3
A_TOOLING_METRIC
350
1C56
  3
A_TOOLING_METRIC_Landscape
350
1C57
  3
B_CUSTOMERSERVICE_METRIC
350
1C58
  3
B_ENGINEERING_METRIC
350
1C59
  3
B_EXECSECR_METRIC
350
1C5A
  3
B_TOOL_ENG_METRIC
350
1C5B
  3
B_TOOLING_METRIC
350
1C5C
  0
ACDBDICTIONARYWDFLT
  5
D98
102
{ACAD_REACTORS
330
C
102
}
330
C
100
AcDbDictionary
281
     1
  3
Normal
350
D99
100
AcDbDictionaryWithDefault
340
D99
  0
DICTIONARY
  5
1B8A
102
{ACAD_REACTORS
330
C
102
}
330
C
100
AcDbDictionary
281
     1
  3
A0
350
1B8B
  3
A1
350
1B8C
  3
A2
350
1B8D
  3
A3
350
1B8E
  3
A4
350
1B8F
  3
A5
350
1B90
  3
A6
350
1B91
  3
A7
350
1B92
  3
A8
350
1B93
  3
A9
350
1B94
  3
B0
350
1B95
  3
B1
350
1B96
  3
B2
350
1B97
  3
B3
350
1B98
  3
B4
350
1B99
  3
B5
350
1B9A
  3
B6
350
1B9B
  3
B7
350
1B9C
  3
B8
350
1B9D
  3
B9
350
1B9E
  3
C0
350
1B9F
  3
C1
350
1BA0
  3
C2
350
1BA1
  3
C3
350
1BA2
  3
C4
350
1BA3
  3
C5
350
1BA4
  3
C6
350
1BA5
  3
C7
350
1BA6
  3
C8
350
1BA7
  3
C9
350
1BA8
  3
D0
350
1BA9
  3
D1
350
1BAA
  3
D2
350
1BAB
  0
DICTIONARY
  5
1B88
102
{ACAD_REACTORS
330
C
102
}
330
C
100
AcDbDictionary
281
     1
  3
Standard
350
1B89
  0
DICTIONARY
  5
1B77
102
{ACAD_REACTORS
330
C
102
}
330
C
100
AcDbDictionary
281
     1
  3
2dWireframe
350
1B7D
  3
3D Hidden
350
1B7F
  3
3dWireframe
350
1B7E
  3
Basic
350
1B7C
  3
Brighten
350
1B83
  3
ColorChange
350
1B87
  3
Conceptual
350
1B80
  3
Dim
350
1B82
  3
Facepattern
350
1B86
  3
Flat
350
1B78
  3
FlatWithEdges
350
1B79
  3
Gouraud
350
1B7A
  3
GouraudWithEdges
350
1B7B
  3
Linepattern
350
1B85
  3
Realistic
350
1B81
  3
Thicken
350
1B84
  0
XRECORD
  5
17F2
102
{ACAD_REACTORS
330
C
102
}
330
C
100
AcDbXrecord
280
     1
 90
   990106
  3

 60
     0
 61
     0
 62
     2
 63
     2
 64
     0
 65
     0
 66
     0
 67
     3
 68
     0
 69
     0
 70
     0
 71
     0
 72
     0
 40
0.0
170
     2
340
194D
  0
XRECORD
  5
1C88
102
{ACAD_REACTORS
330
C
102
}
330
C
100
AcDbXrecord
280
     1
 90
        1
330
1B89
  0
DICTIONARY
  5
E50
102
{ACAD_REACTORS
330
C
102
}
330
C
100
AcDbDictionary
281
     1
  3
CANNOSCALE
350
1C84
  3
CMLEADERSTYLE
350
1C82
  3
CTABLESTYLE
350
1C81
  3
DIMASSOC
350
E51
  3
LIGHTINGUNITS
350
1C85
  3
MSLTSCALE
350
1C83
  3
SORTENTS
350
1068
  0
DICTIONARY
  5
1C10
102
{ACAD_REACTORS
330
C
102
}
330
C
100
AcDbDictionary
281
     1
  3
AcmStdDictionary
350
1C1B
  0
DICTIONARY
  5
1BB6
102
{ACAD_REACTORS
330
C
102
}
330
C
100
AcDbDictionary
281
     1
  0
DICTIONARY
  5
1C62
102
{ACAD_REACTORS
330
C
102
}
330
C
100
AcDbDictionary
281
     1
  0
XRECORD
  5
1C6A
102
{ACAD_REACTORS
330
1C69
102
}
330
1C69
100
AcDbXrecord
280
     1
290
     1
  0
XRECORD
  5
1C6C
102
{ACAD_REACTORS
330
1C6B
102
}
330
1C6B
100
AcDbXrecord
280
     1
290
     1
  0
XRECORD
  5
1C6E
102
{ACAD_REACTORS
330
1C6D
102
}
330
1C6D
100
AcDbXrecord
280
     1
290
     1
  0
XRECORD
  5
1C70
102
{ACAD_REACTORS
330
1C6F
102
}
330
1C6F
100
AcDbXrecord
280
     1
290
     1
  0
XRECORD
  5
1C72
102
{ACAD_REACTORS
330
1C71
102
}
330
1C71
100
AcDbXrecord
280
     1
290
     1
  0
XRECORD
  5
1C74
102
{ACAD_REACTORS
330
1C73
102
}
330
1C73
100
AcDbXrecord
280
     1
290
     1
  0
XRECORD
  5
1C76
102
{ACAD_REACTORS
330
1C75
102
}
330
1C75
100
AcDbXrecord
280
     1
290
     1
  0
XRECORD
  5
1C78
102
{ACAD_REACTORS
330
1C77
102
}
330
1C77
100
AcDbXrecord
280
     1
290
     1
  0
XRECORD
  5
1C7A
102
{ACAD_REACTORS
330
1C79
102
}
330
1C79
100
AcDbXrecord
280
     1
290
     1
  0
XRECORD
  5
1C7C
102
{ACAD_REACTORS
330
1C7B
102
}
330
1C7B
100
AcDbXrecord
280
     1
290
     1
  0
XRECORD
  5
1C7E
102
{ACAD_REACTORS
330
1C7D
102
}
330
1C7D
100
AcDbXrecord
280
     1
290
     1
  0
XRECORD
  5
1C80
102
{ACAD_REACTORS
330
1C7F
102
}
330
1C7F
100
AcDbXrecord
280
     1
290
     1
  0
LAYOUT
  5
D9D
102
{ACAD_REACTORS
330
D9A
102
}
330
D9A
100
AcDbPlotSettings
  1

  2
\\USENGSVR\Plotcenter4v
  4

  6

 40
0.0
 41
0.0
 42
0.0
 43
0.0
 44
0.0
 45
0.0
 46
0.0
 47
0.0
 48
0.0
 49
0.0
140
0.0
141
0.0
142
1.0
143
1.0
 70
   688
 72
     0
 73
     0
 74
     5
  7
HP4V.ctb
 75
    16
147
1.0
 76
     0
 77
     2
 78
   300
148
0.0
149
0.0
100
AcDbLayout
  1
Layout1
 70
     1
 71
     1
 10
0.0
 20
0.0
 11
12.0
 21
9.0
 12
0.0
 22
0.0
 32
0.0
 14
1.000000000000000E+20
 24
1.000000000000000E+20
 34
1.000000000000000E+20
 15
-1.000000000000000E+20
 25
-1.000000000000000E+20
 35
-1.000000000000000E+20
146
0.0
 13
0.0
 23
0.0
 33
0.0
 16
1.0
 26
0.0
 36
0.0
 17
0.0
 27
1.0
 37
0.0
 76
     0
330
16
  0
LAYOUT
  5
D9C
102
{ACAD_REACTORS
330
D9A
102
}
330
D9A
100
AcDbPlotSettings
  1
A_SIZE_PLOTCENTER4V
  2
\\USENGSVR\Plotcenter4v
  4
Letter
  6

 40
7.143749713897705
 41
6.720414161682128
 42
7.14373779296875
 43
5.027069091796875
 44
215.8999938964844
 45
279.3999938964844
 46
0.0
 47
1.523999999999999
 48
0.0
 49
0.0
140
0.0
141
0.0
142
1.0
143
2.016044011993531
 70
 11956
 72
     0
 73
     1
 74
     1
  7
HP4V.ctb
 75
     0
147
0.4960209172274798
 76
     0
 77
     2
 78
   300
148
-12.68759897207812
149
-12.67015788046419
100
AcDbLayout
  1
Model
 70
     1
 71
     0
 10
0.0
 20
0.0
 11
12.0
 21
9.0
 12
0.0
 22
0.0
 32
0.0
 14
0.0
 24
0.0
 34
0.0
 15
0.0
 25
0.0
 35
0.0
146
0.0
 13
0.0
 23
0.0
 33
0.0
 16
1.0
 26
0.0
 36
0.0
 17
0.0
 27
1.0
 37
0.0
 76
     0
330
19
331
1B5A
  0
MATERIAL
  5
1B67
102
{ACAD_XDICTIONARY
360
1B68
102
}
102
{ACAD_REACTORS
330
1B5C
102
}
330
1B5C
100
AcDbMaterial
  1
ByBlock
 72
     0
 43
0.0208333333333333
 43
0.0
 43
0.0
 43
0.0
 43
0.0
 43
0.0208333333333333
 43
0.0
 43
0.0
 43
0.0
 43
0.0
 43
1.0
 43
0.0
 43
0.0
 43
0.0
 43
0.0
 43
1.0
 77
     0
 47
0.0208333333333333
 47
0.0
 47
0.0
 47
0.0
 47
0.0
 47
0.0208333333333333
 47
0.0
 47
0.0
 47
0.0
 47
0.0
 47
1.0
 47
0.0
 47
0.0
 47
0.0
 47
0.0
 47
1.0
171
     0
 49
0.0208333333333333
 49
0.0
 49
0.0
 49
0.0
 49
0.0
 49
0.0208333333333333
 49
0.0
 49
0.0
 49
0.0
 49
0.0
 49
1.0
 49
0.0
 49
0.0
 49
0.0
 49
0.0
 49
1.0
175
     0
142
0.0208333333333333
142
0.0
142
0.0
142
0.0
142
0.0
142
0.0208333333333333
142
0.0
142
0.0
142
0.0
142
0.0
142
1.0
142
0.0
142
0.0
142
0.0
142
0.0
142
1.0
179
     0
144
0.0208333333333333
144
0.0
144
0.0
144
0.0
144
0.0
144
0.0208333333333333
144
0.0
144
0.0
144
0.0
144
0.0
144
1.0
144
0.0
144
0.0
144
0.0
144
0.0
144
1.0
147
0.0208333333333333
147
0.0
147
0.0
147
0.0
147
0.0
147
0.0208333333333333
147
0.0
147
0.0
147
0.0
147
0.0
147
1.0
147
0.0
147
0.0
147
0.0
147
0.0
147
1.0
  0
MATERIAL
  5
1B5F
102
{ACAD_XDICTIONARY
360
1B60
102
}
102
{ACAD_REACTORS
330
1B5C
102
}
330
1B5C
100
AcDbMaterial
  1
ByLayer
 72
     0
 43
0.0208333333333333
 43
0.0
 43
0.0
 43
0.0
 43
0.0
 43
0.0208333333333333
 43
0.0
 43
0.0
 43
0.0
 43
0.0
 43
1.0
 43
0.0
 43
0.0
 43
0.0
 43
0.0
 43
1.0
 77
     0
 47
0.0208333333333333
 47
0.0
 47
0.0
 47
0.0
 47
0.0
 47
0.0208333333333333
 47
0.0
 47
0.0
 47
0.0
 47
0.0
 47
1.0
 47
0.0
 47
0.0
 47
0.0
 47
0.0
 47
1.0
171
     0
 49
0.0208333333333333
 49
0.0
 49
0.0
 49
0.0
 49
0.0
 49
0.0208333333333333
 49
0.0
 49
0.0
 49
0.0
 49
0.0
 49
1.0
 49
0.0
 49
0.0
 49
0.0
 49
0.0
 49
1.0
175
     0
142
0.0208333333333333
142
0.0
142
0.0
142
0.0
142
0.0
142
0.0208333333333333
142
0.0
142
0.0
142
0.0
142
0.0
142
1.0
142
0.0
142
0.0
142
0.0
142
0.0
142
1.0
179
     0
144
0.0208333333333333
144
0.0
144
0.0
144
0.0
144
0.0
144
0.0208333333333333
144
0.0
144
0.0
144
0.0
144
0.0
144
1.0
144
0.0
144
0.0
144
0.0
144
0.0
144
1.0
147
0.0208333333333333
147
0.0
147
0.0
147
0.0
147
0.0
147
0.0208333333333333
147
0.0
147
0.0
147
0.0
147
0.0
147
1.0
147
0.0
147
0.0
147
0.0
147
0.0
147
1.0
  0
MATERIAL
  5
1B6F
102
{ACAD_XDICTIONARY
360
1B70
102
}
102
{ACAD_REACTORS
330
1B5C
102
}
330
1B5C
100
AcDbMaterial
  1
Global
 72
     0
 43
0.0208333333333333
 43
0.0
 43
0.0
 43
0.0
 43
0.0
 43
0.0208333333333333
 43
0.0
 43
0.0
 43
0.0
 43
0.0
 43
1.0
 43
0.0
 43
0.0
 43
0.0
 43
0.0
 43
1.0
 77
     0
 47
0.0208333333333333
 47
0.0
 47
0.0
 47
0.0
 47
0.0
 47
0.0208333333333333
 47
0.0
 47
0.0
 47
0.0
 47
0.0
 47
1.0
 47
0.0
 47
0.0
 47
0.0
 47
0.0
 47
1.0
171
     0
 49
0.0208333333333333
 49
0.0
 49
0.0
 49
0.0
 49
0.0
 49
0.0208333333333333
 49
0.0
 49
0.0
 49
0.0
 49
0.0
 49
1.0
 49
0.0
 49
0.0
 49
0.0
 49
0.0
 49
1.0
175
     0
142
0.0208333333333333
142
0.0
142
0.0
142
0.0
142
0.0
142
0.0208333333333333
142
0.0
142
0.0
142
0.0
142
0.0
142
1.0
142
0.0
142
0.0
142
0.0
142
0.0
142
1.0
179
     0
144
0.0208333333333333
144
0.0
144
0.0
144
0.0
144
0.0
144
0.0208333333333333
144
0.0
144
0.0
144
0.0
144
0.0
144
1.0
144
0.0
144
0.0
144
0.0
144
0.0
144
1.0
147
0.0208333333333333
147
0.0
147
0.0
147
0.0
147
0.0
147
0.0208333333333333
147
0.0
147
0.0
147
0.0
147
0.0
147
1.0
147
0.0
147
0.0
147
0.0
147
0.0
147
1.0
  0
MLEADERSTYLE
  5
1BAD
102
{ACAD_REACTORS
330
1BAC
102
}
330
1BAC
100
AcDbMLeaderStyle
170
     2
171
     1
172
     0
 90
        2
 40
0.0
 41
0.0
173
     1
 91
-1056964608
340
13
 92
       -2
290
     1
 42
0.09
291
     1
 43
0.36
  3
Standard
 44
0.18
300

342
10
174
     1
178
     6
175
     1
176
     0
 93
-1056964608
 45
0.18
292
     0
297
     0
 46
0.18
 94
-1056964608
 47
1.0
 49
1.0
140
1.0
293
     1
141
0.0
294
     1
177
     0
142
1.0
295
     0
296
     0
143
0.125
1001
ACAD_MLEADERVER
1070
     2
  0
MLINESTYLE
  5
1C
102
{ACAD_REACTORS
330
E
102
}
330
E
100
AcDbMlineStyle
  2
STANDARD
 70
     0
  3

 62
     0
 51
90.0
 52
90.0
 71
     2
 49
0.5
 62
   256
  6
BYLAYER
 49
-0.5
 62
   256
  6
BYLAYER
  0
PLOTSETTINGS
  5
1C4D
102
{ACAD_REACTORS
330
D9B
102
}
330
D9B
100
AcDbPlotSettings
  1
A_CUSTOMERSERVICE_METRIC
  2
\\hqsp5200\HQPENG_2FL
  4
Letter
  6

 40
5.027082920074462
 41
5.027099609375
 42
5.027069091796875
 43
5.027069091796875
 44
215.8999938964844
 45
279.3999938964844
 46
0.0
 47
64.68090873936366
 48
0.0
 49
0.0
140
0.0
141
0.0
142
1.0
143
2.121800428997491
 70
  3764
 72
     0
 73
     0
 74
     1
  7
METRIC.ctb
 75
     0
147
0.4712978592772178
 76
     0
 77
     2
 78
   300
148
0.0133271310183389
149
0.0090630244069118
1001
ACAD_PSEXT
1000
\\hqsp5200\HQPENG_2FL
1000
KONICA MINOLTA C360SeriesPCL
1000
Engineering Department
1000
KONICA MINOLTA C360SeriesPCL
1070
     0
  0
PLOTSETTINGS
  5
1C4F
102
{ACAD_REACTORS
330
D9B
102
}
330
D9B
100
AcDbPlotSettings
  1
A_CUSTOMERSERVICE_METRIC_Landscape
  2
\\hqsp5200\HQPENG_2FL
  4
Letter
  6

 40
5.027082920074462
 41
5.027099609375
 42
5.027069091796875
 43
5.027069091796875
 44
215.8999938964844
 45
279.3999938964844
 46
11.33955999760096
 47
0.0
 48
0.0
 49
0.0
140
0.0
141
0.0
142
1.0
143
1.621572546377537
 70
  3764
 72
     0
 73
     1
 74
     1
  7
METRIC.ctb
 75
     0
147
0.6166853294562244
 76
     0
 77
     2
 78
   300
148
0.0133271310183389
149
0.0090630244069118
1001
ACAD_PSEXT
1000
\\hqsp5200\HQPENG_2FL
1000
KONICA MINOLTA C360SeriesPCL
1000
Engineering Department
1000
KONICA MINOLTA C360SeriesPCL
1070
     0
  0
PLOTSETTINGS
  5
1C50
102
{ACAD_REACTORS
330
D9B
102
}
330
D9B
100
AcDbPlotSettings
  1
A_ENGINEERING_METRIC
  2
\\hqsp5200\HQPENG_2FL
  4
Letter
  6

 40
5.027082920074462
 41
5.027099609375
 42
5.027069091796875
 43
5.027069091796875
 44
215.8999938964844
 45
279.3999938964844
 46
0.0
 47
64.68090873936366
 48
0.0
 49
0.0
140
0.0
141
0.0
142
1.0
143
2.121800428997491
 70
  3764
 72
     0
 73
     0
 74
     1
  7
METRIC.ctb
 75
     0
147
0.4712978592772178
 76
     0
 77
     2
 78
   300
148
0.0133271310183389
149
0.0090630244069118
1001
ACAD_PSEXT
1000
\\hqsp5200\HQPENG_2FL
1000
KONICA MINOLTA C360SeriesPCL
1000
Engineering Department
1000
KONICA MINOLTA C360SeriesPCL
1070
     0
  0
PLOTSETTINGS
  5
1C51
102
{ACAD_REACTORS
330
D9B
102
}
330
D9B
100
AcDbPlotSettings
  1
A_ENGINEERING_METRIC_Landscape
  2
\\hqsp5200\HQPENG_2FL
  4
Letter
  6

 40
5.027082920074462
 41
5.027099609375
 42
5.027069091796875
 43
5.027069091796875
 44
215.8999938964844
 45
279.3999938964844
 46
11.33955999760096
 47
0.0
 48
0.0
 49
0.0
140
0.0
141
0.0
142
1.0
143
1.621572546377537
 70
  3764
 72
     0
 73
     1
 74
     1
  7
METRIC.ctb
 75
     0
147
0.6166853294562244
 76
     0
 77
     2
 78
   300
148
0.0133271310183389
149
0.0090630244069118
1001
ACAD_PSEXT
1000
\\hqsp5200\HQPENG_2FL
1000
KONICA MINOLTA C360SeriesPCL
1000
Engineering Department
1000
KONICA MINOLTA C360SeriesPCL
1070
     0
  0
PLOTSETTINGS
  5
1C52
102
{ACAD_REACTORS
330
D9B
102
}
330
D9B
100
AcDbPlotSettings
  1
A_EXECSECR_METRIC
  2
\\hqsp5200\HQPEXESECR_2FL
  4
Letter
  6

 40
5.027082920074462
 41
5.027099609375
 42
5.027069091796875
 43
5.027069091796875
 44
215.8999938964844
 45
279.3999938964844
 46
0.0
 47
64.68090873936368
 48
0.0
 49
0.0
140
0.0
141
0.0
142
1.0
143
2.121929933418357
 70
  3764
 72
     0
 73
     0
 74
     1
  7
METRIC.ctb
 75
     0
147
0.4712690952943171
 76
     0
 77
     2
 78
   300
148
0.0266550873687663
149
0.0181266067825888
1001
ACAD_PSEXT
1000
\\hqsp5200\HQPEXESECR_2FL
1000
KONICA MINOLTA C652SeriesPCL
1000
Executive Secretary
1000
KONICA MINOLTA C652SeriesPCL
1070
     0
  0
PLOTSETTINGS
  5
1C53
102
{ACAD_REACTORS
330
D9B
102
}
330
D9B
100
AcDbPlotSettings
  1
A_EXECSECR_METRIC_Landscape
  2
\\hqsp5200\HQPEXESECR_2FL
  4
Letter
  6

 40
5.027082920074462
 41
5.027099609375
 42
5.027069091796875
 43
5.027069091796875
 44
215.8999938964844
 45
279.3999938964844
 46
11.33955999760098
 47
0.0
 48
0.0
 49
0.0
140
0.0
141
0.0
142
1.0
143
1.621671519311391
 70
  3764
 72
     0
 73
     1
 74
     1
  7
METRIC.ctb
 75
     0
147
0.6166476922679318
 76
     0
 77
     2
 78
   300
148
0.0266550873687663
149
0.0181266067825888
1001
ACAD_PSEXT
1000
\\hqsp5200\HQPEXESECR_2FL
1000
KONICA MINOLTA C652SeriesPCL
1000
Executive Secretary
1000
KONICA MINOLTA C652SeriesPCL
1070
     0
  0
PLOTSETTINGS
  5
1C54
102
{ACAD_REACTORS
330
D9B
102
}
330
D9B
100
AcDbPlotSettings
  1
A_TOOL_ENG_METRIC
  2
\\hqsp5200\HQPTOOLING_1FL
  4
Letter
  6

 40
5.027082920074462
 41
5.027099609375
 42
5.027069091796875
 43
5.027069091796875
 44
215.8999938964844
 45
279.3999938964844
 46
0.0
 47
64.68090873936366
 48
0.0
 49
0.0
140
0.0
141
0.0
142
1.0
143
2.121800428997491
 70
  3764
 72
     0
 73
     0
 74
     1
  7
METRIC.ctb
 75
     0
147
0.4712978592772178
 76
     0
 77
     2
 78
   300
148
0.0133271310183389
149
0.0090630244069118
1001
ACAD_PSEXT
1000
\\hqsp5200\HQPTOOLING_1FL
1000
KONICA MINOLTA C652SeriesPCL
1000
Tooling
1000

1070
     0
  0
PLOTSETTINGS
  5
1C55
102
{ACAD_REACTORS
330
D9B
102
}
330
D9B
100
AcDbPlotSettings
  1
A_TOOL_ENG_METRIC_Landscape
  2
\\hqsp5200\HQPTOOLING_1FL
  4
Letter
  6

 40
5.027082920074462
 41
5.027099609375
 42
5.027069091796875
 43
5.027069091796875
 44
215.8999938964844
 45
279.3999938964844
 46
11.33955999760096
 47
0.0
 48
0.0
 49
0.0
140
0.0
141
0.0
142
1.0
143
1.621572546377537
 70
  3764
 72
     0
 73
     1
 74
     1
  7
METRIC.ctb
 75
     0
147
0.6166853294562244
 76
     0
 77
     2
 78
   300
148
0.0133271310183389
149
0.0090630244069118
1001
ACAD_PSEXT
1000
\\hqsp5200\HQPTOOLING_1FL
1000
KONICA MINOLTA C652SeriesPCL
1000
Tooling
1000

1070
     0
  0
PLOTSETTINGS
  5
1C56
102
{ACAD_REACTORS
330
D9B
102
}
330
D9B
100
AcDbPlotSettings
  1
A_TOOLING_METRIC
  2
\\hqsp5200\HQPRND_1FL
  4
Letter
  6

 40
7.143749713897705
 41
5.027099609375
 42
7.14373779296875
 43
5.027069091796875
 44
215.8999938964844
 45
279.3999938964844
 46
0.0
 47
66.12033365845063
 48
0.0
 49
0.0
140
0.0
141
0.0
142
1.0
143
2.166352690314121
 70
  3764
 72
     0
 73
     0
 74
     1
  7
METRIC.ctb
 75
     0
147
0.4616053537685961
 76
     0
 77
     2
 78
   300
148
0.0133271310183389
149
0.0090630244069118
1001
ACAD_PSEXT
1000
\\hqsp5200\HQPRND_1FL
1000
HP LaserJet 5100 PCL 5
1000
Research & Development
1000
HP LaserJet 5100 PCL 5 - R & D
1070
     0
  0
PLOTSETTINGS
  5
1C57
102
{ACAD_REACTORS
330
D9B
102
}
330
D9B
100
AcDbPlotSettings
  1
A_TOOLING_METRIC_Landscape
  2
\\hqsp5200\HQPRND_1FL
  4
Letter
  6

 40
7.143749713897705
 41
5.027099609375
 42
7.14373779296875
 43
5.027069091796875
 44
215.8999938964844
 45
279.3999938964844
 46
9.222892250103388
 47
0.0
 48
0.0
 49
0.0
140
0.0
141
0.0
142
1.0
143
1.621572546377537
 70
  3764
 72
     0
 73
     1
 74
     1
  7
METRIC.ctb
 75
     0
147
0.6166853294562244
 76
     0
 77
     2
 78
   300
148
0.0133271310183389
149
0.0090630244069118
1001
ACAD_PSEXT
1000
\\hqsp5200\HQPRND_1FL
1000
HP LaserJet 5100 PCL 5
1000
Research & Development
1000
HP LaserJet 5100 PCL 5 - R & D
1070
     0
  0
PLOTSETTINGS
  5
1C58
102
{ACAD_REACTORS
330
D9B
102
}
330
D9B
100
AcDbPlotSettings
  1
B_CUSTOMERSERVICE_METRIC
  2
\\hqsp5200\HQPCUSSVC_2FL
  4
Tabloid
  6

 40
5.027082920074462
 41
5.027069091796875
 42
5.027099609375
 43
5.027069091796875
 44
279.3999938964844
 45
431.7999877929687
 46
0.0
 47
12.83703412211003
 48
0.0
 49
0.0
140
0.0
141
0.0
142
1.0
143
1.102738988656834
 70
  3764
 72
     0
 73
     1
 74
     1
  7
METRIC.ctb
 75
     0
147
0.9068329045099119
 76
     0
 77
     2
 78
   300
148
0.0133271310183389
149
0.0090630244069118
1001
ACAD_PSEXT
1000
\\hqsp5200\HQPCUSSVC_2FL
1000
KONICA MINOLTA C652SeriesPCL
1000
Customer Service
1000

1070
     0
  0
PLOTSETTINGS
  5
1C59
102
{ACAD_REACTORS
330
D9B
102
}
330
D9B
100
AcDbPlotSettings
  1
B_ENGINEERING_METRIC
  2
\\hqsp5200\HQPENG_2FL
  4
Tabloid
  6

 40
5.027082920074462
 41
5.027069091796875
 42
5.027099609375
 43
5.027069091796875
 44
279.3999938964844
 45
431.7999877929687
 46
0.0
 47
12.83703412211003
 48
0.0
 49
0.0
140
0.0
141
0.0
142
1.0
143
1.102738988656834
 70
  3764
 72
     0
 73
     1
 74
     1
  7
METRIC.ctb
 75
     0
147
0.9068329045099119
 76
     0
 77
     2
 78
   300
148
0.0133271310183389
149
0.0090630244069118
1001
ACAD_PSEXT
1000
\\hqsp5200\HQPENG_2FL
1000
KONICA MINOLTA C360SeriesPCL
1000
Engineering Department
1000
KONICA MINOLTA C360SeriesPCL
1070
     0
  0
PLOTSETTINGS
  5
1C5A
102
{ACAD_REACTORS
330
D9B
102
}
330
D9B
100
AcDbPlotSettings
  1
B_EXECSECR_METRIC
  2
\\hqsp5200\HQPEXESECR_2FL
  4
Tabloid
  6

 40
5.027082920074462
 41
5.027069091796875
 42
5.027099609375
 43
5.027069091796875
 44
279.3999938964844
 45
431.7999877929687
 46
0.0
 47
12.83703412210996
 48
0.0
 49
0.0
140
0.0
141
0.0
142
1.0
143
1.102806294503388
 70
  3764
 72
     0
 73
     1
 74
     1
  7
METRIC.ctb
 75
     0
147
0.906777559199838
 76
     0
 77
     2
 78
   300
148
0.0266550873687663
149
0.0181266067825888
1001
ACAD_PSEXT
1000
\\hqsp5200\HQPEXESECR_2FL
1000
KONICA MINOLTA C652SeriesPCL
1000
Executive Secretary
1000
KONICA MINOLTA C652SeriesPCL
1070
     0
  0
PLOTSETTINGS
  5
1C5B
102
{ACAD_REACTORS
330
D9B
102
}
330
D9B
100
AcDbPlotSettings
  1
B_TOOL_ENG_METRIC
  2
\\hqsp5200\HQPTOOLING_1FL
  4
Tabloid
  6

 40
5.027082920074462
 41
5.027069091796875
 42
5.027099609375
 43
5.027069091796875
 44
279.3999938964844
 45
431.7999877929687
 46
0.0
 47
12.83703412211003
 48
0.0
 49
0.0
140
0.0
141
0.0
142
1.0
143
1.102738988656834
 70
  3764
 72
     0
 73
     1
 74
     1
  7
METRIC.ctb
 75
     0
147
0.9068329045099119
 76
     0
 77
     2
 78
   300
148
0.0133271310183389
149
0.0090630244069118
1001
ACAD_PSEXT
1000
\\hqsp5200\HQPTOOLING_1FL
1000
KONICA MINOLTA C652SeriesPCL
1000
Tooling
1000

1070
     0
  0
PLOTSETTINGS
  5
1C5C
102
{ACAD_REACTORS
330
D9B
102
}
330
D9B
100
AcDbPlotSettings
  1
B_TOOLING_METRIC
  2
\\hqsp5200\HQPRND_1FL
  4
11x17
  6

 40
7.143749713897705
 41
5.027069091796875
 42
7.14373779296875
 43
5.027069091796875
 44
279.3999938964844
 45
431.7999877929687
 46
0.0
 47
15.94956190740888
 48
0.0
 49
0.0
140
0.0
141
0.0
142
1.0
143
1.120347476890928
 70
  3764
 72
     0
 73
     1
 74
     1
  7
METRIC.ctb
 75
     0
147
0.8925802223209318
 76
     0
 77
     2
 78
   300
148
0.0133271310183389
149
0.0090630244069118
1001
ACAD_PSEXT
1000
\\hqsp5200\HQPRND_1FL
1000
HP LaserJet 5100 PCL 5
1000
Research & Development
1000
HP LaserJet 5100 PCL 5 - R & D
1070
     0
  0
ACDBPLACEHOLDER
  5
D99
102
{ACAD_REACTORS
330
D98
102
}
330
D98
  0
SCALE
  5
1B8B
102
{ACAD_REACTORS
330
1B8A
102
}
330
1B8A
100
AcDbScale
 70
     0
300
1:1
140
1.0
141
1.0
290
     1
  0
SCALE
  5
1B8C
102
{ACAD_REACTORS
330
1B8A
102
}
330
1B8A
100
AcDbScale
 70
     0
300
1:2
140
1.0
141
2.0
290
     0
  0
SCALE
  5
1B8D
102
{ACAD_REACTORS
330
1B8A
102
}
330
1B8A
100
AcDbScale
 70
     0
300
1:4
140
1.0
141
4.0
290
     0
  0
SCALE
  5
1B8E
102
{ACAD_REACTORS
330
1B8A
102
}
330
1B8A
100
AcDbScale
 70
     0
300
1:5
140
1.0
141
5.0
290
     0
  0
SCALE
  5
1B8F
102
{ACAD_REACTORS
330
1B8A
102
}
330
1B8A
100
AcDbScale
 70
     0
300
1:8
140
1.0
141
8.0
290
     0
  0
SCALE
  5
1B90
102
{ACAD_REACTORS
330
1B8A
102
}
330
1B8A
100
AcDbScale
 70
     0
300
1:10
140
1.0
141
10.0
290
     0
  0
SCALE
  5
1B91
102
{ACAD_REACTORS
330
1B8A
102
}
330
1B8A
100
AcDbScale
 70
     0
300
1:16
140
1.0
141
16.0
290
     0
  0
SCALE
  5
1B92
102
{ACAD_REACTORS
330
1B8A
102
}
330
1B8A
100
AcDbScale
 70
     0
300
1:20
140
1.0
141
20.0
290
     0
  0
SCALE
  5
1B93
102
{ACAD_REACTORS
330
1B8A
102
}
330
1B8A
100
AcDbScale
 70
     0
300
1:30
140
1.0
141
30.0
290
     0
  0
SCALE
  5
1B94
102
{ACAD_REACTORS
330
1B8A
102
}
330
1B8A
100
AcDbScale
 70
     0
300
1:40
140
1.0
141
40.0
290
     0
  0
SCALE
  5
1B95
102
{ACAD_REACTORS
330
1B8A
102
}
330
1B8A
100
AcDbScale
 70
     0
300
1:50
140
1.0
141
50.0
290
     0
  0
SCALE
  5
1B96
102
{ACAD_REACTORS
330
1B8A
102
}
330
1B8A
100
AcDbScale
 70
     0
300
1:100
140
1.0
141
100.0
290
     0
  0
SCALE
  5
1B97
102
{ACAD_REACTORS
330
1B8A
102
}
330
1B8A
100
AcDbScale
 70
     0
300
2:1
140
2.0
141
1.0
290
     0
  0
SCALE
  5
1B98
102
{ACAD_REACTORS
330
1B8A
102
}
330
1B8A
100
AcDbScale
 70
     0
300
4:1
140
4.0
141
1.0
290
     0
  0
SCALE
  5
1B99
102
{ACAD_REACTORS
330
1B8A
102
}
330
1B8A
100
AcDbScale
 70
     0
300
8:1
140
8.0
141
1.0
290
     0
  0
SCALE
  5
1B9A
102
{ACAD_REACTORS
330
1B8A
102
}
330
1B8A
100
AcDbScale
 70
     0
300
10:1
140
10.0
141
1.0
290
     0
  0
SCALE
  5
1B9B
102
{ACAD_REACTORS
330
1B8A
102
}
330
1B8A
100
AcDbScale
 70
     0
300
100:1
140
100.0
141
1.0
290
     0
  0
SCALE
  5
1B9C
102
{ACAD_REACTORS
330
1B8A
102
}
330
1B8A
100
AcDbScale
 70
     0
300
1/128" = 1'-0"
140
0.0078125
141
12.0
290
     0
  0
SCALE
  5
1B9D
102
{ACAD_REACTORS
330
1B8A
102
}
330
1B8A
100
AcDbScale
 70
     0
300
1/64" = 1'-0"
140
0.015625
141
12.0
290
     0
  0
SCALE
  5
1B9E
102
{ACAD_REACTORS
330
1B8A
102
}
330
1B8A
100
AcDbScale
 70
     0
300
1/32" = 1'-0"
140
0.03125
141
12.0
290
     0
  0
SCALE
  5
1B9F
102
{ACAD_REACTORS
330
1B8A
102
}
330
1B8A
100
AcDbScale
 70
     0
300
1/16" = 1'-0"
140
0.0625
141
12.0
290
     0
  0
SCALE
  5
1BA0
102
{ACAD_REACTORS
330
1B8A
102
}
330
1B8A
100
AcDbScale
 70
     0
300
3/32" = 1'-0"
140
0.09375
141
12.0
290
     0
  0
SCALE
  5
1BA1
102
{ACAD_REACTORS
330
1B8A
102
}
330
1B8A
100
AcDbScale
 70
     0
300
1/8" = 1'-0"
140
0.125
141
12.0
290
     0
  0
SCALE
  5
1BA2
102
{ACAD_REACTORS
330
1B8A
102
}
330
1B8A
100
AcDbScale
 70
     0
300
3/16" = 1'-0"
140
0.1875
141
12.0
290
     0
  0
SCALE
  5
1BA3
102
{ACAD_REACTORS
330
1B8A
102
}
330
1B8A
100
AcDbScale
 70
     0
300
1/4" = 1'-0"
140
0.25
141
12.0
290
     0
  0
SCALE
  5
1BA4
102
{ACAD_REACTORS
330
1B8A
102
}
330
1B8A
100
AcDbScale
 70
     0
300
3/8" = 1'-0"
140
0.375
141
12.0
290
     0
  0
SCALE
  5
1BA5
102
{ACAD_REACTORS
330
1B8A
102
}
330
1B8A
100
AcDbScale
 70
     0
300
1/2" = 1'-0"
140
0.5
141
12.0
290
     0
  0
SCALE
  5
1BA6
102
{ACAD_REACTORS
330
1B8A
102
}
330
1B8A
100
AcDbScale
 70
     0
300
3/4" = 1'-0"
140
0.75
141
12.0
290
     0
  0
SCALE
  5
1BA7
102
{ACAD_REACTORS
330
1B8A
102
}
330
1B8A
100
AcDbScale
 70
     0
300
1" = 1'-0"
140
1.0
141
12.0
290
     0
  0
SCALE
  5
1BA8
102
{ACAD_REACTORS
330
1B8A
102
}
330
1B8A
100
AcDbScale
 70
     0
300
1-1/2" = 1'-0"
140
1.5
141
12.0
290
     0
  0
SCALE
  5
1BA9
102
{ACAD_REACTORS
330
1B8A
102
}
330
1B8A
100
AcDbScale
 70
     0
300
3" = 1'-0"
140
3.0
141
12.0
290
     0
  0
SCALE
  5
1BAA
102
{ACAD_REACTORS
330
1B8A
102
}
330
1B8A
100
AcDbScale
 70
     0
300
6" = 1'-0"
140
6.0
141
12.0
290
     0
  0
SCALE
  5
1BAB
102
{ACAD_REACTORS
330
1B8A
102
}
330
1B8A
100
AcDbScale
 70
     0
300
1'-0" = 1'-0"
140
12.0
141
12.0
290
     0
  0
TABLESTYLE
  5
1B89
102
{ACAD_XDICTIONARY
360
1C86
102
}
102
{ACAD_REACTORS
330
1B88
102
}
330
1B88
100
AcDbTableStyle
  3
Standard
 70
     0
 71
     0
 40
0.06
 41
0.06
280
     0
281
     0
  7
STANDARD
140
0.18
170
     2
 62
     0
 63
     7
283
     0
 90
      512
 91
        0
  1

274
    -2
284
     1
 64
     0
275
    -2
285
     1
 65
     0
276
    -2
286
     1
 66
     0
277
    -2
287
     1
 67
     0
278
    -2
288
     1
 68
     0
279
    -2
289
     1
 69
     0
  7
STANDARD
140
0.25
170
     5
 62
     0
 63
     7
283
     0
 90
      512
 91
        0
  1

274
    -2
284
     1
 64
     0
275
    -2
285
     1
 65
     0
276
    -2
286
     1
 66
     0
277
    -2
287
     1
 67
     0
278
    -2
288
     1
 68
     0
279
    -2
289
     1
 69
     0
  7
STANDARD
140
0.18
170
     5
 62
     0
 63
     7
283
     0
 90
      512
 91
        0
  1

274
    -2
284
     1
 64
     0
275
    -2
285
     1
 65
     0
276
    -2
286
     1
 66
     0
277
    -2
287
     1
 67
     0
278
    -2
288
     1
 68
     0
279
    -2
289
     1
 69
     0
  0
VISUALSTYLE
  5
1B7D
102
{ACAD_REACTORS
330
1B77
102
}
330
1B77
100
AcDbVisualStyle
  2
2dWireframe
 70
     4
 71
     0
 72
     2
 73
     0
 90
        0
 40
-0.6
 41
-30.0
 62
     5
 63
     7
421
 16777215
 74
     1
 91
        4
 64
     7
 65
   257
 75
     1
175
     1
 42
1.0
 92
        0
 66
   257
 43
1.0
 76
     1
 77
     6
 78
     2
 67
     7
 79
     5
170
     0
171
     0
290
     0
174
     0
 93
        1
 44
0.0
173
     0
291
     0
 45
0.0
  0
VISUALSTYLE
  5
1B7F
102
{ACAD_REACTORS
330
1B77
102
}
330
1B77
100
AcDbVisualStyle
  2
3D Hidden
 70
     6
 71
     1
 72
     2
 73
     2
 90
        0
 40
-0.6
 41
-30.0
 62
     5
 63
     7
421
 16777215
 74
     2
 91
        2
 64
     7
 65
   257
 75
     2
175
     1
 42
40.0
 92
        0
 66
   257
 43
1.0
 76
     1
 77
     6
 78
     2
 67
     7
 79
     3
170
     0
171
     0
290
     0
174
     0
 93
        1
 44
0.0
173
     0
291
     0
 45
0.0
  0
VISUALSTYLE
  5
1B7E
102
{ACAD_REACTORS
330
1B77
102
}
330
1B77
100
AcDbVisualStyle
  2
3dWireframe
 70
     5
 71
     0
 72
     2
 73
     0
 90
        0
 40
-0.6
 41
-30.0
 62
     5
 63
     7
421
 16777215
 74
     1
 91
        4
 64
     7
 65
   257
 75
     1
175
     1
 42
1.0
 92
        0
 66
   257
 43
1.0
 76
     1
 77
     6
 78
     2
 67
     7
 79
     5
170
     0
171
     0
290
     0
174
     0
 93
        1
 44
0.0
173
     0
291
     0
 45
0.0
  0
VISUALSTYLE
  5
1B7C
102
{ACAD_REACTORS
330
1B77
102
}
330
1B77
100
AcDbVisualStyle
  2
Basic
 70
     7
 71
     1
 72
     0
 73
     1
 90
        0
 40
-0.6
 41
-30.0
 62
     5
 63
     7
421
 16777215
 74
     0
 91
        4
 64
     7
 65
   257
 75
     1
175
     1
 42
1.0
 92
        8
 66
     7
 43
1.0
 76
     1
 77
     6
 78
     2
 67
     7
 79
     5
170
     0
171
     0
290
     0
174
     0
 93
        1
 44
0.0
173
     0
291
     1
 45
0.0
  0
VISUALSTYLE
  5
1B83
102
{ACAD_REACTORS
330
1B77
102
}
330
1B77
100
AcDbVisualStyle
  2
Brighten
 70
    12
 71
     2
 72
     2
 73
     0
 90
        0
 40
-0.6
 41
-30.0
 62
     5
 63
     7
421
 16777215
 74
     1
 91
        4
 64
     7
 65
   257
 75
     1
175
     1
 42
1.0
 92
        8
 66
     7
 43
1.0
 76
     1
 77
     6
 78
     2
 67
     7
 79
     5
170
     0
171
     0
290
     0
174
     0
 93
        1
 44
50.0
173
     0
291
     1
 45
0.0
  0
VISUALSTYLE
  5
1B87
102
{ACAD_REACTORS
330
1B77
102
}
330
1B77
100
AcDbVisualStyle
  2
ColorChange
 70
    16
 71
     2
 72
     2
 73
     3
 90
        0
 40
-0.6
 41
-30.0
 62
     5
 63
     8
421
  8421504
 74
     1
 91
        4
 64
     7
 65
   257
 75
     1
175
     1
 42
1.0
 92
        8
 66
     8
424
  8421504
 43
1.0
 76
     1
 77
     6
 78
     2
 67
     7
 79
     5
170
     0
171
     0
290
     0
174
     0
 93
        1
 44
0.0
173
     0
291
     1
 45
0.0
  0
VISUALSTYLE
  5
1B80
102
{ACAD_REACTORS
330
1B77
102
}
330
1B77
100
AcDbVisualStyle
  2
Conceptual
 70
     9
 71
     3
 72
     2
 73
     0
 90
        0
 40
-0.6
 41
-30.0
 62
     5
 63
     7
421
 16777215
 74
     2
 91
        2
 64
     7
 65
   257
 75
     1
175
     1
 42
40.0
 92
        8
 66
     7
 43
1.0
 76
     1
 77
     6
 78
     2
 67
     7
 79
     3
170
     0
171
     0
290
     0
174
     0
 93
        1
 44
0.0
173
     0
291
     0
 45
0.0
  0
VISUALSTYLE
  5
1B82
102
{ACAD_REACTORS
330
1B77
102
}
330
1B77
100
AcDbVisualStyle
  2
Dim
 70
    11
 71
     2
 72
     2
 73
     0
 90
        0
 40
-0.6
 41
-30.0
 62
     5
 63
     7
421
 16777215
 74
     1
 91
        4
 64
     7
 65
   257
 75
     1
175
     1
 42
1.0
 92
        8
 66
     7
 43
1.0
 76
     1
 77
     6
 78
     2
 67
     7
 79
     5
170
     0
171
     0
290
     0
174
     0
 93
        1
 44
-50.0
173
     0
291
     1
 45
0.0
  0
VISUALSTYLE
  5
1B86
102
{ACAD_REACTORS
330
1B77
102
}
330
1B77
100
AcDbVisualStyle
  2
Facepattern
 70
    15
 71
     2
 72
     2
 73
     0
 90
        0
 40
-0.6
 41
-30.0
 62
     5
 63
     7
421
 16777215
 74
     1
 91
        4
 64
     7
 65
   257
 75
     1
175
     1
 42
1.0
 92
        8
 66
     7
 43
1.0
 76
     1
 77
     6
 78
     2
 67
     7
 79
     5
170
     0
171
     0
290
     0
174
     0
 93
        1
 44
0.0
173
     0
291
     1
 45
0.0
  0
VISUALSTYLE
  5
1B78
102
{ACAD_REACTORS
330
1B77
102
}
330
1B77
100
AcDbVisualStyle
  2
Flat
 70
     0
 71
     2
 72
     1
 73
     1
 90
        2
 40
-0.6
 41
30.0
 62
     5
 63
     7
421
 16777215
 74
     0
 91
        4
 64
     7
 65
   257
 75
     1
175
     1
 42
1.0
 92
        8
 66
     7
 43
1.0
 76
     1
 77
     6
 78
     2
 67
     7
 79
     5
170
     0
171
     0
290
     0
174
     0
 93
       13
 44
0.0
173
     0
291
     1
 45
0.0
  0
VISUALSTYLE
  5
1B79
102
{ACAD_REACTORS
330
1B77
102
}
330
1B77
100
AcDbVisualStyle
  2
FlatWithEdges
 70
     1
 71
     2
 72
     1
 73
     1
 90
        2
 40
-0.6
 41
30.0
 62
     5
 63
     7
421
 16777215
 74
     1
 91
        4
 64
     7
 65
   257
 75
     1
175
     1
 42
1.0
 92
        0
 66
   257
 43
1.0
 76
     1
 77
     6
 78
     2
 67
     7
 79
     5
170
     0
171
     0
290
     0
174
     0
 93
       13
 44
0.0
173
     0
291
     1
 45
0.0
  0
VISUALSTYLE
  5
1B7A
102
{ACAD_REACTORS
330
1B77
102
}
330
1B77
100
AcDbVisualStyle
  2
Gouraud
 70
     2
 71
     2
 72
     2
 73
     1
 90
        2
 40
-0.6
 41
30.0
 62
     5
 63
     7
421
 16777215
 74
     0
 91
        4
 64
     7
 65
   257
 75
     1
175
     1
 42
1.0
 92
        0
 66
     7
 43
1.0
 76
     1
 77
     6
 78
     2
 67
     7
 79
     5
170
     0
171
     0
290
     0
174
     0
 93
       13
 44
0.0
173
     0
291
     1
 45
0.0
  0
VISUALSTYLE
  5
1B7B
102
{ACAD_REACTORS
330
1B77
102
}
330
1B77
100
AcDbVisualStyle
  2
GouraudWithEdges
 70
     3
 71
     2
 72
     2
 73
     1
 90
        2
 40
-0.6
 41
30.0
 62
     5
 63
     7
421
 16777215
 74
     1
 91
        4
 64
     7
 65
   257
 75
     1
175
     1
 42
1.0
 92
        0
 66
   257
 43
1.0
 76
     1
 77
     6
 78
     2
 67
     7
 79
     5
170
     0
171
     0
290
     0
174
     0
 93
       13
 44
0.0
173
     0
291
     1
 45
0.0
  0
VISUALSTYLE
  5
1B85
102
{ACAD_REACTORS
330
1B77
102
}
330
1B77
100
AcDbVisualStyle
  2
Linepattern
 70
    14
 71
     2
 72
     2
 73
     0
 90
        0
 40
-0.6
 41
-30.0
 62
     5
 63
     7
421
 16777215
 74
     1
 91
        4
 64
     7
 65
   257
 75
     7
175
     7
 42
1.0
 92
        8
 66
     7
 43
1.0
 76
     1
 77
     6
 78
     2
 67
     7
 79
     5
170
     0
171
     0
290
     0
174
     0
 93
        1
 44
0.0
173
     0
291
     1
 45
0.0
  0
VISUALSTYLE
  5
1B81
102
{ACAD_REACTORS
330
1B77
102
}
330
1B77
100
AcDbVisualStyle
  2
Realistic
 70
     8
 71
     2
 72
     2
 73
     0
 90
        0
 40
-0.6
 41
-30.0
 62
     5
 63
     7
421
 16777215
 74
     1
 91
        0
 64
     7
 65
   257
 75
     1
175
     1
 42
1.0
 92
        8
 66
     8
424
  7895160
 43
1.0
 76
     1
 77
     6
 78
     2
 67
     7
 79
     5
170
     0
171
     0
290
     0
174
     0
 93
       13
 44
0.0
173
     0
291
     0
 45
0.0
  0
VISUALSTYLE
  5
1B84
102
{ACAD_REACTORS
330
1B77
102
}
330
1B77
100
AcDbVisualStyle
  2
Thicken
 70
    13
 71
     2
 72
     2
 73
     0
 90
        0
 40
-0.6
 41
-30.0
 62
     5
 63
     7
421
 16777215
 74
     1
 91
        4
 64
     7
 65
   257
 75
     1
175
     1
 42
1.0
 92
       12
 66
     7
 43
1.0
 76
     1
 77
     6
 78
     2
 67
     7
 79
     5
170
     0
171
     0
290
     0
174
     0
 93
        1
 44
0.0
173
     0
291
     1
 45
0.0
  0
DICTIONARYVAR
  5
1C84
102
{ACAD_REACTORS
330
E50
102
}
330
E50
100
DictionaryVariables
280
     0
  1
1:1
  0
DICTIONARYVAR
  5
1C82
102
{ACAD_REACTORS
330
E50
102
}
330
E50
100
DictionaryVariables
280
     0
  1
STANDARD
  0
DICTIONARYVAR
  5
1C81
102
{ACAD_REACTORS
330
E50
102
}
330
E50
100
DictionaryVariables
280
     0
  1
STANDARD
  0
DICTIONARYVAR
  5
E51
102
{ACAD_REACTORS
330
E50
102
}
330
E50
100
DictionaryVariables
280
     0
  1
1
  0
DICTIONARYVAR
  5
1C85
102
{ACAD_REACTORS
330
E50
102
}
330
E50
100
DictionaryVariables
280
     0
  1
0
  0
DICTIONARYVAR
  5
1C83
102
{ACAD_REACTORS
330
E50
102
}
330
E50
100
DictionaryVariables
280
     0
  1
0
  0
DICTIONARYVAR
  5
1068
102
{ACAD_REACTORS
330
E50
102
}
330
E50
100
DictionaryVariables
280
     0
  1
96
  0
DICTIONARY
  5
1C1B
102
{ACAD_REACTORS
330
1C10
102
}
330
1C10
100
AcDbDictionary
281
     1
  0
DICTIONARY
  5
1B68
330
1B67
100
AcDbDictionary
280
     1
281
     1
  3
BUMPTILE
360
1B6A
  3
DIFFUSETILE
360
1B69
  3
OPACITYTILE
360
1B6D
  3
REFLECTIONTILE
360
1B6C
  3
REFRACTIONTILE
360
1B6E
  3
SPECULARTILE
360
1B6B
  0
DICTIONARY
  5
1B60
330
1B5F
100
AcDbDictionary
280
     1
281
     1
  3
BUMPTILE
360
1B62
  3
DIFFUSETILE
360
1B61
  3
OPACITYTILE
360
1B65
  3
REFLECTIONTILE
360
1B64
  3
REFRACTIONTILE
360
1B66
  3
SPECULARTILE
360
1B63
  0
DICTIONARY
  5
1B70
330
1B6F
100
AcDbDictionary
280
     1
281
     1
  3
BUMPTILE
360
1B72
  3
DIFFUSETILE
360
1B71
  3
OPACITYTILE
360
1B75
  3
REFLECTIONTILE
360
1B74
  3
REFRACTIONTILE
360
1B76
  3
SPECULARTILE
360
1B73
  0
DICTIONARY
  5
1C86
330
1B89
100
AcDbDictionary
280
     1
281
     1
  3
ACAD_ROUNDTRIP_2008_TABLESTYLE_CELLSTYLEMAP
360
1C87
  0
XRECORD
  5
1B6A
102
{ACAD_REACTORS
330
1B68
102
}
330
1B68
100
AcDbXrecord
280
     1
270
     1
271
     1
  0
XRECORD
  5
1B69
102
{ACAD_REACTORS
330
1B68
102
}
330
1B68
100
AcDbXrecord
280
     1
270
     1
271
     1
  0
XRECORD
  5
1B6D
102
{ACAD_REACTORS
330
1B68
102
}
330
1B68
100
AcDbXrecord
280
     1
270
     1
271
     1
  0
XRECORD
  5
1B6C
102
{ACAD_REACTORS
330
1B68
102
}
330
1B68
100
AcDbXrecord
280
     1
270
     1
271
     1
  0
XRECORD
  5
1B6E
102
{ACAD_REACTORS
330
1B68
102
}
330
1B68
100
AcDbXrecord
280
     1
270
     1
271
     1
  0
XRECORD
  5
1B6B
102
{ACAD_REACTORS
330
1B68
102
}
330
1B68
100
AcDbXrecord
280
     1
270
     1
271
     1
  0
XRECORD
  5
1B62
102
{ACAD_REACTORS
330
1B60
102
}
330
1B60
100
AcDbXrecord
280
     1
270
     1
271
     1
  0
XRECORD
  5
1B61
102
{ACAD_REACTORS
330
1B60
102
}
330
1B60
100
AcDbXrecord
280
     1
270
     1
271
     1
  0
XRECORD
  5
1B65
102
{ACAD_REACTORS
330
1B60
102
}
330
1B60
100
AcDbXrecord
280
     1
270
     1
271
     1
  0
XRECORD
  5
1B64
102
{ACAD_REACTORS
330
1B60
102
}
330
1B60
100
AcDbXrecord
280
     1
270
     1
271
     1
  0
XRECORD
  5
1B66
102
{ACAD_REACTORS
330
1B60
102
}
330
1B60
100
AcDbXrecord
280
     1
270
     1
271
     1
  0
XRECORD
  5
1B63
102
{ACAD_REACTORS
330
1B60
102
}
330
1B60
100
AcDbXrecord
280
     1
270
     1
271
     1
  0
XRECORD
  5
1B72
102
{ACAD_REACTORS
330
1B70
102
}
330
1B70
100
AcDbXrecord
280
     1
270
     1
271
     1
  0
XRECORD
  5
1B71
102
{ACAD_REACTORS
330
1B70
102
}
330
1B70
100
AcDbXrecord
280
     1
270
     1
271
     1
  0
XRECORD
  5
1B75
102
{ACAD_REACTORS
330
1B70
102
}
330
1B70
100
AcDbXrecord
280
     1
270
     1
271
     1
  0
XRECORD
  5
1B74
102
{ACAD_REACTORS
330
1B70
102
}
330
1B70
100
AcDbXrecord
280
     1
270
     1
271
     1
  0
XRECORD
  5
1B76
102
{ACAD_REACTORS
330
1B70
102
}
330
1B70
100
AcDbXrecord
280
     1
270
     1
271
     1
  0
XRECORD
  5
1B73
102
{ACAD_REACTORS
330
1B70
102
}
330
1B70
100
AcDbXrecord
280
     1
270
     1
271
     1
  0
CELLSTYLEMAP
  5
1C87
102
{ACAD_REACTORS
330
1C86
102
}
330
1C86
100
AcDbCellStyleMap
 90
        3
300
CELLSTYLE
  1
TABLEFORMAT_BEGIN
 90
        5
170
     1
 91
        0
 92
    32768
 62
   257
 93
        1
300
CONTENTFORMAT
  1
CONTENTFORMAT_BEGIN
 90
        0
 91
        0
 92
      512
 93
        0
300

 40
0.0
140
1.0
 94
        5
 62
     0
340
10
144
0.25
309
CONTENTFORMAT_END
171
     0
 94
        0
309
TABLEFORMAT_END
  1
CELLSTYLE_BEGIN
 90
        1
 91
        1
300
_TITLE
309
CELLSTYLE_END
300
CELLSTYLE
  1
TABLEFORMAT_BEGIN
 90
        5
170
     1
 91
        0
 92
        0
 62
   257
 93
        1
300
CONTENTFORMAT
  1
CONTENTFORMAT_BEGIN
 90
        0
 91
        0
 92
      512
 93
        0
300

 40
0.0
140
1.0
 94
        5
 62
     0
340
10
144
0.18
309
CONTENTFORMAT_END
171
     0
 94
        0
309
TABLEFORMAT_END
  1
CELLSTYLE_BEGIN
 90
        2
 91
        1
300
_HEADER
309
CELLSTYLE_END
300
CELLSTYLE
  1
TABLEFORMAT_BEGIN
 90
        5
170
     1
 91
        0
 92
        0
 62
   257
 93
        1
300
CONTENTFORMAT
  1
CONTENTFORMAT_BEGIN
 90
        0
 91
        0
 92
      512
 93
        0
300

 40
0.0
140
1.0
 94
        2
 62
     0
340
10
144
0.18
309
CONTENTFORMAT_END
171
     0
 94
        0
309
TABLEFORMAT_END
  1
CELLSTYLE_BEGIN
 90
        3
 91
        2
300
_DATA
309
CELLSTYLE_END
  0
ENDSEC
  0
EOF
