  0
SECTION
  2
HEADER
  9
$ACADVER
  1
AC1015
  9
$ACADMAINTVER
 70
     6
  9
$DWGCODEPAGE
  3
ANSI_1252
  9
$INSBASE
 10
0.0
 20
0.0
 30
0.0
  9
$EXTMIN
 10
-54.53236215297647
 20
-48.07171347097687
 30
-0.0000000349181948
  9
$EXTMAX
 10
131.2377483451712
 20
101.7075033839876
 30
0.0000000814935746
  9
$LIMMIN
 10
-170.0
 20
-170.0
  9
$LIMMAX
 10
519.0
 20
260.0
  9
$ORTHOMODE
 70
     0
  9
$REGENMODE
 70
     1
  9
$FILLMODE
 70
     1
  9
$QTEXTMODE
 70
     0
  9
$MIRRTEXT
 70
     0
  9
$LTSCALE
 40
1.0
  9
$ATTMODE
 70
     1
  9
$TEXTSIZE
 40
5.0
  9
$TRACEWID
 40
1.0
  9
$TEXTSTYLE
  7
STANDARD
  9
$CLAYER
  8
1
  9
$CELTYPE
  6
BYLAYER
  9
$CECOLOR
 62
   256
  9
$CELTSCALE
 40
1.0
  9
$DISPSILH
 70
     0
  9
$DIMSCALE
 40
1.0
  9
$DIMASZ
 40
2.5
  9
$DIMEXO
 40
0.0
  9
$DIMDLI
 40
3.75
  9
$DIMRND
 40
0.0
  9
$DIMDLE
 40
0.0
  9
$DIMEXE
 40
1.25
  9
$DIMTP
 40
0.0
  9
$DIMTM
 40
0.0
  9
$DIMTXT
 40
3.5
  9
$DIMCEN
 40
0.0
  9
$DIMTSZ
 40
0.0
  9
$DIMTOL
 70
     0
  9
$DIMLIM
 70
     0
  9
$DIMTIH
 70
     0
  9
$DIMTOH
 70
     0
  9
$DIMSE1
 70
     0
  9
$DIMSE2
 70
     0
  9
$DIMTAD
 70
     1
  9
$DIMZIN
 70
     8
  9
$DIMBLK
  1

  9
$DIMASO
 70
     1
  9
$DIMSHO
 70
     1
  9
$DIMPOST
  1

  9
$DIMAPOST
  1

  9
$DIMALT
 70
     0
  9
$DIMALTD
 70
     3
  9
$DIMALTF
 40
0.039370078
  9
$DIMLFAC
 40
1.0
  9
$DIMTOFL
 70
     0
  9
$DIMTVP
 40
0.0
  9
$DIMTIX
 70
     0
  9
$DIMSOXD
 70
     0
  9
$DIMSAH
 70
     0
  9
$DIMBLK1
  1

  9
$DIMBLK2
  1

  9
$DIMSTYLE
  2
STANDARD
  9
$DIMCLRD
 70
     0
  9
$DIMCLRE
 70
     0
  9
$DIMCLRT
 70
     0
  9
$DIMTFAC
 40
1.0
  9
$DIMGAP
 40
0.625
  9
$DIMJUST
 70
     0
  9
$DIMSD1
 70
     0
  9
$DIMSD2
 70
     0
  9
$DIMTOLJ
 70
     0
  9
$DIMTZIN
 70
     8
  9
$DIMALTZ
 70
     0
  9
$DIMALTTZ
 70
     0
  9
$DIMUPT
 70
     0
  9
$DIMDEC
 70
     2
  9
$DIMTDEC
 70
     2
  9
$DIMALTU
 70
     2
  9
$DIMALTTD
 70
     3
  9
$DIMTXSTY
  7
SIMPLEX
  9
$DIMAUNIT
 70
     0
  9
$DIMADEC
 70
     2
  9
$DIMALTRND
 40
0.0
  9
$DIMAZIN
 70
     2
  9
$DIMDSEP
 70
    46
  9
$DIMATFIT
 70
     3
  9
$DIMFRAC
 70
     0
  9
$DIMLDRBLK
  1

  9
$DIMLUNIT
 70
     2
  9
$DIMLWD
 70
    -2
  9
$DIMLWE
 70
    -2
  9
$DIMTMOVE
 70
     0
  9
$LUNITS
 70
     2
  9
$LUPREC
 70
     4
  9
$SKETCHINC
 40
1.0
  9
$FILLETRAD
 40
0.0
  9
$AUNITS
 70
     0
  9
$AUPREC
 70
     0
  9
$MENU
  1
c:\tdm21\cad\caduti13\tdm13
  9
$ELEVATION
 40
0.0
  9
$PELEVATION
 40
0.0
  9
$THICKNESS
 40
0.0
  9
$LIMCHECK
 70
     0
  9
$CHAMFERA
 40
0.0
  9
$CHAMFERB
 40
0.0
  9
$CHAMFERC
 40
0.0
  9
$CHAMFERD
 40
0.0
  9
$SKPOLY
 70
     0
  9
$TDCREATE
 40
2455549.386348912
  9
$TDUCREATE
 40
2455549.303015579
  9
$TDUPDATE
 40
2456206.647763171
  9
$TDUUPDATE
 40
2456206.564429838
  9
$TDINDWG
 40
0.0150050579
  9
$TDUSRTIMER
 40
2456206.563648148
  9
$USRTIMER
 70
     1
  9
$ANGBASE
 50
0.0
  9
$ANGDIR
 70
     0
  9
$PDMODE
 70
     1
  9
$PDSIZE
 40
0.0
  9
$PLINEWID
 40
0.0
  9
$SPLFRAME
 70
     0
  9
$SPLINETYPE
 70
     6
  9
$SPLINESEGS
 70
     8
  9
$HANDSEED
  5
1BD2
  9
$SURFTAB1
 70
     6
  9
$SURFTAB2
 70
     6
  9
$SURFTYPE
 70
     6
  9
$SURFU
 70
     6
  9
$SURFV
 70
     6
  9
$UCSBASE
  2

  9
$UCSNAME
  2

  9
$UCSORG
 10
0.0
 20
0.0
 30
0.0
  9
$UCSXDIR
 10
1.0
 20
0.0
 30
0.0
  9
$UCSYDIR
 10
0.0
 20
1.0
 30
0.0
  9
$UCSORTHOREF
  2

  9
$UCSORTHOVIEW
 70
     0
  9
$UCSORGTOP
 10
0.0
 20
0.0
 30
0.0
  9
$UCSORGBOTTOM
 10
0.0
 20
0.0
 30
0.0
  9
$UCSORGLEFT
 10
0.0
 20
0.0
 30
0.0
  9
$UCSORGRIGHT
 10
0.0
 20
0.0
 30
0.0
  9
$UCSORGFRONT
 10
0.0
 20
0.0
 30
0.0
  9
$UCSORGBACK
 10
0.0
 20
0.0
 30
0.0
  9
$PUCSBASE
  2

  9
$PUCSNAME
  2

  9
$PUCSORG
 10
0.0
 20
0.0
 30
0.0
  9
$PUCSXDIR
 10
1.0
 20
0.0
 30
0.0
  9
$PUCSYDIR
 10
0.0
 20
1.0
 30
0.0
  9
$PUCSORTHOREF
  2

  9
$PUCSORTHOVIEW
 70
     0
  9
$PUCSORGTOP
 10
0.0
 20
0.0
 30
0.0
  9
$PUCSORGBOTTOM
 10
0.0
 20
0.0
 30
0.0
  9
$PUCSORGLEFT
 10
0.0
 20
0.0
 30
0.0
  9
$PUCSORGRIGHT
 10
0.0
 20
0.0
 30
0.0
  9
$PUCSORGFRONT
 10
0.0
 20
0.0
 30
0.0
  9
$PUCSORGBACK
 10
0.0
 20
0.0
 30
0.0
  9
$USERI1
 70
     0
  9
$USERI2
 70
     0
  9
$USERI3
 70
     0
  9
$USERI4
 70
     0
  9
$USERI5
 70
     0
  9
$USERR1
 40
0.0
  9
$USERR2
 40
0.0
  9
$USERR3
 40
0.0
  9
$USERR4
 40
0.0
  9
$USERR5
 40
0.0
  9
$WORLDVIEW
 70
     1
  9
$SHADEDGE
 70
     3
  9
$SHADEDIF
 70
    70
  9
$TILEMODE
 70
     1
  9
$MAXACTVP
 70
    64
  9
$PINSBASE
 10
0.0
 20
0.0
 30
0.0
  9
$PLIMCHECK
 70
     0
  9
$PEXTMIN
 10
0.0
 20
0.0
 30
0.0
  9
$PEXTMAX
 10
0.0
 20
0.0
 30
0.0
  9
$PLIMMIN
 10
0.0
 20
0.0
  9
$PLIMMAX
 10
0.0
 20
0.0
  9
$UNITMODE
 70
     0
  9
$VISRETAIN
 70
     0
  9
$PLINEGEN
 70
     0
  9
$PSLTSCALE
 70
     1
  9
$TREEDEPTH
 70
  3020
  9
$CMLSTYLE
  2
STANDARD
  9
$CMLJUST
 70
     0
  9
$CMLSCALE
 40
20.0
  9
$PROXYGRAPHICS
 70
     1
  9
$MEASUREMENT
 70
     1
  9
$CELWEIGHT
370
    -1
  9
$ENDCAPS
280
     0
  9
$JOINSTYLE
280
     0
  9
$LWDISPLAY
290
     0
  9
$INSUNITS
 70
     4
  9
$HYPERLINKBASE
  1

  9
$STYLESHEET
  1
MONOCHROME.CTB
  9
$XEDIT
290
     1
  9
$CEPSNTYPE
380
     0
  9
$PSTYLEMODE
290
     1
  9
$FINGERPRINTGUID
  2
{302DDC7B-0572-43C3-A3E6-A2DE344D64F8}
  9
$VERSIONGUID
  2
{5E614DA8-EB81-4BAD-98C0-B7744AD9D007}
  9
$EXTNAMES
290
     1
  9
$PSVPSCALE
 40
0.0
  9
$OLESTARTUP
290
     0
  0
ENDSEC
  0
SECTION
  2
CLASSES
  0
CLASS
  1
ACDBDICTIONARYWDFLT
  2
AcDbDictionaryWithDefault
  3
ObjectDBX Classes
 90
        0
280
     0
281
     0
  0
CLASS
  1
ACDBPLACEHOLDER
  2
AcDbPlaceHolder
  3
ObjectDBX Classes
 90
        0
280
     0
281
     0
  0
CLASS
  1
LAYOUT
  2
AcDbLayout
  3
ObjectDBX Classes
 90
        0
280
     0
281
     0
  0
CLASS
  1
DICTIONARYVAR
  2
AcDbDictionaryVar
  3
ObjectDBX Classes
 90
        0
280
     0
281
     0
  0
CLASS
  1
TABLESTYLE
  2
AcDbTableStyle
  3
ObjectDBX Classes
 90
     4095
280
     0
281
     0
  0
CLASS
  1
DIMASSOC
  2
AcDbDimAssoc
  3
"AcDbDimAssoc|Product Desc:     AcDim ARX App For Dimension|Company:          Autodesk, Inc.|WEB Address:      www.autodesk.com"
 90
        0
280
     0
281
     0
  0
CLASS
  1
SORTENTSTABLE
  2
AcDbSortentsTable
  3
ObjectDBX Classes
 90
        0
280
     0
281
     0
  0
CLASS
  1
SCALE
  2
AcDbScale
  3
ObjectDBX Classes
 90
     1153
280
     0
281
     0
  0
CLASS
  1
RASTERVARIABLES
  2
AcDbRasterVariables
  3
ISM
 90
        0
280
     0
281
     0
  0
CLASS
  1
MATERIAL
  2
AcDbMaterial
  3
ObjectDBX Classes
 90
     1153
280
     0
281
     0
  0
CLASS
  1
VISUALSTYLE
  2
AcDbVisualStyle
  3
ObjectDBX Classes
 90
     4095
280
     0
281
     0
  0
ENDSEC
  0
SECTION
  2
TABLES
  0
TABLE
  2
VPORT
  5
8
330
0
100
AcDbSymbolTable
 70
     1
  0
VPORT
  5
181C
330
8
100
AcDbSymbolTableRecord
100
AcDbViewportTableRecord
  2
*Active
 70
     0
 10
0.0
 20
0.0
 11
1.0
 21
1.0
 12
52.75741262045398
 22
5.586660599587361
 13
0.0
 23
0.0
 14
5.0
 24
5.0
 15
5.0
 25
5.0
 16
0.0
 26
0.0
 36
1.0
 17
0.0
 27
0.0
 37
0.0
 40
164.97740055486
 41
1.35667107001321
 42
50.0
 43
0.0
 44
0.0
 50
0.0
 51
0.0
 71
    16
 72
  5000
 73
     1
 74
     1
 75
     0
 76
     0
 77
     0
 78
     0
281
     0
 65
     1
110
0.0
120
0.0
130
0.0
111
1.0
121
0.0
131
0.0
112
0.0
122
1.0
132
0.0
 79
     0
146
0.0
  0
ENDTAB
  0
TABLE
  2
LTYPE
  5
5
330
0
100
AcDbSymbolTable
 70
     7
  0
LTYPE
  5
12
330
5
100
AcDbSymbolTableRecord
100
AcDbLinetypeTableRecord
  2
BYBLOCK
 70
     0
  3

 72
    65
 73
     0
 40
0.0
  0
LTYPE
  5
13
330
5
100
AcDbSymbolTableRecord
100
AcDbLinetypeTableRecord
  2
BYLAYER
 70
     0
  3

 72
    65
 73
     0
 40
0.0
  0
LTYPE
  5
14
330
5
100
AcDbSymbolTableRecord
100
AcDbLinetypeTableRecord
  2
CONTINUOUS
 70
     0
  3
Solid line
 72
    65
 73
     0
 40
0.0
  0
LTYPE
  5
20
330
5
100
AcDbSymbolTableRecord
100
AcDbLinetypeTableRecord
  2
HIDDEN
 70
     0
  3
Hidden __ __ __ __ __ __ __ __ __ __ __ __ __ _
 72
    65
 73
     2
 40
9.524999999999997
 49
6.349999999999998
 74
     0
 49
-3.174999999999998
 74
     0
  0
LTYPE
  5
351
330
5
100
AcDbSymbolTableRecord
100
AcDbLinetypeTableRecord
  2
CENTER
 70
     0
  3
Dash dot __ . __ . __ . __ . __ . __ . __ . __
 72
    65
 73
     4
 40
25.4
 49
12.7
 74
     0
 49
-6.349999999999998
 74
     0
 49
0.0
 74
     0
 49
-6.349999999999998
 74
     0
  0
LTYPE
  5
471
330
5
100
AcDbSymbolTableRecord
100
AcDbLinetypeTableRecord
  2
AM_DIN_G_W050x2
 70
     0
  3
__ . __ . __ . __ . __ . __
 72
    65
 73
     4
 40
6.875
 49
4.75
 74
     0
 49
-0.875
 74
     0
 49
0.375
 74
     0
 49
-0.875
 74
     0
  0
LTYPE
  5
1132
330
5
100
AcDbSymbolTableRecord
100
AcDbLinetypeTableRecord
  2
DASHED
 70
     0
  3
__ __ __ __ __
 72
    65
 73
     2
 40
4.0
 49
2.0
 74
     0
 49
-2.0
 74
     0
  0
LTYPE
  5
1862
330
5
100
AcDbSymbolTableRecord
100
AcDbLinetypeTableRecord
  2
SK-CENTER
 70
     0
  3
Solid line
 72
    65
 73
     0
 40
0.0
  0
LTYPE
  5
18B3
330
5
100
AcDbSymbolTableRecord
100
AcDbLinetypeTableRecord
  2
DASHDOT
 70
     0
  3
__ . __ . __ . __ . __
 72
    65
 73
     4
 40
4.0
 49
2.0
 74
     0
 49
-0.9
 74
     0
 49
0.2
 74
     0
 49
-0.9
 74
     0
  0
ENDTAB
  0
TABLE
  2
LAYER
  5
2
102
{ACAD_XDICTIONARY
360
47B
102
}
330
0
100
AcDbSymbolTable
 70
    14
  0
LAYER
  5
F
330
2
100
AcDbSymbolTableRecord
100
AcDbLayerTableRecord
  2
0
 70
     0
 62
     7
  6
CONTINUOUS
370
    -3
390
300
  0
LAYER
  5
23
330
2
100
AcDbSymbolTableRecord
100
AcDbLayerTableRecord
  2
1
 70
     0
 62
     4
  6
CONTINUOUS
370
    50
390
300
  0
LAYER
  5
24
330
2
100
AcDbSymbolTableRecord
100
AcDbLayerTableRecord
  2
SK1
 70
     0
 62
     4
  6
CONTINUOUS
370
    50
390
300
  0
LAYER
  5
25
330
2
100
AcDbSymbolTableRecord
100
AcDbLayerTableRecord
  2
2
 70
     0
 62
     7
  6
CONTINUOUS
370
    25
390
300
  0
LAYER
  5
27
330
2
100
AcDbSymbolTableRecord
100
AcDbLayerTableRecord
  2
SK2
 70
     0
 62
     7
  6
CONTINUOUS
370
    25
390
300
  0
LAYER
  5
29
330
2
100
AcDbSymbolTableRecord
100
AcDbLayerTableRecord
  2
SK3
 70
     0
 62
     1
  6
HIDDEN
370
    35
390
300
  0
LAYER
  5
2A
330
2
100
AcDbSymbolTableRecord
100
AcDbLayerTableRecord
  2
4
 70
     0
 62
     2
  6
AM_DIN_G_W050x2
370
    25
390
300
  0
LAYER
  5
2F
330
2
100
AcDbSymbolTableRecord
100
AcDbLayerTableRecord
  2
DEFPOINTS
 70
     0
 62
     7
  6
CONTINUOUS
290
     0
370
    -3
390
300
  0
LAYER
  5
376
330
2
100
AcDbSymbolTableRecord
100
AcDbLayerTableRecord
  2
NOCUT
 70
     0
 62
     7
  6
CONTINUOUS
370
    25
390
300
  0
LAYER
  5
472
330
2
100
AcDbSymbolTableRecord
100
AcDbLayerTableRecord
  2
INFTOTAL
 70
     0
 62
     9
  6
CONTINUOUS
290
     0
370
    18
390
300
1001
AcAecLayerStandard
1000

1000

  0
LAYER
  5
473
330
2
100
AcDbSymbolTableRecord
100
AcDbLayerTableRecord
  2
INFTEXT63
 70
     0
 62
     5
  6
CONTINUOUS
370
    -3
390
300
1001
AcAecLayerStandard
1000

1000

  0
LAYER
  5
1861
330
2
100
AcDbSymbolTableRecord
100
AcDbLayerTableRecord
  2
SK4
 70
     0
 62
     2
  6
AM_DIN_G_W050x2
370
    -3
390
2FF
  0
LAYER
  5
187E
330
2
100
AcDbSymbolTableRecord
100
AcDbLayerTableRecord
  2
SK6
 70
     0
 62
     5
  6
CONTINUOUS
370
    -3
390
2FF
  0
LAYER
  5
18B2
330
2
100
AcDbSymbolTableRecord
100
AcDbLayerTableRecord
  2
LC-011-006-MLN-0
 70
     0
 62
     2
  6
CENTER
370
    -3
390
2FF
  0
ENDTAB
  0
TABLE
  2
STYLE
  5
3
330
0
100
AcDbSymbolTable
 70
    10
  0
STYLE
  5
10
330
3
100
AcDbSymbolTableRecord
100
AcDbTextStyleTableRecord
  2
STANDARD
 70
     0
 40
3.5
 41
1.0
 50
0.0
 71
     0
 42
5.0
  3
monos.ttf
  4

1001
ACAD
1000
Monospac821 BT
1071
       49
  0
STYLE
  5
1D
330
3
100
AcDbSymbolTableRecord
100
AcDbTextStyleTableRecord
  2
TXT
 70
     0
 40
8.0
 41
1.0
 50
0.0
 71
     0
 42
8.0
  3
txt
  4

  0
STYLE
  5
1E
330
3
100
AcDbSymbolTableRecord
100
AcDbTextStyleTableRecord
  2
SIMPLEX
 70
     0
 40
0.0
 41
1.0
 50
0.0
 71
     0
 42
3.5
  3
simplex
  4

  0
STYLE
  5
34C
330
3
100
AcDbSymbolTableRecord
100
AcDbTextStyleTableRecord
  2

 70
     1
 40
0.0
 41
1.0
 50
0.0
 71
     0
 42
2.5
  3
ltypeshp.shx
  4

  0
STYLE
  5
394
330
3
100
AcDbSymbolTableRecord
100
AcDbTextStyleTableRecord
  2
Arial
 70
     0
 40
0.0
 41
1.0
 50
0.0
 71
     0
 42
3.5
  3
ARIAL.TTF
  4

1001
ACAD
1000
Arial
1071
       34
  0
STYLE
  5
187F
330
3
100
AcDbSymbolTableRecord
100
AcDbTextStyleTableRecord
  2
LC-TXTSTYLE-0-400-0-0-DIN-Schrift
 70
     0
 40
0.0
 41
1.0
 50
0.0
 71
     0
 42
3.5
  3
MONOTXT
  4

  0
STYLE
  5
1896
330
3
100
AcDbSymbolTableRecord
100
AcDbTextStyleTableRecord
  2
LC-TXTSTYLE-150-400-0-0-DIN-Schrift
 70
     0
 40
0.0
 41
1.0
 50
15.0
 71
     0
 42
3.5
  3
MONOTXT
  4

  0
STYLE
  5
18B6
330
3
100
AcDbSymbolTableRecord
100
AcDbTextStyleTableRecord
  2
LC-TXTSTYLE-150-400-0-0-Normschrift nach DIN 6776
 70
     0
 40
0.0
 41
1.0
 50
15.0
 71
     0
 42
3.5
  3
MONOTXT
  4

  0
STYLE
  5
18EC
330
3
100
AcDbSymbolTableRecord
100
AcDbTextStyleTableRecord
  2
LC-TXTSTYLE-0-400-0-0-Normschrift nach DIN 6776
 70
     0
 40
0.0
 41
1.0
 50
0.0
 71
     0
 42
3.5
  3
MONOTXT
  4

  0
STYLE
  5
1BAD
330
3
100
AcDbSymbolTableRecord
100
AcDbTextStyleTableRecord
  2
BMG_Text
 70
     0
 40
3.5
 41
1.0
 50
0.0
 71
     0
 42
0.2
  3
monos.ttf
  4

1001
ACAD
1000
Monospac821 BT
1071
       49
  0
ENDTAB
  0
TABLE
  2
VIEW
  5
6
330
0
100
AcDbSymbolTable
 70
     0
  0
ENDTAB
  0
TABLE
  2
UCS
  5
7
330
0
100
AcDbSymbolTable
 70
     0
  0
ENDTAB
  0
TABLE
  2
APPID
  5
9
330
0
100
AcDbSymbolTable
 70
    15
  0
APPID
  5
11
330
9
100
AcDbSymbolTableRecord
100
AcDbRegAppTableRecord
  2
ACAD
 70
     0
  0
APPID
  5
3A6
330
9
100
AcDbSymbolTableRecord
100
AcDbRegAppTableRecord
  2
ACAD_PSEXT
 70
     0
  0
APPID
  5
3A8
330
9
100
AcDbSymbolTableRecord
100
AcDbRegAppTableRecord
  2
ACAD_EXEMPT_FROM_CAD_STANDARDS
 70
     0
  0
APPID
  5
476
330
9
100
AcDbSymbolTableRecord
100
AcDbRegAppTableRecord
  2
AcAecLayerStandard
 70
     0
  0
APPID
  5
477
330
9
100
AcDbSymbolTableRecord
100
AcDbRegAppTableRecord
  2
ACAD_DSTYLE_DIMEXT_LENGTH
 70
     0
  0
APPID
  5
478
330
9
100
AcDbSymbolTableRecord
100
AcDbRegAppTableRecord
  2
ACAD_DSTYLE_DIMEXT_ENABLED
 70
     0
  0
APPID
  5
479
330
9
100
AcDbSymbolTableRecord
100
AcDbRegAppTableRecord
  2
ACAD_DSTYLE_DIMJOGGED_JOGANGLE_SYMBOL
 70
     0
  0
APPID
  5
47A
330
9
100
AcDbSymbolTableRecord
100
AcDbRegAppTableRecord
  2
ACAD_DSTYLE_DIMARC_LENGTH_SYMBOL
 70
     0
  0
APPID
  5
631
330
9
100
AcDbSymbolTableRecord
100
AcDbRegAppTableRecord
  2
ACAD_DSTYLE_DIMTEXT_FILL
 70
     0
  0
APPID
  5
634
330
9
100
AcDbSymbolTableRecord
100
AcDbRegAppTableRecord
  2
ACAD_DSTYLE_DIM_LINETYPE
 70
     0
  0
APPID
  5
635
330
9
100
AcDbSymbolTableRecord
100
AcDbRegAppTableRecord
  2
ACAD_DSTYLE_DIM_EXT1_LINETYPE
 70
     0
  0
APPID
  5
636
330
9
100
AcDbSymbolTableRecord
100
AcDbRegAppTableRecord
  2
ACAD_DSTYLE_DIM_EXT2_LINETYPE
 70
     0
  0
APPID
  5
10B9
330
9
100
AcDbSymbolTableRecord
100
AcDbRegAppTableRecord
  2
DCO15
 70
     0
  0
APPID
  5
1BD0
330
9
100
AcDbSymbolTableRecord
100
AcDbRegAppTableRecord
  2
ACAD_DSTYLE_DIMFLIPARROW_SYMBOL
 70
     0
  0
APPID
  5
1BD1
330
9
100
AcDbSymbolTableRecord
100
AcDbRegAppTableRecord
  2
ACAD_DSTYLE_DIMFLIPARROW_WHICH_SYMBOL
 70
     0
  0
ENDTAB
  0
TABLE
  2
DIMSTYLE
  5
A
330
0
100
AcDbSymbolTable
 70
     7
100
AcDbDimStyleTable
  0
DIMSTYLE
105
3F
102
{ACAD_REACTORS
330
1B67
330
1B81
102
}
330
A
100
AcDbSymbolTableRecord
100
AcDbDimStyleTableRecord
  2
STANDARD
 70
     0
 41
2.5
 42
0.0
 43
3.75
 44
1.25
 73
     0
 74
     0
 77
     1
 78
     8
 79
     2
140
3.5
141
0.0
143
0.039370078
147
0.625
171
     3
178
     0
179
     2
271
     2
272
     2
274
     3
283
     0
284
     8
340
1E
  0
DIMSTYLE
105
474
330
A
100
AcDbSymbolTableRecord
100
AcDbDimStyleTableRecord
  2
ISO-25
 70
     0
 41
2.5
 42
0.625
 43
3.75
 44
1.25
 73
     0
 74
     0
 77
     1
 78
     8
140
3.5
141
2.5
143
0.03937007874016
147
0.625
171
     3
172
     1
178
     0
271
     2
272
     2
274
     3
278
    44
283
     0
284
     8
340
10
  0
DIMSTYLE
105
475
102
{ACAD_REACTORS
330
1ABD
330
1AAF
330
1AA1
330
1A93
330
1A85
330
1A62
330
1A54
330
1A46
330
1A30
102
}
330
A
100
AcDbSymbolTableRecord
100
AcDbDimStyleTableRecord
  2
BMG
 70
     0
 41
4.57
 42
0.0
 43
2.379999999999999
 44
5.0
 47
0.3
 48
0.3
 73
     0
 74
     0
 78
     9
 79
     2
140
3.5
141
0.0
147
1.0
271
     2
178
     7
271
     2
272
     2
284
     8
340
10
341
412
342
412
  0
DIMSTYLE
105
10B7
330
A
100
AcDbSymbolTableRecord
100
AcDbDimStyleTableRecord
  2
OLYAMM
 70
     0
 41
2.0
 42
0.625
 43
5.0
 44
1.0
 73
     0
 74
     0
 77
     1
 78
     8
140
2.0
141
0.0
143
0.03937007874016
147
0.625
171
     3
172
     1
176
   256
177
   256
178
   256
274
     3
279
     2
284
     8
285
     8
286
     8
340
10
  0
DIMSTYLE
105
10B8
330
A
100
AcDbSymbolTableRecord
100
AcDbDimStyleTableRecord
  2
NC2
 70
     0
 41
2.5
 42
0.0
 43
8.0
 44
1.25
 46
0.1
 73
     0
 74
     0
 77
     1
 78
     8
140
2.5
141
0.0
146
0.7143
147
1.0
172
     1
174
     1
178
     3
273
     8
274
     4
277
     6
340
10
343
10AF
344
10B3
  0
DIMSTYLE
105
1895
330
A
100
AcDbSymbolTableRecord
100
AcDbDimStyleTableRecord
  2
LC-DIM-L-0035-03-02
 70
     0
 41
3.5
 42
0.0
 43
7.5
 44
1.8
 73
     0
 74
     0
 77
     1
 78
     8
140
3.5
141
0.0
146
0.71
147
1.5
176
     2
177
     2
271
     3
178
     3
271
     3
340
1896
  0
DIMSTYLE
105
18B5
330
A
100
AcDbSymbolTableRecord
100
AcDbDimStyleTableRecord
  2
LC-DIM-L-0035-02-02
 70
     0
 41
3.5
 42
0.0
 43
7.5
 44
1.8
 73
     0
 74
     0
 77
     1
 78
     8
140
3.5
141
0.0
146
0.71
147
1.5
176
     2
177
     2
271
     2
178
     3
271
     2
340
18B6
  0
ENDTAB
  0
TABLE
  2
BLOCK_RECORD
  5
1
330
0
100
AcDbSymbolTable
 70
    46
  0
BLOCK_RECORD
  5
18
330
1
100
AcDbSymbolTableRecord
100
AcDbBlockTableRecord
  2
*MODEL_SPACE
340
303
  0
BLOCK_RECORD
  5
338
330
1
100
AcDbSymbolTableRecord
100
AcDbBlockTableRecord
  2
*Paper_Space
340
33B
  0
BLOCK_RECORD
  5
412
330
1
100
AcDbSymbolTableRecord
100
AcDbBlockTableRecord
  2
_ARROW_FILLED
340
0
102
{BLKREFS
331
14EC
331
14ED
331
14F9
331
14FA
331
1506
331
1507
331
1513
331
1514
331
1520
331
1521
331
152D
331
152E
331
153A
331
153B
331
1547
331
1548
331
1554
331
1555
331
1561
331
1562
331
156F
331
1570
331
177D
331
177E
331
1787
331
1788
331
17F2
331
17F3
331
17FC
331
17FD
331
17A5
331
17A6
331
1806
331
1807
331
17B9
331
17BA
331
17C3
331
17C4
331
1810
331
1811
331
17D7
331
17D8
331
17E2
331
17E3
331
189D
331
189E
331
18BD
331
18BE
331
18D7
331
18D8
331
18E5
331
18E6
331
1908
331
1909
331
1916
331
1917
331
1923
331
1924
331
1930
331
1931
331
193D
331
193E
331
1A3E
331
1A3F
331
1A4D
331
1A4E
331
1A5B
331
1A5C
331
1A6A
331
1A6B
331
1A8C
331
1A8D
331
1A9A
331
1A9B
331
1AA8
331
1AA9
331
1AB6
331
1AB7
331
1AC4
331
1AC5
102
}
  0
BLOCK_RECORD
  5
10AF
330
1
100
AcDbSymbolTableRecord
100
AcDbBlockTableRecord
  2
BLK1
340
0
  0
BLOCK_RECORD
  5
10B3
330
1
100
AcDbSymbolTableRecord
100
AcDbBlockTableRecord
  2
BLK2
340
0
  0
BLOCK_RECORD
  5
14E6
330
1
100
AcDbSymbolTableRecord
100
AcDbBlockTableRecord
  2
*D3
340
0
  0
BLOCK_RECORD
  5
14F3
330
1
100
AcDbSymbolTableRecord
100
AcDbBlockTableRecord
  2
*D4
340
0
  0
BLOCK_RECORD
  5
1500
330
1
100
AcDbSymbolTableRecord
100
AcDbBlockTableRecord
  2
*D5
340
0
  0
BLOCK_RECORD
  5
150D
330
1
100
AcDbSymbolTableRecord
100
AcDbBlockTableRecord
  2
*D6
340
0
  0
BLOCK_RECORD
  5
151A
330
1
100
AcDbSymbolTableRecord
100
AcDbBlockTableRecord
  2
*D7
340
0
  0
BLOCK_RECORD
  5
1527
330
1
100
AcDbSymbolTableRecord
100
AcDbBlockTableRecord
  2
*D8
340
0
  0
BLOCK_RECORD
  5
1534
330
1
100
AcDbSymbolTableRecord
100
AcDbBlockTableRecord
  2
*D9
340
0
  0
BLOCK_RECORD
  5
1541
330
1
100
AcDbSymbolTableRecord
100
AcDbBlockTableRecord
  2
*D10
340
0
  0
BLOCK_RECORD
  5
154E
330
1
100
AcDbSymbolTableRecord
100
AcDbBlockTableRecord
  2
*D11
340
0
  0
BLOCK_RECORD
  5
155B
330
1
100
AcDbSymbolTableRecord
100
AcDbBlockTableRecord
  2
*D12
340
0
  0
BLOCK_RECORD
  5
1569
330
1
100
AcDbSymbolTableRecord
100
AcDbBlockTableRecord
  2
*D13
340
0
  0
BLOCK_RECORD
  5
1674
330
1
100
AcDbSymbolTableRecord
100
AcDbBlockTableRecord
  2
*D14
340
0
  0
BLOCK_RECORD
  5
1681
330
1
100
AcDbSymbolTableRecord
100
AcDbBlockTableRecord
  2
*D15
340
0
  0
BLOCK_RECORD
  5
168E
330
1
100
AcDbSymbolTableRecord
100
AcDbBlockTableRecord
  2
*D16
340
0
  0
BLOCK_RECORD
  5
169B
330
1
100
AcDbSymbolTableRecord
100
AcDbBlockTableRecord
  2
*D17
340
0
  0
BLOCK_RECORD
  5
16A8
330
1
100
AcDbSymbolTableRecord
100
AcDbBlockTableRecord
  2
*D18
340
0
  0
BLOCK_RECORD
  5
16B5
330
1
100
AcDbSymbolTableRecord
100
AcDbBlockTableRecord
  2
*D19
340
0
  0
BLOCK_RECORD
  5
16C2
330
1
100
AcDbSymbolTableRecord
100
AcDbBlockTableRecord
  2
*D20
340
0
  0
BLOCK_RECORD
  5
16CF
330
1
100
AcDbSymbolTableRecord
100
AcDbBlockTableRecord
  2
*D21
340
0
  0
BLOCK_RECORD
  5
16DC
330
1
100
AcDbSymbolTableRecord
100
AcDbBlockTableRecord
  2
*D22
340
0
  0
BLOCK_RECORD
  5
16E9
330
1
100
AcDbSymbolTableRecord
100
AcDbBlockTableRecord
  2
*D23
340
0
  0
BLOCK_RECORD
  5
16F7
330
1
100
AcDbSymbolTableRecord
100
AcDbBlockTableRecord
  2
*D24
340
0
  0
BLOCK_RECORD
  5
1897
330
1
100
AcDbSymbolTableRecord
100
AcDbBlockTableRecord
  2
*D25
340
0
  0
BLOCK_RECORD
  5
18B7
330
1
100
AcDbSymbolTableRecord
100
AcDbBlockTableRecord
  2
*D26
340
0
  0
BLOCK_RECORD
  5
18D1
330
1
100
AcDbSymbolTableRecord
100
AcDbBlockTableRecord
  2
*D27
340
0
  0
BLOCK_RECORD
  5
18DF
330
1
100
AcDbSymbolTableRecord
100
AcDbBlockTableRecord
  2
*D28
340
0
  0
BLOCK_RECORD
  5
1902
330
1
100
AcDbSymbolTableRecord
100
AcDbBlockTableRecord
  2
*D29
340
0
  0
BLOCK_RECORD
  5
1910
330
1
100
AcDbSymbolTableRecord
100
AcDbBlockTableRecord
  2
*D30
340
0
  0
BLOCK_RECORD
  5
191D
330
1
100
AcDbSymbolTableRecord
100
AcDbBlockTableRecord
  2
*D31
340
0
  0
BLOCK_RECORD
  5
192A
330
1
100
AcDbSymbolTableRecord
100
AcDbBlockTableRecord
  2
*D32
340
0
  0
BLOCK_RECORD
  5
1937
330
1
100
AcDbSymbolTableRecord
100
AcDbBlockTableRecord
  2
*D33
340
0
  0
BLOCK_RECORD
  5
1A38
330
1
100
AcDbSymbolTableRecord
100
AcDbBlockTableRecord
  2
*D34
340
0
  0
BLOCK_RECORD
  5
1A47
330
1
100
AcDbSymbolTableRecord
100
AcDbBlockTableRecord
  2
*D35
340
0
  0
BLOCK_RECORD
  5
1A55
330
1
100
AcDbSymbolTableRecord
100
AcDbBlockTableRecord
  2
*D36
340
0
  0
BLOCK_RECORD
  5
1A64
330
1
100
AcDbSymbolTableRecord
100
AcDbBlockTableRecord
  2
*D37
340
0
  0
BLOCK_RECORD
  5
1A86
330
1
100
AcDbSymbolTableRecord
100
AcDbBlockTableRecord
  2
*D38
340
0
  0
BLOCK_RECORD
  5
1A94
330
1
100
AcDbSymbolTableRecord
100
AcDbBlockTableRecord
  2
*D39
340
0
  0
BLOCK_RECORD
  5
1AA2
330
1
100
AcDbSymbolTableRecord
100
AcDbBlockTableRecord
  2
*D40
340
0
  0
BLOCK_RECORD
  5
1AB0
330
1
100
AcDbSymbolTableRecord
100
AcDbBlockTableRecord
  2
*D41
340
0
  0
BLOCK_RECORD
  5
1ABE
330
1
100
AcDbSymbolTableRecord
100
AcDbBlockTableRecord
  2
*D42
340
0
  0
BLOCK_RECORD
  5
1B6A
330
1
100
AcDbSymbolTableRecord
100
AcDbBlockTableRecord
  2
*D43
340
0
  0
BLOCK_RECORD
  5
1B84
330
1
100
AcDbSymbolTableRecord
100
AcDbBlockTableRecord
  2
*D44
340
0
  0
ENDTAB
  0
ENDSEC
  0
SECTION
  2
BLOCKS
  0
BLOCK
  5
32
330
18
100
AcDbEntity
  8
0
100
AcDbBlockBegin
  2
*MODEL_SPACE
 70
     0
 10
0.0
 20
0.0
 30
0.0
  3
*MODEL_SPACE
  1

  0
ENDBLK
  5
33
330
18
100
AcDbEntity
  8
0
100
AcDbBlockEnd
  0
BLOCK
  5
339
330
338
100
AcDbEntity
 67
     1
  8
0
100
AcDbBlockBegin
  2
*Paper_Space
 70
     0
 10
0.0
 20
0.0
 30
0.0
  3
*Paper_Space
  1

  0
ENDBLK
  5
33A
330
338
100
AcDbEntity
 67
     1
  8
0
100
AcDbBlockEnd
  0
BLOCK
  5
413
330
412
100
AcDbEntity
  8
0
100
AcDbBlockBegin
  2
_ARROW_FILLED
 70
     0
 10
0.0
 20
0.0
 30
0.0
  3
_ARROW_FILLED
  1

  0
SOLID
  5
414
330
412
100
AcDbEntity
  8
0
  6
ByBlock
 62
     0
100
AcDbTrace
 10
0.0
 20
0.0
 30
0.0
 11
-1.0
 21
0.1428571429
 31
0.0
 12
-1.0
 22
-0.1428571429
 32
0.0
 13
-1.0
 23
-0.1428571429
 33
0.0
  0
ENDBLK
  5
415
330
412
100
AcDbEntity
  8
0
  6
ByBlock
 62
     0
100
AcDbBlockEnd
  0
BLOCK
  5
10B0
330
10AF
100
AcDbEntity
  8
0
100
AcDbBlockBegin
  2
BLK1
 70
     0
 10
11.0
 20
10.0
 30
0.0
  3
BLK1
  1
BLK1
  0
LINE
  5
10B1
330
10AF
100
AcDbEntity
  8
0
 62
     0
100
AcDbLine
 10
10.0
 20
10.0
 30
0.0
 11
12.0
 21
10.0
 31
0.0
  0
ENDBLK
  5
10B2
330
10AF
100
AcDbEntity
  8
0
100
AcDbBlockEnd
  0
BLOCK
  5
10B4
330
10B3
100
AcDbEntity
  8
0
100
AcDbBlockBegin
  2
BLK2
 70
     0
 10
10.0
 20
10.0
 30
0.0
  3
BLK2
  1
BLK2
  0
SOLID
  5
10B5
330
10B3
100
AcDbEntity
  8
0
 62
     0
100
AcDbTrace
 10
10.0
 20
10.0
 30
0.0
 11
9.0
 21
10.1667
 31
0.0
 12
9.0
 22
9.83333
 32
0.0
 13
9.0
 23
9.83333
 33
0.0
  0
ENDBLK
  5
10B6
330
10B3
100
AcDbEntity
  8
0
100
AcDbBlockEnd
  0
BLOCK
  5
14E7
330
14E6
100
AcDbEntity
  8
0
100
AcDbBlockBegin
  2
*D3
 70
     1
 10
0.0
 20
0.0
 30
0.0
  3
*D3
  1

  0
LINE
  5
14E8
330
14E6
100
AcDbEntity
  8
SK2
 62
     0
370
    -2
100
AcDbLine
 10
649.8774949015404
 20
583.3372188959405
 30
0.0
 11
598.6438749015404
 21
583.3372188959405
 31
0.0
  0
LINE
  5
14E9
330
14E6
100
AcDbEntity
  8
SK2
 62
     0
370
    -2
100
AcDbLine
 10
649.8774949015404
 20
646.3372188959405
 30
0.0
 11
598.6438749015404
 21
646.3372188959405
 31
0.0
  0
LINE
  5
14EA
330
14E6
100
AcDbEntity
  8
SK2
 62
     0
370
    -2
100
AcDbLine
 10
603.6438749015404
 20
587.9072188959404
 30
0.0
 11
603.6438749015404
 21
609.5267831967134
 31
0.0
  0
LINE
  5
14EB
330
14E6
100
AcDbEntity
  8
SK2
 62
     0
370
    -2
100
AcDbLine
 10
603.6438749015404
 20
641.7672188959405
 30
0.0
 11
603.6438749015404
 21
620.1476545951675
 31
0.0
  0
INSERT
  5
14EC
330
14E6
100
AcDbEntity
  8
SK2
 62
     0
370
    -2
100
AcDbBlockReference
  2
_ARROW_FILLED
 10
603.6438749015404
 20
583.3372188959405
 30
0.0
 41
4.57
 42
4.57
 43
4.57
 50
270.0
  0
INSERT
  5
14ED
330
14E6
100
AcDbEntity
  8
SK2
 62
     0
370
    -2
100
AcDbBlockReference
  2
_ARROW_FILLED
 10
603.6438749015404
 20
646.3372188959405
 30
0.0
 41
4.57
 42
4.57
 43
4.57
 50
90.0
  0
MTEXT
  5
14EE
330
14E6
100
AcDbEntity
  8
SK2
 62
     7
100
AcDbMText
 10
603.6438749015402
 20
614.8372188959406
 30
0.0
 40
3.5
 41
0.0
 71
     5
 72
     1
  1
\A1;%%c63
 11
1.000000000000000E-16
 21
1.0
 31
0.0
 73
     1
 44
1.0
  0
POINT
  5
14EF
330
14E6
100
AcDbEntity
  8
DEFPOINTS
 62
     0
100
AcDbPoint
 10
649.8774949015404
 20
583.3372188959405
 30
0.0
  0
POINT
  5
14F0
330
14E6
100
AcDbEntity
  8
DEFPOINTS
 62
     0
100
AcDbPoint
 10
649.8774949015404
 20
646.3372188959405
 30
0.0
  0
POINT
  5
14F1
330
14E6
100
AcDbEntity
  8
DEFPOINTS
 62
     0
100
AcDbPoint
 10
603.6438749015404
 20
646.3372188959405
 30
0.0
  0
ENDBLK
  5
14F2
330
14E6
100
AcDbEntity
  8
0
100
AcDbBlockEnd
  0
BLOCK
  5
14F4
330
14F3
100
AcDbEntity
  8
0
100
AcDbBlockBegin
  2
*D4
 70
     1
 10
0.0
 20
0.0
 30
0.0
  3
*D4
  1

  0
LINE
  5
14F5
330
14F3
100
AcDbEntity
  8
SK2
 62
     0
370
    -2
100
AcDbLine
 10
617.8774949015404
 20
636.4107198959406
 30
0.0
 11
617.8774949015404
 21
661.8062188959404
 31
0.0
  0
LINE
  5
14F6
330
14F3
100
AcDbEntity
  8
SK2
 62
     0
370
    -2
100
AcDbLine
 10
649.8774949015404
 20
646.3372188959405
 30
0.0
 11
649.8774949015404
 21
661.8062188959404
 31
0.0
  0
LINE
  5
14F7
330
14F3
100
AcDbEntity
  8
SK2
 62
     0
370
    -2
100
AcDbLine
 10
622.4474949015406
 20
656.8062188959404
 30
0.0
 11
630.1387387525594
 21
656.8062188959404
 31
0.0
  0
LINE
  5
14F8
330
14F3
100
AcDbEntity
  8
SK2
 62
     0
370
    -2
100
AcDbLine
 10
645.3074949015404
 20
656.8062188959404
 30
0.0
 11
637.6162510505216
 21
656.8062188959404
 31
0.0
  0
INSERT
  5
14F9
330
14F3
100
AcDbEntity
  8
SK2
 62
     0
370
    -2
100
AcDbBlockReference
  2
_ARROW_FILLED
 10
617.8774949015404
 20
656.8062188959404
 30
0.0
 41
4.57
 42
4.57
 43
4.57
 50
180.0
  0
INSERT
  5
14FA
330
14F3
100
AcDbEntity
  8
SK2
 62
     0
370
    -2
100
AcDbBlockReference
  2
_ARROW_FILLED
 10
649.8774949015404
 20
656.8062188959404
 30
0.0
 41
4.57
 42
4.57
 43
4.57
  0
MTEXT
  5
14FB
330
14F3
100
AcDbEntity
  8
SK2
 62
     7
100
AcDbMText
 10
633.8774949015404
 20
656.8062188959404
 30
0.0
 40
3.5
 41
0.0
 71
     5
 72
     1
  1
\A1;32
 73
     1
 44
1.0
  0
POINT
  5
14FC
330
14F3
100
AcDbEntity
  8
DEFPOINTS
 62
     0
100
AcDbPoint
 10
617.8774949015404
 20
636.4107198959406
 30
0.0
  0
POINT
  5
14FD
330
14F3
100
AcDbEntity
  8
DEFPOINTS
 62
     0
100
AcDbPoint
 10
649.8774949015404
 20
646.3372188959405
 30
0.0
  0
POINT
  5
14FE
330
14F3
100
AcDbEntity
  8
DEFPOINTS
 62
     0
100
AcDbPoint
 10
649.8774949015404
 20
656.8062188959404
 30
0.0
  0
ENDBLK
  5
14FF
330
14F3
100
AcDbEntity
  8
0
100
AcDbBlockEnd
  0
BLOCK
  5
1501
330
1500
100
AcDbEntity
  8
0
100
AcDbBlockBegin
  2
*D5
 70
     1
 10
0.0
 20
0.0
 30
0.0
  3
*D5
  1

  0
LINE
  5
1502
330
1500
100
AcDbEntity
  8
SK2
 62
     0
370
    -2
100
AcDbLine
 10
617.8774949015404
 20
636.4107198959406
 30
0.0
 11
617.8774949015404
 21
706.0583651673076
 31
0.0
  0
LINE
  5
1503
330
1500
100
AcDbEntity
  8
SK2
 62
     0
370
    -2
100
AcDbLine
 10
744.8774949015406
 20
627.3372188959405
 30
0.0
 11
744.8774949015406
 21
706.0583651673076
 31
0.0
  0
LINE
  5
1504
330
1500
100
AcDbEntity
  8
SK2
 62
     0
370
    -2
100
AcDbLine
 10
622.4474949015406
 20
701.0583651673076
 30
0.0
 11
678.9762208897417
 21
701.0583651673076
 31
0.0
  0
LINE
  5
1505
330
1500
100
AcDbEntity
  8
SK2
 62
     0
370
    -2
100
AcDbLine
 10
740.3074949015405
 20
701.0583651673076
 30
0.0
 11
689.1666636163754
 21
701.0583651673076
 31
0.0
  0
INSERT
  5
1506
330
1500
100
AcDbEntity
  8
SK2
 62
     0
370
    -2
100
AcDbBlockReference
  2
_ARROW_FILLED
 10
617.8774949015404
 20
701.0583651673076
 30
0.0
 41
4.57
 42
4.57
 43
4.57
 50
180.0
  0
INSERT
  5
1507
330
1500
100
AcDbEntity
  8
SK2
 62
     0
370
    -2
100
AcDbBlockReference
  2
_ARROW_FILLED
 10
744.8774949015406
 20
701.0583651673076
 30
0.0
 41
4.57
 42
4.57
 43
4.57
  0
MTEXT
  5
1508
330
1500
100
AcDbEntity
  8
SK2
 62
     7
100
AcDbMText
 10
684.0714422530586
 20
701.0583651673076
 30
0.0
 40
3.5
 41
0.0
 71
     5
 72
     1
  1
\A1;127
 73
     1
 44
1.0
  0
POINT
  5
1509
330
1500
100
AcDbEntity
  8
DEFPOINTS
 62
     0
100
AcDbPoint
 10
617.8774949015404
 20
636.4107198959406
 30
0.0
  0
POINT
  5
150A
330
1500
100
AcDbEntity
  8
DEFPOINTS
 62
     0
100
AcDbPoint
 10
744.8774949015406
 20
627.3372188959405
 30
0.0
  0
POINT
  5
150B
330
1500
100
AcDbEntity
  8
DEFPOINTS
 62
     0
100
AcDbPoint
 10
744.8774949015406
 20
701.0583651673076
 30
0.0
  0
ENDBLK
  5
150C
330
1500
100
AcDbEntity
  8
0
100
AcDbBlockEnd
  0
BLOCK
  5
150E
330
150D
100
AcDbEntity
  8
0
100
AcDbBlockBegin
  2
*D6
 70
     1
 10
0.0
 20
0.0
 30
0.0
  3
*D6
  1

  0
LINE
  5
150F
330
150D
100
AcDbEntity
  8
2
 62
     0
370
    -2
100
AcDbLine
 10
744.8774949015406
 20
628.3372188959405
 30
0.0
 11
744.8774949015406
 21
689.4665657948141
 31
0.0
  0
LINE
  5
1510
330
150D
100
AcDbEntity
  8
2
 62
     0
370
    -2
100
AcDbLine
 10
649.8774949015404
 20
646.3372188959405
 30
0.0
 11
649.8774949015404
 21
689.4665657948141
 31
0.0
  0
LINE
  5
1511
330
150D
100
AcDbEntity
  8
2
 62
     0
370
    -2
100
AcDbLine
 10
740.3074949015405
 20
684.4665657948141
 30
0.0
 11
706.4855684624233
 21
684.4665657948141
 31
0.0
  0
LINE
  5
1512
330
150D
100
AcDbEntity
  8
2
 62
     0
370
    -2
100
AcDbLine
 10
654.4474949015405
 20
684.4665657948141
 30
0.0
 11
699.0252733113341
 21
684.4665657948141
 31
0.0
  0
INSERT
  5
1513
330
150D
100
AcDbEntity
  8
2
 62
     0
370
    -2
100
AcDbBlockReference
  2
_ARROW_FILLED
 10
744.8774949015406
 20
684.4665657948141
 30
0.0
 41
4.57
 42
4.57
 43
4.57
  0
INSERT
  5
1514
330
150D
100
AcDbEntity
  8
2
 62
     0
370
    -2
100
AcDbBlockReference
  2
_ARROW_FILLED
 10
649.8774949015404
 20
684.4665657948141
 30
0.0
 41
4.57
 42
4.57
 43
4.57
 50
180.0
  0
MTEXT
  5
1515
330
150D
100
AcDbEntity
  8
2
 62
     7
100
AcDbMText
 10
702.7554208868787
 20
684.4665657948141
 30
0.0
 40
3.5
 41
0.0
 71
     5
 72
     1
  1
\A1;95
 73
     1
 44
1.0
  0
POINT
  5
1516
330
150D
100
AcDbEntity
  8
DEFPOINTS
 62
     0
100
AcDbPoint
 10
744.8774949015406
 20
628.3372188959405
 30
0.0
  0
POINT
  5
1517
330
150D
100
AcDbEntity
  8
DEFPOINTS
 62
     0
100
AcDbPoint
 10
649.8774949015404
 20
646.3372188959405
 30
0.0
  0
POINT
  5
1518
330
150D
100
AcDbEntity
  8
DEFPOINTS
 62
     0
100
AcDbPoint
 10
649.8774949015404
 20
684.4665657948141
 30
0.0
  0
ENDBLK
  5
1519
330
150D
100
AcDbEntity
  8
0
100
AcDbBlockEnd
  0
BLOCK
  5
151B
330
151A
100
AcDbEntity
  8
0
100
AcDbBlockBegin
  2
*D7
 70
     1
 10
0.0
 20
0.0
 30
0.0
  3
*D7
  1

  0
LINE
  5
151C
330
151A
100
AcDbEntity
  8
SK2
 62
     0
370
    -2
100
AcDbLine
 10
743.8805769015405
 20
606.8372188959405
 30
0.0
 11
766.806289250385
 21
606.8372188959405
 31
0.0
  0
LINE
  5
151D
330
151A
100
AcDbEntity
  8
SK2
 62
     0
370
    -2
100
AcDbLine
 10
743.8805769015405
 20
622.8372188959404
 30
0.0
 11
766.806289250385
 21
622.8372188959404
 31
0.0
  0
LINE
  5
151E
330
151A
100
AcDbEntity
  8
SK2
 62
     0
370
    -2
100
AcDbLine
 10
761.806289250385
 20
611.4072188959404
 30
0.0
 11
761.806289250385
 21
618.2672188959403
 31
0.0
  0
LINE
  5
151F
330
151A
100
AcDbEntity
  8
SK2
 62
     0
370
    -2
100
AcDbLine
 10
761.806289250385
 20
622.8372188959404
 30
0.0
 11
761.806289250385
 21
635.4094897603264
 31
0.0
  0
INSERT
  5
1520
330
151A
100
AcDbEntity
  8
SK2
 62
     0
370
    -2
100
AcDbBlockReference
  2
_ARROW_FILLED
 10
761.806289250385
 20
606.8372188959405
 30
0.0
 41
4.57
 42
4.57
 43
4.57
 50
270.0
  0
INSERT
  5
1521
330
151A
100
AcDbEntity
  8
SK2
 62
     0
370
    -2
100
AcDbBlockReference
  2
_ARROW_FILLED
 10
761.806289250385
 20
622.8372188959404
 30
0.0
 41
4.57
 42
4.57
 43
4.57
 50
90.0
  0
MTEXT
  5
1522
330
151A
100
AcDbEntity
  8
SK2
 62
     7
100
AcDbMText
 10
761.8062892503849
 20
640.7519001608887
 30
0.0
 40
3.5
 41
0.0
 71
     5
 72
     1
  1
\A1;%%c16
 11
1.000000000000000E-16
 21
1.0
 31
0.0
 73
     1
 44
1.0
  0
POINT
  5
1523
330
151A
100
AcDbEntity
  8
DEFPOINTS
 62
     0
100
AcDbPoint
 10
743.8805769015405
 20
606.8372188959405
 30
0.0
  0
POINT
  5
1524
330
151A
100
AcDbEntity
  8
DEFPOINTS
 62
     0
100
AcDbPoint
 10
743.8805769015405
 20
622.8372188959404
 30
0.0
  0
POINT
  5
1525
330
151A
100
AcDbEntity
  8
DEFPOINTS
 62
     0
100
AcDbPoint
 10
761.806289250385
 20
622.8372188959404
 30
0.0
  0
ENDBLK
  5
1526
330
151A
100
AcDbEntity
  8
0
100
AcDbBlockEnd
  0
BLOCK
  5
1528
330
1527
100
AcDbEntity
  8
0
100
AcDbBlockBegin
  2
*D8
 70
     1
 10
0.0
 20
0.0
 30
0.0
  3
*D8
  1

  0
LINE
  5
1529
330
1527
100
AcDbEntity
  8
SK2
 62
     0
370
    -2
100
AcDbLine
 10
744.8774949015406
 20
626.9984378959406
 30
0.0
 11
744.8774949015406
 21
674.1686472774419
 31
0.0
  0
LINE
  5
152A
330
1527
100
AcDbEntity
  8
SK2
 62
     0
370
    -2
100
AcDbLine
 10
675.8774949015404
 20
646.3372188959405
 30
0.0
 11
675.8774949015404
 21
674.1686472774419
 31
0.0
  0
LINE
  5
152B
330
1527
100
AcDbEntity
  8
SK2
 62
     0
370
    -2
100
AcDbLine
 10
740.3074949015405
 20
669.1686472774419
 30
0.0
 11
716.2315004563126
 21
669.1686472774419
 31
0.0
  0
LINE
  5
152C
330
1527
100
AcDbEntity
  8
SK2
 62
     0
370
    -2
100
AcDbLine
 10
680.4474949015406
 20
669.1686472774419
 30
0.0
 11
708.7662861204024
 21
669.1686472774419
 31
0.0
  0
INSERT
  5
152D
330
1527
100
AcDbEntity
  8
SK2
 62
     0
370
    -2
100
AcDbBlockReference
  2
_ARROW_FILLED
 10
744.8774949015406
 20
669.1686472774419
 30
0.0
 41
4.57
 42
4.57
 43
4.57
  0
INSERT
  5
152E
330
1527
100
AcDbEntity
  8
SK2
 62
     0
370
    -2
100
AcDbBlockReference
  2
_ARROW_FILLED
 10
675.8774949015404
 20
669.1686472774419
 30
0.0
 41
4.57
 42
4.57
 43
4.57
 50
180.0
  0
MTEXT
  5
152F
330
1527
100
AcDbEntity
  8
SK2
 62
     7
100
AcDbMText
 10
712.4988932883574
 20
669.1686472774419
 30
0.0
 40
3.5
 41
0.0
 71
     5
 72
     1
  1
\A1;69
 73
     1
 44
1.0
  0
POINT
  5
1530
330
1527
100
AcDbEntity
  8
DEFPOINTS
 62
     0
100
AcDbPoint
 10
744.8774949015406
 20
626.9984378959406
 30
0.0
  0
POINT
  5
1531
330
1527
100
AcDbEntity
  8
DEFPOINTS
 62
     0
100
AcDbPoint
 10
675.8774949015404
 20
646.3372188959405
 30
0.0
  0
POINT
  5
1532
330
1527
100
AcDbEntity
  8
DEFPOINTS
 62
     0
100
AcDbPoint
 10
675.8774949015404
 20
669.1686472774419
 30
0.0
  0
ENDBLK
  5
1533
330
1527
100
AcDbEntity
  8
0
100
AcDbBlockEnd
  0
BLOCK
  5
1535
330
1534
100
AcDbEntity
  8
0
100
AcDbBlockBegin
  2
*D9
 70
     1
 10
0.0
 20
0.0
 30
0.0
  3
*D9
  1

  0
LINE
  5
1536
330
1534
100
AcDbEntity
  8
SK2
 62
     0
370
    -2
100
AcDbLine
 10
744.8774949015406
 20
601.3372188959404
 30
0.0
 11
777.8773769015405
 21
601.3372188959404
 31
0.0
  0
LINE
  5
1537
330
1534
100
AcDbEntity
  8
SK2
 62
     0
370
    -2
100
AcDbLine
 10
744.8774949015406
 20
628.3372188959405
 30
0.0
 11
777.8773769015405
 21
628.3372188959404
 31
0.0
  0
LINE
  5
1538
330
1534
100
AcDbEntity
  8
SK2
 62
     0
370
    -2
100
AcDbLine
 10
772.8773769015405
 20
605.9072188959404
 30
0.0
 11
772.8773769015405
 21
609.5046468650198
 31
0.0
  0
LINE
  5
1539
330
1534
100
AcDbEntity
  8
SK2
 62
     0
370
    -2
100
AcDbLine
 10
772.8773769015405
 20
623.7672188959403
 30
0.0
 11
772.8773769015405
 21
620.1697909268609
 31
0.0
  0
INSERT
  5
153A
330
1534
100
AcDbEntity
  8
SK2
 62
     0
370
    -2
100
AcDbBlockReference
  2
_ARROW_FILLED
 10
772.8773769015405
 20
601.3372188959404
 30
0.0
 41
4.57
 42
4.57
 43
4.57
 50
270.0
  0
INSERT
  5
153B
330
1534
100
AcDbEntity
  8
SK2
 62
     0
370
    -2
100
AcDbBlockReference
  2
_ARROW_FILLED
 10
772.8773769015405
 20
628.3372188959404
 30
0.0
 41
4.57
 42
4.57
 43
4.57
 50
90.0
  0
MTEXT
  5
153C
330
1534
100
AcDbEntity
  8
SK2
 62
     7
100
AcDbMText
 10
772.8773769015404
 20
614.8372188959406
 30
0.0
 40
3.5
 41
0.0
 71
     5
 72
     1
  1
\A1;%%c27
 11
1.000000000000000E-16
 21
1.0
 31
0.0
 73
     1
 44
1.0
  0
POINT
  5
153D
330
1534
100
AcDbEntity
  8
DEFPOINTS
 62
     0
100
AcDbPoint
 10
744.8774949015406
 20
601.3372188959404
 30
0.0
  0
POINT
  5
153E
330
1534
100
AcDbEntity
  8
DEFPOINTS
 62
     0
100
AcDbPoint
 10
744.8774949015406
 20
628.3372188959405
 30
0.0
  0
POINT
  5
153F
330
1534
100
AcDbEntity
  8
DEFPOINTS
 62
     0
100
AcDbPoint
 10
772.8773769015405
 20
628.3372188959404
 30
0.0
  0
ENDBLK
  5
1540
330
1534
100
AcDbEntity
  8
0
100
AcDbBlockEnd
  0
BLOCK
  5
1542
330
1541
100
AcDbEntity
  8
0
100
AcDbBlockBegin
  2
*D10
 70
     1
 10
0.0
 20
0.0
 30
0.0
  3
*D10
  1

  0
LINE
  5
1543
330
1541
100
AcDbEntity
  8
2
 62
     0
370
    -2
100
AcDbLine
 10
700.4057779015405
 20
597.8372188959404
 30
0.0
 11
678.5422950023599
 21
597.8372188959404
 31
0.0
  0
LINE
  5
1544
330
1541
100
AcDbEntity
  8
2
 62
     0
370
    -2
100
AcDbLine
 10
700.4057779015405
 20
631.8372188959405
 30
0.0
 11
678.5422950023599
 21
631.8372188959405
 31
0.0
  0
LINE
  5
1545
330
1541
100
AcDbEntity
  8
2
 62
     0
370
    -2
100
AcDbLine
 10
683.5422950023599
 20
602.4072188959404
 30
0.0
 11
683.5422950023599
 21
627.2672188959403
 31
0.0
  0
LINE
  5
1546
330
1541
100
AcDbEntity
  8
2
 62
     0
370
    -2
100
AcDbLine
 10
683.5422950023599
 20
631.8372188959405
 30
0.0
 11
683.5422950023599
 21
644.7273699245206
 31
0.0
  0
INSERT
  5
1547
330
1541
100
AcDbEntity
  8
2
 62
     0
370
    -2
100
AcDbBlockReference
  2
_ARROW_FILLED
 10
683.5422950023599
 20
597.8372188959404
 30
0.0
 41
4.57
 42
4.57
 43
4.57
 50
270.0
  0
INSERT
  5
1548
330
1541
100
AcDbEntity
  8
2
 62
     0
370
    -2
100
AcDbBlockReference
  2
_ARROW_FILLED
 10
683.5422950023599
 20
631.8372188959405
 30
0.0
 41
4.57
 42
4.57
 43
4.57
 50
90.0
  0
MTEXT
  5
1549
330
1541
100
AcDbEntity
  8
2
 62
     7
100
AcDbMText
 10
683.5422950023598
 20
650.0648611402622
 30
0.0
 40
3.5
 41
0.0
 71
     5
 72
     1
  1
\A1;%%c34
 11
1.000000000000000E-16
 21
1.0
 31
0.0
 73
     1
 44
1.0
  0
POINT
  5
154A
330
1541
100
AcDbEntity
  8
DEFPOINTS
 62
     0
100
AcDbPoint
 10
700.4057779015405
 20
597.8372188959404
 30
0.0
  0
POINT
  5
154B
330
1541
100
AcDbEntity
  8
DEFPOINTS
 62
     0
100
AcDbPoint
 10
700.4057779015405
 20
631.8372188959405
 30
0.0
  0
POINT
  5
154C
330
1541
100
AcDbEntity
  8
DEFPOINTS
 62
     0
100
AcDbPoint
 10
683.5422950023599
 20
631.8372188959405
 30
0.0
  0
ENDBLK
  5
154D
330
1541
100
AcDbEntity
  8
0
100
AcDbBlockEnd
  0
BLOCK
  5
154F
330
154E
100
AcDbEntity
  8
0
100
AcDbBlockBegin
  2
*D11
 70
     1
 10
0.0
 20
0.0
 30
0.0
  3
*D11
  1

  0
LINE
  5
1550
330
154E
100
AcDbEntity
  8
SK2
 62
     0
370
    -2
100
AcDbLine
 10
694.8774949015406
 20
623.3372188959405
 30
0.0
 11
694.8774949015406
 21
660.8504756023718
 31
0.0
  0
LINE
  5
1551
330
154E
100
AcDbEntity
  8
SK2
 62
     0
370
    -2
100
AcDbLine
 10
744.8774949015406
 20
626.9984378959406
 30
0.0
 11
744.8774949015406
 21
660.8504756023718
 31
0.0
  0
LINE
  5
1552
330
154E
100
AcDbEntity
  8
SK2
 62
     0
370
    -2
100
AcDbLine
 10
699.4474949015406
 20
655.8504756023718
 30
0.0
 11
717.2374539229515
 21
655.8504756023718
 31
0.0
  0
LINE
  5
1553
330
154E
100
AcDbEntity
  8
SK2
 62
     0
370
    -2
100
AcDbLine
 10
740.3074949015405
 20
655.8504756023718
 30
0.0
 11
724.7272641829657
 21
655.8504756023718
 31
0.0
  0
INSERT
  5
1554
330
154E
100
AcDbEntity
  8
SK2
 62
     0
370
    -2
100
AcDbBlockReference
  2
_ARROW_FILLED
 10
694.8774949015406
 20
655.8504756023718
 30
0.0
 41
4.57
 42
4.57
 43
4.57
 50
180.0
  0
INSERT
  5
1555
330
154E
100
AcDbEntity
  8
SK2
 62
     0
370
    -2
100
AcDbBlockReference
  2
_ARROW_FILLED
 10
744.8774949015406
 20
655.8504756023718
 30
0.0
 41
4.57
 42
4.57
 43
4.57
  0
MTEXT
  5
1556
330
154E
100
AcDbEntity
  8
SK2
 62
     7
100
AcDbMText
 10
720.9823590529586
 20
655.8504756023718
 30
0.0
 40
3.5
 41
0.0
 71
     5
 72
     1
  1
\A1;50
 73
     1
 44
1.0
  0
POINT
  5
1557
330
154E
100
AcDbEntity
  8
DEFPOINTS
 62
     0
100
AcDbPoint
 10
694.8774949015406
 20
623.3372188959405
 30
0.0
  0
POINT
  5
1558
330
154E
100
AcDbEntity
  8
DEFPOINTS
 62
     0
100
AcDbPoint
 10
744.8774949015406
 20
626.9984378959406
 30
0.0
  0
POINT
  5
1559
330
154E
100
AcDbEntity
  8
DEFPOINTS
 62
     0
100
AcDbPoint
 10
744.8774949015406
 20
655.8504756023718
 30
0.0
  0
ENDBLK
  5
155A
330
154E
100
AcDbEntity
  8
0
100
AcDbBlockEnd
  0
BLOCK
  5
155C
330
155B
100
AcDbEntity
  8
0
100
AcDbBlockBegin
  2
*D12
 70
     1
 10
0.0
 20
0.0
 30
0.0
  3
*D12
  1

  0
LINE
  5
155D
330
155B
100
AcDbEntity
  8
SK2
 62
     0
370
    -2
100
AcDbLine
 10
700.4058379015405
 20
631.8372138959404
 30
0.0
 11
724.2352340704931
 21
629.9618000255535
 31
0.0
  0
LINE
  5
155E
330
155B
100
AcDbEntity
  8
SK2
 62
     0
370
    -2
100
AcDbLine
 10
743.7860699015405
 20
628.4226438959404
 30
0.0
 11
714.1747604704827
 21
628.4226438962527
 31
0.0
  0
ARC
  5
155F
330
155B
100
AcDbEntity
  8
SK2
 62
     0
370
    -2
100
AcDbCircle
 10
743.7920699015405
 20
628.4226438959404
 30
0.0
 40
24.61730943105769
100
AcDbArc
 50
154.1963589738282
 51
164.8481798223081
  0
ARC
  5
1560
330
155B
100
AcDbEntity
  8
SK2
 62
     0
370
    -2
100
AcDbCircle
 10
743.7920699015405
 20
628.4226438959404
 30
0.0
 40
24.61730943105769
100
AcDbArc
 50
190.6518208478757
 51
201.3036416963557
  0
INSERT
  5
1561
330
155B
100
AcDbEntity
  8
SK2
 62
     0
370
    -2
100
AcDbBlockReference
  2
_ARROW_FILLED
 10
719.2506473972346
 20
630.354095445836
 30
0.0
 41
4.57
 42
4.57
 43
4.57
 50
260.1740902465481
  0
INSERT
  5
1562
330
155B
100
AcDbEntity
  8
SK2
 62
     0
370
    -2
100
AcDbBlockReference
  2
_ARROW_FILLED
 10
719.1747604704829
 20
628.4226438961999
 30
0.0
 41
4.57
 42
4.57
 43
4.57
 50
95.32591042363579
  0
MTEXT
  5
1563
330
155B
100
AcDbEntity
  8
SK2
 62
     7
100
AcDbMText
 10
725.8300531562412
 20
645.2564752502707
 30
0.0
 40
3.5
 41
0.0
 71
     5
 72
     1
  1
\A1;4°
 11
0.68382092695688
 21
0.7296498748412376
 31
0.0
 73
     1
 44
1.0
  0
POINT
  5
1564
330
155B
100
AcDbEntity
  8
DEFPOINTS
 62
     0
100
AcDbPoint
 10
743.7920699015405
 20
628.4226438959404
 30
0.0
  0
POINT
  5
1565
330
155B
100
AcDbEntity
  8
DEFPOINTS
 62
     0
100
AcDbPoint
 10
700.4058379015405
 20
631.8372138959404
 30
0.0
  0
POINT
  5
1566
330
155B
100
AcDbEntity
  8
DEFPOINTS
 62
     0
100
AcDbPoint
 10
743.7860699015405
 20
628.4226438959404
 30
0.0
  0
POINT
  5
1567
330
155B
100
AcDbEntity
  8
DEFPOINTS
 62
     0
100
AcDbPoint
 10
719.1831962050835
 20
629.0670498365333
 30
0.0
  0
ENDBLK
  5
1568
330
155B
100
AcDbEntity
  8
0
100
AcDbBlockEnd
  0
BLOCK
  5
156A
330
1569
100
AcDbEntity
  8
0
100
AcDbBlockBegin
  2
*D13
 70
     1
 10
0.0
 20
0.0
 30
0.0
  3
*D13
  1

  0
LINE
  5
156B
330
1569
100
AcDbEntity
  8
SK2
 62
     0
370
    -2
100
AcDbLine
 10
692.8774949015404
 20
608.8372188959405
 30
0.0
 11
685.5830593348784
 21
608.8372188959405
 31
0.0
  0
LINE
  5
156C
330
1569
100
AcDbEntity
  8
SK2
 62
     0
370
    -2
100
AcDbLine
 10
692.8774949015404
 20
620.8372188959405
 30
0.0
 11
685.5830593348784
 21
620.8372188959405
 31
0.0
  0
LINE
  5
156D
330
1569
100
AcDbEntity
  8
SK2
 62
     0
370
    -2
100
AcDbLine
 10
690.5830593348784
 20
613.4072188959406
 30
0.0
 11
690.5830593348784
 21
616.2672188959405
 31
0.0
  0
LINE
  5
156E
330
1569
100
AcDbEntity
  8
SK2
 62
     0
370
    -2
100
AcDbLine
 10
690.5830593348784
 20
620.8372188959405
 30
0.0
 11
690.5830593348784
 21
633.7837760950566
 31
0.0
  0
INSERT
  5
156F
330
1569
100
AcDbEntity
  8
SK2
 62
     0
370
    -2
100
AcDbBlockReference
  2
_ARROW_FILLED
 10
690.5830593348784
 20
608.8372188959405
 30
0.0
 41
4.57
 42
4.57
 43
4.57
 50
270.0
  0
INSERT
  5
1570
330
1569
100
AcDbEntity
  8
SK2
 62
     0
370
    -2
100
AcDbBlockReference
  2
_ARROW_FILLED
 10
690.5830593348784
 20
620.8372188959405
 30
0.0
 41
4.57
 42
4.57
 43
4.57
 50
90.0
  0
MTEXT
  5
1571
330
1569
100
AcDbEntity
  8
SK2
 62
     7
100
AcDbMText
 10
690.5830593348782
 20
641.6632560669472
 30
0.0
 40
3.5
 41
0.0
 71
     5
 72
     1
  1
\A1;M12x1
 11
1.000000000000000E-16
 21
1.0
 31
0.0
 73
     1
 44
1.0
  0
POINT
  5
1572
330
1569
100
AcDbEntity
  8
DEFPOINTS
 62
     0
100
AcDbPoint
 10
692.8774949015404
 20
608.8372188959405
 30
0.0
  0
POINT
  5
1573
330
1569
100
AcDbEntity
  8
DEFPOINTS
 62
     0
100
AcDbPoint
 10
692.8774949015404
 20
620.8372188959405
 30
0.0
  0
POINT
  5
1574
330
1569
100
AcDbEntity
  8
DEFPOINTS
 62
     0
100
AcDbPoint
 10
690.5830593348784
 20
620.8372188959405
 30
0.0
  0
ENDBLK
  5
1575
330
1569
100
AcDbEntity
  8
0
100
AcDbBlockEnd
  0
BLOCK
  5
167F
330
1674
100
AcDbEntity
  8
0
100
AcDbBlockBegin
  2
*D14
 70
     1
 10
0.0
 20
0.0
 30
0.0
  3
*D14
  1

  0
LINE
  5
1779
330
1674
100
AcDbEntity
  8
SK2
 62
     0
370
    -2
100
AcDbLine
 10
0.0
 20
-31.5
 30
0.0
 11
-51.2336200000001
 21
-31.49999999999999
 31
0.0
  0
LINE
  5
177A
330
1674
100
AcDbEntity
  8
SK2
 62
     0
370
    -2
100
AcDbLine
 10
0.0
 20
31.5
 30
0.0
 11
-51.23362000000009
 21
31.50000000000002
 31
0.0
  0
LINE
  5
177B
330
1674
100
AcDbEntity
  8
SK2
 62
     0
370
    -2
100
AcDbLine
 10
-46.23362000000009
 20
-26.92999999999999
 30
0.0
 11
-46.23362000000009
 21
-5.31043569922697
 31
0.0
  0
LINE
  5
177C
330
1674
100
AcDbEntity
  8
SK2
 62
     0
370
    -2
100
AcDbLine
 10
-46.23362000000009
 20
26.93000000000001
 30
0.0
 11
-46.23362000000009
 21
5.310435699226998
 31
0.0
  0
INSERT
  5
177D
330
1674
100
AcDbEntity
  8
SK2
 62
     0
370
    -2
100
AcDbBlockReference
  2
_ARROW_FILLED
 10
-46.23362000000009
 20
-31.49999999999999
 30
0.0
 41
4.57
 42
4.57
 43
4.57
 50
270.0
  0
INSERT
  5
177E
330
1674
100
AcDbEntity
  8
SK2
 62
     0
370
    -2
100
AcDbBlockReference
  2
_ARROW_FILLED
 10
-46.23362000000009
 20
31.50000000000002
 30
0.0
 41
4.57
 42
4.57
 43
4.57
 50
90.0
  0
MTEXT
  5
177F
330
1674
100
AcDbEntity
  8
SK2
 62
     7
100
AcDbMText
 10
-46.23362000000009
 20
0.0000000000000064
 30
0.0
 40
3.5
 41
0.0
 71
     5
 72
     1
  1
\A1;%%c63
 11
1.000000000000000E-16
 21
1.0
 31
0.0
 73
     1
 44
1.0
  0
POINT
  5
1780
330
1674
100
AcDbEntity
  8
DEFPOINTS
 62
     0
100
AcDbPoint
 10
0.0
 20
-31.5
 30
0.0
  0
POINT
  5
1781
330
1674
100
AcDbEntity
  8
DEFPOINTS
 62
     0
100
AcDbPoint
 10
0.0
 20
31.5
 30
0.0
  0
POINT
  5
1782
330
1674
100
AcDbEntity
  8
DEFPOINTS
 62
     0
100
AcDbPoint
 10
-46.23362000000009
 20
31.50000000000002
 30
0.0
  0
ENDBLK
  5
1680
330
1674
100
AcDbEntity
  8
0
100
AcDbBlockEnd
  0
BLOCK
  5
168C
330
1681
100
AcDbEntity
  8
0
100
AcDbBlockBegin
  2
*D15
 70
     1
 10
0.0
 20
0.0
 30
0.0
  3
*D15
  1

  0
LINE
  5
1783
330
1681
100
AcDbEntity
  8
SK2
 62
     0
370
    -2
100
AcDbLine
 10
-32.0
 20
21.57350100000008
 30
0.0
 11
-32.0
 21
46.96900000000005
 31
0.0
  0
LINE
  5
1784
330
1681
100
AcDbEntity
  8
SK2
 62
     0
370
    -2
100
AcDbLine
 10
0.0
 20
31.5
 30
0.0
 11
0.0000000000000009
 21
46.96900000000005
 31
0.0
  0
LINE
  5
1785
330
1681
100
AcDbEntity
  8
SK2
 62
     0
370
    -2
100
AcDbLine
 10
-27.43
 20
41.96900000000005
 30
0.0
 11
-19.73875614898102
 21
41.96900000000005
 31
0.0
  0
LINE
  5
1786
330
1681
100
AcDbEntity
  8
SK2
 62
     0
370
    -2
100
AcDbLine
 10
-4.569999999999999
 20
41.96900000000005
 30
0.0
 11
-12.26124385101897
 21
41.96900000000005
 31
0.0
  0
INSERT
  5
1787
330
1681
100
AcDbEntity
  8
SK2
 62
     0
370
    -2
100
AcDbBlockReference
  2
_ARROW_FILLED
 10
-32.0
 20
41.96900000000005
 30
0.0
 41
4.57
 42
4.57
 43
4.57
 50
180.0
  0
INSERT
  5
1788
330
1681
100
AcDbEntity
  8
SK2
 62
     0
370
    -2
100
AcDbBlockReference
  2
_ARROW_FILLED
 10
0.0000000000000006
 20
41.96900000000005
 30
0.0
 41
4.57
 42
4.57
 43
4.57
  0
MTEXT
  5
1789
330
1681
100
AcDbEntity
  8
SK2
 62
     7
100
AcDbMText
 10
-16.0
 20
41.96900000000005
 30
0.0
 40
3.5
 41
0.0
 71
     5
 72
     1
  1
\A1;32
 73
     1
 44
1.0
  0
POINT
  5
178A
330
1681
100
AcDbEntity
  8
DEFPOINTS
 62
     0
100
AcDbPoint
 10
-32.0
 20
21.57350100000008
 30
0.0
  0
POINT
  5
178B
330
1681
100
AcDbEntity
  8
DEFPOINTS
 62
     0
100
AcDbPoint
 10
0.0
 20
31.5
 30
0.0
  0
POINT
  5
178C
330
1681
100
AcDbEntity
  8
DEFPOINTS
 62
     0
100
AcDbPoint
 10
0.0000000000000006
 20
41.96900000000005
 30
0.0
  0
ENDBLK
  5
168D
330
1681
100
AcDbEntity
  8
0
100
AcDbBlockEnd
  0
BLOCK
  5
1699
330
168E
100
AcDbEntity
  8
0
100
AcDbBlockBegin
  2
*D16
 70
     1
 10
0.0
 20
0.0
 30
0.0
  3
*D16
  1

  0
LINE
  5
17EE
330
168E
100
AcDbEntity
  8
SK2
 62
     0
370
    -2
100
AcDbLine
 10
-32.0
 20
21.57350100000008
 30
0.0
 11
-32.0
 21
95.0
 31
0.0
  0
LINE
  5
17EF
330
168E
100
AcDbEntity
  8
SK2
 62
     0
370
    -2
100
AcDbLine
 10
95.0
 20
12.5
 30
0.0
 11
95.0
 21
95.0
 31
0.0
  0
LINE
  5
17F0
330
168E
100
AcDbEntity
  8
SK2
 62
     0
370
    -2
100
AcDbLine
 10
-27.43
 20
90.0
 30
0.0
 11
29.09872598820115
 21
90.0
 31
0.0
  0
LINE
  5
17F1
330
168E
100
AcDbEntity
  8
SK2
 62
     0
370
    -2
100
AcDbLine
 10
90.43
 20
90.0
 30
0.0
 11
39.28916871483503
 21
90.0
 31
0.0
  0
INSERT
  5
17F2
330
168E
100
AcDbEntity
  8
SK2
 62
     0
370
    -2
100
AcDbBlockReference
  2
_ARROW_FILLED
 10
-32.0
 20
90.0
 30
0.0
 41
4.57
 42
4.57
 43
4.57
 50
180.0
  0
INSERT
  5
17F3
330
168E
100
AcDbEntity
  8
SK2
 62
     0
370
    -2
100
AcDbBlockReference
  2
_ARROW_FILLED
 10
95.0
 20
90.0
 30
0.0
 41
4.57
 42
4.57
 43
4.57
  0
MTEXT
  5
17F4
330
168E
100
AcDbEntity
  8
SK2
 62
     7
100
AcDbMText
 10
34.19394735151809
 20
90.0
 30
0.0
 40
3.5
 41
0.0
 71
     5
 72
     1
  1
\A1;127
 73
     1
 44
1.0
  0
POINT
  5
17F5
330
168E
100
AcDbEntity
  8
DEFPOINTS
 62
     0
100
AcDbPoint
 10
-32.0
 20
21.57350100000008
 30
0.0
  0
POINT
  5
17F6
330
168E
100
AcDbEntity
  8
DEFPOINTS
 62
     0
100
AcDbPoint
 10
95.0
 20
12.5
 30
0.0
  0
POINT
  5
17F7
330
168E
100
AcDbEntity
  8
DEFPOINTS
 62
     0
100
AcDbPoint
 10
95.0
 20
90.0
 30
0.0
  0
ENDBLK
  5
169A
330
168E
100
AcDbEntity
  8
0
100
AcDbBlockEnd
  0
BLOCK
  5
16A6
330
169B
100
AcDbEntity
  8
0
100
AcDbBlockBegin
  2
*D17
 70
     1
 10
0.0
 20
0.0
 30
0.0
  3
*D17
  1

  0
LINE
  5
17F8
330
169B
100
AcDbEntity
  8
2
 62
     0
370
    -2
100
AcDbLine
 10
95.0
 20
13.5
 30
0.0
 11
95.0
 21
80.0
 31
0.0
  0
LINE
  5
17F9
330
169B
100
AcDbEntity
  8
2
 62
     0
370
    -2
100
AcDbLine
 10
0.0
 20
31.5
 30
0.0
 11
0.0
 21
80.0
 31
0.0
  0
LINE
  5
17FA
330
169B
100
AcDbEntity
  8
2
 62
     0
370
    -2
100
AcDbLine
 10
90.43
 20
75.0
 30
0.0
 11
56.71125931867149
 21
75.0
 31
0.0
  0
LINE
  5
17FB
330
169B
100
AcDbEntity
  8
2
 62
     0
370
    -2
100
AcDbLine
 10
4.57
 20
75.0
 30
0.0
 11
49.04459265200482
 21
75.0
 31
0.0
  0
INSERT
  5
17FC
330
169B
100
AcDbEntity
  8
2
 62
     0
370
    -2
100
AcDbBlockReference
  2
_ARROW_FILLED
 10
95.0
 20
75.0
 30
0.0
 41
4.57
 42
4.57
 43
4.57
  0
INSERT
  5
17FD
330
169B
100
AcDbEntity
  8
2
 62
     0
370
    -2
100
AcDbBlockReference
  2
_ARROW_FILLED
 10
0.0
 20
75.0
 30
0.0
 41
4.57
 42
4.57
 43
4.57
 50
180.0
  0
MTEXT
  5
17FE
330
169B
100
AcDbEntity
  8
2
 62
     7
100
AcDbMText
 10
52.87792598533815
 20
75.0
 30
0.0
 40
3.5
 41
0.0
 71
     5
 72
     1
  1
\A1;95
 73
     1
 44
1.0
  0
POINT
  5
17FF
330
169B
100
AcDbEntity
  8
DEFPOINTS
 62
     0
100
AcDbPoint
 10
95.0
 20
13.5
 30
0.0
  0
POINT
  5
1800
330
169B
100
AcDbEntity
  8
DEFPOINTS
 62
     0
100
AcDbPoint
 10
0.0
 20
31.5
 30
0.0
  0
POINT
  5
1801
330
169B
100
AcDbEntity
  8
DEFPOINTS
 62
     0
100
AcDbPoint
 10
0.0
 20
75.0
 30
0.0
  0
ENDBLK
  5
16A7
330
169B
100
AcDbEntity
  8
0
100
AcDbBlockEnd
  0
BLOCK
  5
16B3
330
16A8
100
AcDbEntity
  8
0
100
AcDbBlockBegin
  2
*D18
 70
     1
 10
0.0
 20
0.0
 30
0.0
  3
*D18
  1

  0
LINE
  5
17A1
330
16A8
100
AcDbEntity
  8
SK2
 62
     0
370
    -2
100
AcDbLine
 10
94.00308199999996
 20
-8.0
 30
0.0
 11
116.9287943488443
 21
-8.000000000000007
 31
0.0
  0
LINE
  5
17A2
330
16A8
100
AcDbEntity
  8
SK2
 62
     0
370
    -2
100
AcDbLine
 10
94.00308199999996
 20
8.0
 30
0.0
 11
116.9287943488443
 21
7.999999999999993
 31
0.0
  0
LINE
  5
17A3
330
16A8
100
AcDbEntity
  8
SK2
 62
     0
370
    -2
100
AcDbLine
 10
111.9287943488443
 20
-3.430000000000004
 30
0.0
 11
111.9287943488443
 21
3.429999999999994
 31
0.0
  0
LINE
  5
17A4
330
16A8
100
AcDbEntity
  8
SK2
 62
     0
370
    -2
100
AcDbLine
 10
111.9287943488443
 20
7.999999999999994
 30
0.0
 11
111.9287943488443
 21
20.57227086438607
 31
0.0
  0
INSERT
  5
17A5
330
16A8
100
AcDbEntity
  8
SK2
 62
     0
370
    -2
100
AcDbBlockReference
  2
_ARROW_FILLED
 10
111.9287943488443
 20
-8.000000000000004
 30
0.0
 41
4.57
 42
4.57
 43
4.57
 50
270.0
  0
INSERT
  5
17A6
330
16A8
100
AcDbEntity
  8
SK2
 62
     0
370
    -2
100
AcDbBlockReference
  2
_ARROW_FILLED
 10
111.9287943488443
 20
7.999999999999994
 30
0.0
 41
4.57
 42
4.57
 43
4.57
 50
90.0
  0
MTEXT
  5
17A7
330
16A8
100
AcDbEntity
  8
SK2
 62
     7
100
AcDbMText
 10
111.9287943488443
 20
25.91468126494829
 30
0.0
 40
3.5
 41
0.0
 71
     5
 72
     1
  1
\A1;%%c16
 11
1.000000000000000E-16
 21
1.0
 31
0.0
 73
     1
 44
1.0
  0
POINT
  5
17A8
330
16A8
100
AcDbEntity
  8
DEFPOINTS
 62
     0
100
AcDbPoint
 10
94.00308199999996
 20
-8.0
 30
0.0
  0
POINT
  5
17A9
330
16A8
100
AcDbEntity
  8
DEFPOINTS
 62
     0
100
AcDbPoint
 10
94.00308199999996
 20
8.0
 30
0.0
  0
POINT
  5
17AA
330
16A8
100
AcDbEntity
  8
DEFPOINTS
 62
     0
100
AcDbPoint
 10
111.9287943488443
 20
7.999999999999994
 30
0.0
  0
ENDBLK
  5
16B4
330
16A8
100
AcDbEntity
  8
0
100
AcDbBlockEnd
  0
BLOCK
  5
16C0
330
16B5
100
AcDbEntity
  8
0
100
AcDbBlockBegin
  2
*D19
 70
     1
 10
0.0
 20
0.0
 30
0.0
  3
*D19
  1

  0
LINE
  5
1802
330
16B5
100
AcDbEntity
  8
SK2
 62
     0
370
    -2
100
AcDbLine
 10
95.0
 20
12.16121900000007
 30
0.0
 11
95.0
 21
65.0
 31
0.0
  0
LINE
  5
1803
330
16B5
100
AcDbEntity
  8
SK2
 62
     0
370
    -2
100
AcDbLine
 10
26.0
 20
31.5
 30
0.0
 11
26.0
 21
65.0
 31
0.0
  0
LINE
  5
1804
330
16B5
100
AcDbEntity
  8
SK2
 62
     0
370
    -2
100
AcDbLine
 10
90.43
 20
60.0
 30
0.0
 11
66.36358588681696
 21
60.0
 31
0.0
  0
LINE
  5
1805
330
16B5
100
AcDbEntity
  8
SK2
 62
     0
370
    -2
100
AcDbLine
 10
30.57
 20
60.0
 30
0.0
 11
58.87921088681696
 21
60.0
 31
0.0
  0
INSERT
  5
1806
330
16B5
100
AcDbEntity
  8
SK2
 62
     0
370
    -2
100
AcDbBlockReference
  2
_ARROW_FILLED
 10
95.0
 20
60.0
 30
0.0
 41
4.57
 42
4.57
 43
4.57
  0
INSERT
  5
1807
330
16B5
100
AcDbEntity
  8
SK2
 62
     0
370
    -2
100
AcDbBlockReference
  2
_ARROW_FILLED
 10
26.0
 20
60.0
 30
0.0
 41
4.57
 42
4.57
 43
4.57
 50
180.0
  0
MTEXT
  5
1808
330
16B5
100
AcDbEntity
  8
SK2
 62
     7
100
AcDbMText
 10
62.62139838681696
 20
60.0
 30
0.0
 40
3.5
 41
0.0
 71
     5
 72
     1
  1
\A1;69
 73
     1
 44
1.0
  0
POINT
  5
1809
330
16B5
100
AcDbEntity
  8
DEFPOINTS
 62
     0
100
AcDbPoint
 10
95.0
 20
12.16121900000007
 30
0.0
  0
POINT
  5
180A
330
16B5
100
AcDbEntity
  8
DEFPOINTS
 62
     0
100
AcDbPoint
 10
26.0
 20
31.5
 30
0.0
  0
POINT
  5
180B
330
16B5
100
AcDbEntity
  8
DEFPOINTS
 62
     0
100
AcDbPoint
 10
26.0
 20
60.0
 30
0.0
  0
ENDBLK
  5
16C1
330
16B5
100
AcDbEntity
  8
0
100
AcDbBlockEnd
  0
BLOCK
  5
16CD
330
16C2
100
AcDbEntity
  8
0
100
AcDbBlockBegin
  2
*D20
 70
     1
 10
0.0
 20
0.0
 30
0.0
  3
*D20
  1

  0
LINE
  5
17B5
330
16C2
100
AcDbEntity
  8
SK2
 62
     0
370
    -2
100
AcDbLine
 10
95.0
 20
-13.5
 30
0.0
 11
127.9998819999999
 21
-13.50000000000001
 31
0.0
  0
LINE
  5
17B6
330
16C2
100
AcDbEntity
  8
SK2
 62
     0
370
    -2
100
AcDbLine
 10
95.0
 20
13.5
 30
0.0
 11
127.9998819999999
 21
13.49999999999999
 31
0.0
  0
LINE
  5
17B7
330
16C2
100
AcDbEntity
  8
SK2
 62
     0
370
    -2
100
AcDbLine
 10
122.9998819999999
 20
-8.930000000000007
 30
0.0
 11
122.9998819999999
 21
-5.332572030920597
 31
0.0
  0
LINE
  5
17B8
330
16C2
100
AcDbEntity
  8
SK2
 62
     0
370
    -2
100
AcDbLine
 10
122.9998819999999
 20
8.929999999999993
 30
0.0
 11
122.9998819999999
 21
5.332572030920581
 31
0.0
  0
INSERT
  5
17B9
330
16C2
100
AcDbEntity
  8
SK2
 62
     0
370
    -2
100
AcDbBlockReference
  2
_ARROW_FILLED
 10
122.9998819999999
 20
-13.5
 30
0.0
 41
4.57
 42
4.57
 43
4.57
 50
270.0
  0
INSERT
  5
17BA
330
16C2
100
AcDbEntity
  8
SK2
 62
     0
370
    -2
100
AcDbBlockReference
  2
_ARROW_FILLED
 10
122.9998819999999
 20
13.49999999999999
 30
0.0
 41
4.57
 42
4.57
 43
4.57
 50
90.0
  0
MTEXT
  5
17BB
330
16C2
100
AcDbEntity
  8
SK2
 62
     7
100
AcDbMText
 10
122.9998819999999
 20
0.000000000000012
 30
0.0
 40
3.5
 41
0.0
 71
     5
 72
     1
  1
\A1;%%c27
 11
1.000000000000000E-16
 21
1.0
 31
0.0
 73
     1
 44
1.0
  0
POINT
  5
17BC
330
16C2
100
AcDbEntity
  8
DEFPOINTS
 62
     0
100
AcDbPoint
 10
95.0
 20
-13.5
 30
0.0
  0
POINT
  5
17BD
330
16C2
100
AcDbEntity
  8
DEFPOINTS
 62
     0
100
AcDbPoint
 10
95.0
 20
13.5
 30
0.0
  0
POINT
  5
17BE
330
16C2
100
AcDbEntity
  8
DEFPOINTS
 62
     0
100
AcDbPoint
 10
122.9998819999999
 20
13.49999999999999
 30
0.0
  0
ENDBLK
  5
16CE
330
16C2
100
AcDbEntity
  8
0
100
AcDbBlockEnd
  0
BLOCK
  5
16DA
330
16CF
100
AcDbEntity
  8
0
100
AcDbBlockBegin
  2
*D21
 70
     1
 10
0.0
 20
0.0
 30
0.0
  3
*D21
  1

  0
LINE
  5
17BF
330
16CF
100
AcDbEntity
  8
2
 62
     0
370
    -2
100
AcDbLine
 10
50.52828299999998
 20
-17.0
 30
0.0
 11
28.66480010081932
 21
-17.0
 31
0.0
  0
LINE
  5
17C0
330
16CF
100
AcDbEntity
  8
2
 62
     0
370
    -2
100
AcDbLine
 10
50.52828299999998
 20
17.0
 30
0.0
 11
28.66480010081933
 21
17.0
 31
0.0
  0
LINE
  5
17C1
330
16CF
100
AcDbEntity
  8
2
 62
     0
370
    -2
100
AcDbLine
 10
33.66480010081932
 20
-12.42999999999999
 30
0.0
 11
33.66480010081932
 21
12.43
 31
0.0
  0
LINE
  5
17C2
330
16CF
100
AcDbEntity
  8
2
 62
     0
370
    -2
100
AcDbLine
 10
33.66480010081933
 20
17.0
 30
0.0
 11
33.66480010081933
 21
29.89015102858031
 31
0.0
  0
INSERT
  5
17C3
330
16CF
100
AcDbEntity
  8
2
 62
     0
370
    -2
100
AcDbBlockReference
  2
_ARROW_FILLED
 10
33.66480010081931
 20
-17.0
 30
0.0
 41
4.57
 42
4.57
 43
4.57
 50
270.0
  0
INSERT
  5
17C4
330
16CF
100
AcDbEntity
  8
2
 62
     0
370
    -2
100
AcDbBlockReference
  2
_ARROW_FILLED
 10
33.66480010081933
 20
17.0
 30
0.0
 41
4.57
 42
4.57
 43
4.57
 50
90.0
  0
MTEXT
  5
17C5
330
16CF
100
AcDbEntity
  8
2
 62
     7
100
AcDbMText
 10
33.66480010081932
 20
35.22764224432171
 30
0.0
 40
3.5
 41
0.0
 71
     5
 72
     1
  1
\A1;%%c34
 11
1.000000000000000E-16
 21
1.0
 31
0.0
 73
     1
 44
1.0
  0
POINT
  5
17C6
330
16CF
100
AcDbEntity
  8
DEFPOINTS
 62
     0
100
AcDbPoint
 10
50.52828299999998
 20
-17.0
 30
0.0
  0
POINT
  5
17C7
330
16CF
100
AcDbEntity
  8
DEFPOINTS
 62
     0
100
AcDbPoint
 10
50.52828299999998
 20
17.0
 30
0.0
  0
POINT
  5
17C8
330
16CF
100
AcDbEntity
  8
DEFPOINTS
 62
     0
100
AcDbPoint
 10
33.66480010081933
 20
17.0
 30
0.0
  0
ENDBLK
  5
16DB
330
16CF
100
AcDbEntity
  8
0
100
AcDbBlockEnd
  0
BLOCK
  5
16E7
330
16DC
100
AcDbEntity
  8
0
100
AcDbBlockBegin
  2
*D22
 70
     1
 10
0.0
 20
0.0
 30
0.0
  3
*D22
  1

  0
LINE
  5
180C
330
16DC
100
AcDbEntity
  8
SK2
 62
     0
370
    -2
100
AcDbLine
 10
45.0
 20
8.5
 30
0.0
 11
45.0
 21
50.0
 31
0.0
  0
LINE
  5
180D
330
16DC
100
AcDbEntity
  8
SK2
 62
     0
370
    -2
100
AcDbLine
 10
95.0
 20
12.16121900000007
 30
0.0
 11
95.0
 21
50.0
 31
0.0
  0
LINE
  5
180E
330
16DC
100
AcDbEntity
  8
SK2
 62
     0
370
    -2
100
AcDbLine
 10
49.57
 20
45.0
 30
0.0
 11
67.35995902141102
 21
45.0
 31
0.0
  0
LINE
  5
180F
330
16DC
100
AcDbEntity
  8
SK2
 62
     0
370
    -2
100
AcDbLine
 10
90.43
 20
45.0
 30
0.0
 11
74.84976928142507
 21
45.0
 31
0.0
  0
INSERT
  5
1810
330
16DC
100
AcDbEntity
  8
SK2
 62
     0
370
    -2
100
AcDbBlockReference
  2
_ARROW_FILLED
 10
45.0
 20
45.0
 30
0.0
 41
4.57
 42
4.57
 43
4.57
 50
180.0
  0
INSERT
  5
1811
330
16DC
100
AcDbEntity
  8
SK2
 62
     0
370
    -2
100
AcDbBlockReference
  2
_ARROW_FILLED
 10
95.0
 20
45.0
 30
0.0
 41
4.57
 42
4.57
 43
4.57
  0
MTEXT
  5
1812
330
16DC
100
AcDbEntity
  8
SK2
 62
     7
100
AcDbMText
 10
71.10486415141804
 20
45.0
 30
0.0
 40
3.5
 41
0.0
 71
     5
 72
     1
  1
\A1;50
 73
     1
 44
1.0
  0
POINT
  5
1813
330
16DC
100
AcDbEntity
  8
DEFPOINTS
 62
     0
100
AcDbPoint
 10
45.0
 20
8.5
 30
0.0
  0
POINT
  5
1814
330
16DC
100
AcDbEntity
  8
DEFPOINTS
 62
     0
100
AcDbPoint
 10
95.0
 20
12.16121900000007
 30
0.0
  0
POINT
  5
1815
330
16DC
100
AcDbEntity
  8
DEFPOINTS
 62
     0
100
AcDbPoint
 10
95.0
 20
45.0
 30
0.0
  0
ENDBLK
  5
16E8
330
16DC
100
AcDbEntity
  8
0
100
AcDbBlockEnd
  0
BLOCK
  5
16F5
330
16E9
100
AcDbEntity
  8
0
100
AcDbBlockBegin
  2
*D23
 70
     1
 10
0.0
 20
0.0
 30
0.0
  3
*D23
  1

  0
LINE
  5
17D3
330
16E9
100
AcDbEntity
  8
SK2
 62
     0
370
    -2
100
AcDbLine
 10
50.52834299999995
 20
16.99999500000001
 30
0.0
 11
74.35773916895273
 21
15.12458112961315
 31
0.0
  0
LINE
  5
17D4
330
16E9
100
AcDbEntity
  8
SK2
 62
     0
370
    -2
100
AcDbLine
 10
93.90857499999991
 20
13.58542499999998
 30
0.0
 11
64.29726556894244
 21
13.58542500000505
 31
0.0
  0
ARC
  5
17D5
330
16E9
100
AcDbEntity
  8
SK2
 62
     0
370
    -2
100
AcDbCircle
 10
93.91457499999999
 20
13.58542499999998
 30
0.0
 40
24.61730943105757
100
AcDbArc
 50
154.1963589738283
 51
164.8481798223082
  0
ARC
  5
17D6
330
16E9
100
AcDbEntity
  8
SK2
 62
     0
370
    -2
100
AcDbCircle
 10
93.91457499999999
 20
13.58542499999998
 30
0.0
 40
24.61730943105757
100
AcDbArc
 50
190.6518208484701
 51
201.3036416969501
  0
INSERT
  5
17D7
330
16E9
100
AcDbEntity
  8
SK2
 62
     0
370
    -2
100
AcDbBlockReference
  2
_ARROW_FILLED
 10
69.37315249569428
 20
15.51687654989552
 30
0.0
 41
4.57
 42
4.57
 43
4.57
 50
260.1740902465483
  0
INSERT
  5
17D8
330
16E9
100
AcDbEntity
  8
SK2
 62
     0
370
    -2
100
AcDbBlockReference
  2
_ARROW_FILLED
 10
69.29726556894244
 20
13.5854250000042
 30
0.0
 41
4.57
 42
4.57
 43
4.57
 50
95.32591042423016
  0
MTEXT
  5
17D9
330
16E9
100
AcDbEntity
  8
SK2
 62
     7
100
AcDbMText
 10
75.95255825470076
 20
30.41925635433005
 30
0.0
 40
3.5
 41
0.0
 71
     5
 72
     1
  1
\A1;4°
 11
0.6838209269568769
 21
0.7296498748412406
 31
0.0
 73
     1
 44
1.0
  0
POINT
  5
17DA
330
16E9
100
AcDbEntity
  8
DEFPOINTS
 62
     0
100
AcDbPoint
 10
93.91457499999999
 20
13.58542499999998
 30
0.0
  0
POINT
  5
17DB
330
16E9
100
AcDbEntity
  8
DEFPOINTS
 62
     0
100
AcDbPoint
 10
50.52834299999995
 20
16.99999500000001
 30
0.0
  0
POINT
  5
17DC
330
16E9
100
AcDbEntity
  8
DEFPOINTS
 62
     0
100
AcDbPoint
 10
93.90857499999991
 20
13.58542499999998
 30
0.0
  0
POINT
  5
17DD
330
16E9
100
AcDbEntity
  8
DEFPOINTS
 62
     0
100
AcDbPoint
 10
69.30570130353871
 20
14.22983094042268
 30
0.0
  0
ENDBLK
  5
16F6
330
16E9
100
AcDbEntity
  8
0
100
AcDbBlockEnd
  0
BLOCK
  5
1702
330
16F7
100
AcDbEntity
  8
0
100
AcDbBlockBegin
  2
*D24
 70
     1
 10
0.0
 20
0.0
 30
0.0
  3
*D24
  1

  0
LINE
  5
17DE
330
16F7
100
AcDbEntity
  8
SK2
 62
     0
370
    -2
100
AcDbLine
 10
43.0
 20
-6.0
 30
0.0
 11
35.70556443333771
 21
-5.999999999999997
 31
0.0
  0
LINE
  5
17DF
330
16F7
100
AcDbEntity
  8
SK2
 62
     0
370
    -2
100
AcDbLine
 10
43.0
 20
6.0
 30
0.0
 11
35.70556443333771
 21
6.000000000000002
 31
0.0
  0
LINE
  5
17E0
330
16F7
100
AcDbEntity
  8
SK2
 62
     0
370
    -2
100
AcDbLine
 10
40.70556443333771
 20
-1.429999999999999
 30
0.0
 11
40.70556443333771
 21
1.43
 31
0.0
  0
LINE
  5
17E1
330
16F7
100
AcDbEntity
  8
SK2
 62
     0
370
    -2
100
AcDbLine
 10
40.70556443333771
 20
6.0
 30
0.0
 11
40.70556443333772
 21
18.94655719911627
 31
0.0
  0
INSERT
  5
17E2
330
16F7
100
AcDbEntity
  8
SK2
 62
     0
370
    -2
100
AcDbBlockReference
  2
_ARROW_FILLED
 10
40.70556443333771
 20
-5.999999999999999
 30
0.0
 41
4.57
 42
4.57
 43
4.57
 50
270.0
  0
INSERT
  5
17E3
330
16F7
100
AcDbEntity
  8
SK2
 62
     0
370
    -2
100
AcDbBlockReference
  2
_ARROW_FILLED
 10
40.70556443333771
 20
6.0
 30
0.0
 41
4.57
 42
4.57
 43
4.57
 50
90.0
  0
MTEXT
  5
17E4
330
16F7
100
AcDbEntity
  8
SK2
 62
     7
100
AcDbMText
 10
40.70556443333771
 20
26.82603717100665
 30
0.0
 40
3.5
 41
0.0
 71
     5
 72
     1
  1
\A1;M12x1
 11
1.000000000000000E-16
 21
1.0
 31
0.0
 73
     1
 44
1.0
  0
POINT
  5
17E5
330
16F7
100
AcDbEntity
  8
DEFPOINTS
 62
     0
100
AcDbPoint
 10
43.0
 20
-6.0
 30
0.0
  0
POINT
  5
17E6
330
16F7
100
AcDbEntity
  8
DEFPOINTS
 62
     0
100
AcDbPoint
 10
43.0
 20
6.0
 30
0.0
  0
POINT
  5
17E7
330
16F7
100
AcDbEntity
  8
DEFPOINTS
 62
     0
100
AcDbPoint
 10
40.70556443333771
 20
6.0
 30
0.0
  0
ENDBLK
  5
1703
330
16F7
100
AcDbEntity
  8
0
100
AcDbBlockEnd
  0
BLOCK
  5
1898
330
1897
100
AcDbEntity
  8
0
100
AcDbBlockBegin
  2
*D25
 70
     1
 10
0.0
 20
0.0
 30
0.0
  3
*D25
  1

  0
LINE
  5
1899
330
1897
100
AcDbEntity
  8
SK2
 62
     0
370
    -2
100
AcDbLine
 10
192.2677168697499
 20
-4.174942853170364
 30
0.0
 11
138.2678348697499
 21
-4.174942853170364
 31
0.0
  0
LINE
  5
189A
330
1897
100
AcDbEntity
  8
SK2
 62
     0
370
    -2
100
AcDbLine
 10
192.2677168697499
 20
58.82505714682964
 30
0.0
 11
138.2678348697499
 21
58.82505714682964
 31
0.0
  0
LINE
  5
189B
330
1897
100
AcDbEntity
  8
SK2
 62
     0
370
    -2
100
AcDbLine
 10
143.2678348697499
 20
0.395057146829636
 30
0.0
 11
143.2678348697499
 21
21.90839048016297
 31
0.0
  0
LINE
  5
189C
330
1897
100
AcDbEntity
  8
SK2
 62
     0
370
    -2
100
AcDbLine
 10
143.2678348697499
 20
54.25505714682964
 30
0.0
 11
143.2678348697499
 21
32.74172381349629
 31
0.0
  0
INSERT
  5
189D
330
1897
100
AcDbEntity
  8
SK2
 62
     0
370
    -2
100
AcDbBlockReference
  2
_ARROW_FILLED
 10
143.2678348697499
 20
-4.174942853170364
 30
0.0
 41
4.57
 42
4.57
 43
4.57
 50
270.0
  0
INSERT
  5
189E
330
1897
100
AcDbEntity
  8
SK2
 62
     0
370
    -2
100
AcDbBlockReference
  2
_ARROW_FILLED
 10
143.2678348697499
 20
58.82505714682964
 30
0.0
 41
4.57
 42
4.57
 43
4.57
 50
90.0
  0
MTEXT
  5
189F
330
1897
100
AcDbEntity
  8
SK2
 62
     7
100
AcDbMText
 10
143.2678348697499
 20
27.32505714682964
 30
0.0
 40
3.5
 41
0.0
 71
     5
 72
     1
  1
%%c\A1;63
 11
0.0
 21
1.0
 31
0.0
 73
     1
 44
1.0
  0
POINT
  5
18A0
330
1897
100
AcDbEntity
  8
DEFPOINTS
 62
     0
100
AcDbPoint
 10
192.2677168697499
 20
-4.174942853170364
 30
0.0
  0
POINT
  5
18A1
330
1897
100
AcDbEntity
  8
DEFPOINTS
 62
     0
100
AcDbPoint
 10
192.2677168697499
 20
58.82505714682964
 30
0.0
  0
POINT
  5
19CA
330
1897
100
AcDbEntity
  8
DEFPOINTS
 62
     0
100
AcDbPoint
 10
143.2678348697499
 20
58.82505714682964
 30
0.0
  0
ENDBLK
  5
18AF
330
1897
100
AcDbEntity
  8
0
100
AcDbBlockEnd
  0
BLOCK
  5
18B8
330
18B7
100
AcDbEntity
  8
0
100
AcDbBlockBegin
  2
*D26
 70
     1
 10
0.0
 20
0.0
 30
0.0
  3
*D26
  1

  0
LINE
  5
18B9
330
18B7
100
AcDbEntity
  8
SK2
 62
     0
370
    -2
100
AcDbLine
 10
160.2677168697499
 20
48.89855814682964
 30
0.0
 11
160.2677168697499
 21
74.32605714682964
 31
0.0
  0
LINE
  5
18BA
330
18B7
100
AcDbEntity
  8
SK2
 62
     0
370
    -2
100
AcDbLine
 10
192.2677168697499
 20
58.82505714682964
 30
0.0
 11
192.2677168697499
 21
74.32605714682964
 31
0.0
  0
LINE
  5
18BB
330
18B7
100
AcDbEntity
  8
SK2
 62
     0
370
    -2
100
AcDbLine
 10
164.8377168697499
 20
69.32605714682964
 30
0.0
 11
172.4343835364166
 21
69.32605714682964
 31
0.0
  0
LINE
  5
18BC
330
18B7
100
AcDbEntity
  8
SK2
 62
     0
370
    -2
100
AcDbLine
 10
187.6977168697499
 20
69.32605714682964
 30
0.0
 11
180.1010502030832
 21
69.32605714682964
 31
0.0
  0
INSERT
  5
18BD
330
18B7
100
AcDbEntity
  8
SK2
 62
     0
370
    -2
100
AcDbBlockReference
  2
_ARROW_FILLED
 10
160.2677168697499
 20
69.32605714682964
 30
0.0
 41
4.57
 42
4.57
 43
4.57
 50
180.0
  0
INSERT
  5
18BE
330
18B7
100
AcDbEntity
  8
SK2
 62
     0
370
    -2
100
AcDbBlockReference
  2
_ARROW_FILLED
 10
192.2677168697499
 20
69.32605714682964
 30
0.0
 41
4.57
 42
4.57
 43
4.57
  0
MTEXT
  5
18BF
330
18B7
100
AcDbEntity
  8
SK2
 62
     7
100
AcDbMText
 10
176.2677168697499
 20
69.32605714682964
 30
0.0
 40
3.5
 41
0.0
 71
     5
 72
     1
  1
\A1;32
 73
     1
 44
1.0
  0
POINT
  5
18C0
330
18B7
100
AcDbEntity
  8
DEFPOINTS
 62
     0
100
AcDbPoint
 10
160.2677168697499
 20
48.89855814682964
 30
0.0
  0
POINT
  5
18C1
330
18B7
100
AcDbEntity
  8
DEFPOINTS
 62
     0
100
AcDbPoint
 10
192.2677168697499
 20
58.82505714682964
 30
0.0
  0
POINT
  5
19C9
330
18B7
100
AcDbEntity
  8
DEFPOINTS
 62
     0
100
AcDbPoint
 10
192.2677168697499
 20
69.32605714682964
 30
0.0
  0
ENDBLK
  5
18CF
330
18B7
100
AcDbEntity
  8
0
100
AcDbBlockEnd
  0
BLOCK
  5
18D2
330
18D1
100
AcDbEntity
  8
0
100
AcDbBlockBegin
  2
*D27
 70
     1
 10
0.0
 20
0.0
 30
0.0
  3
*D27
  1

  0
LINE
  5
18D3
330
18D1
100
AcDbEntity
  8
SK2
 62
     0
370
    -2
100
AcDbLine
 10
160.2677168697499
 20
48.89855814682964
 30
0.0
 11
160.2677168697499
 21
88.32605714682964
 31
0.0
  0
LINE
  5
18D4
330
18D1
100
AcDbEntity
  8
SK2
 62
     0
370
    -2
100
AcDbLine
 10
272.2677168697499
 20
36.73627614682964
 30
0.0
 11
272.2677168697499
 21
88.32605714682964
 31
0.0
  0
LINE
  5
18D5
330
18D1
100
AcDbEntity
  8
SK2
 62
     0
370
    -2
100
AcDbLine
 10
164.8377168697499
 20
83.32605714682964
 30
0.0
 11
211.4343835364166
 21
83.32605714682964
 31
0.0
  0
LINE
  5
18D6
330
18D1
100
AcDbEntity
  8
SK2
 62
     0
370
    -2
100
AcDbLine
 10
267.6977168697499
 20
83.32605714682964
 30
0.0
 11
221.1010502030832
 21
83.32605714682964
 31
0.0
  0
INSERT
  5
18D7
330
18D1
100
AcDbEntity
  8
SK2
 62
     0
370
    -2
100
AcDbBlockReference
  2
_ARROW_FILLED
 10
160.2677168697499
 20
83.32605714682964
 30
0.0
 41
4.57
 42
4.57
 43
4.57
 50
180.0
  0
INSERT
  5
18D8
330
18D1
100
AcDbEntity
  8
SK2
 62
     0
370
    -2
100
AcDbBlockReference
  2
_ARROW_FILLED
 10
272.2677168697499
 20
83.32605714682964
 30
0.0
 41
4.57
 42
4.57
 43
4.57
  0
MTEXT
  5
18D9
330
18D1
100
AcDbEntity
  8
SK2
 62
     7
100
AcDbMText
 10
216.2677168697499
 20
83.32605714682964
 30
0.0
 40
3.5
 41
0.0
 71
     5
 72
     1
  1
\A1;112
 73
     1
 44
1.0
  0
POINT
  5
18DA
330
18D1
100
AcDbEntity
  8
DEFPOINTS
 62
     0
100
AcDbPoint
 10
160.2677168697499
 20
48.89855814682964
 30
0.0
  0
POINT
  5
18DB
330
18D1
100
AcDbEntity
  8
DEFPOINTS
 62
     0
100
AcDbPoint
 10
272.2677168697499
 20
36.73627614682964
 30
0.0
  0
POINT
  5
19C8
330
18D1
100
AcDbEntity
  8
DEFPOINTS
 62
     0
100
AcDbPoint
 10
272.2677168697499
 20
83.32605714682964
 30
0.0
  0
ENDBLK
  5
18DC
330
18D1
100
AcDbEntity
  8
0
100
AcDbBlockEnd
  0
BLOCK
  5
18E0
330
18DF
100
AcDbEntity
  8
0
100
AcDbBlockBegin
  2
*D28
 70
     1
 10
0.0
 20
0.0
 30
0.0
  3
*D28
  1

  0
LINE
  5
18E1
330
18DF
100
AcDbEntity
  8
2
 62
     0
370
    -2
100
AcDbLine
 10
272.2677168697499
 20
17.91383814682964
 30
0.0
 11
272.2677168697499
 21
-26.67394285317036
 31
0.0
  0
LINE
  5
18E2
330
18DF
100
AcDbEntity
  8
2
 62
     0
370
    -2
100
AcDbLine
 10
192.2677168697499
 20
-4.174942853170364
 30
0.0
 11
192.2677168697499
 21
-26.67394285317036
 31
0.0
  0
LINE
  5
18E3
330
18DF
100
AcDbEntity
  8
2
 62
     0
370
    -2
100
AcDbLine
 10
267.6977168697499
 20
-21.67394285317036
 30
0.0
 11
236.1010502030832
 21
-21.67394285317036
 31
0.0
  0
LINE
  5
18E4
330
18DF
100
AcDbEntity
  8
2
 62
     0
370
    -2
100
AcDbLine
 10
196.8377168697499
 20
-21.67394285317036
 30
0.0
 11
228.4343835364166
 21
-21.67394285317036
 31
0.0
  0
INSERT
  5
18E5
330
18DF
100
AcDbEntity
  8
2
 62
     0
370
    -2
100
AcDbBlockReference
  2
_ARROW_FILLED
 10
272.2677168697499
 20
-21.67394285317036
 30
0.0
 41
4.57
 42
4.57
 43
4.57
  0
INSERT
  5
18E6
330
18DF
100
AcDbEntity
  8
2
 62
     0
370
    -2
100
AcDbBlockReference
  2
_ARROW_FILLED
 10
192.2677168697499
 20
-21.67394285317036
 30
0.0
 41
4.57
 42
4.57
 43
4.57
 50
180.0
  0
MTEXT
  5
18E7
330
18DF
100
AcDbEntity
  8
2
 62
     7
100
AcDbMText
 10
232.2677168697499
 20
-21.67394285317036
 30
0.0
 40
3.5
 41
0.0
 71
     5
 72
     1
  1
\A1;80
 73
     1
 44
1.0
  0
POINT
  5
18E8
330
18DF
100
AcDbEntity
  8
DEFPOINTS
 62
     0
100
AcDbPoint
 10
272.2677168697499
 20
17.91383814682964
 30
0.0
  0
POINT
  5
18E9
330
18DF
100
AcDbEntity
  8
DEFPOINTS
 62
     0
100
AcDbPoint
 10
192.2677168697499
 20
-4.174942853170364
 30
0.0
  0
POINT
  5
1995
330
18DF
100
AcDbEntity
  8
DEFPOINTS
 62
     0
100
AcDbPoint
 10
192.2677168697499
 20
-21.67394285317036
 30
0.0
  0
ENDBLK
  5
18EA
330
18DF
100
AcDbEntity
  8
0
100
AcDbBlockEnd
  0
BLOCK
  5
1903
330
1902
100
AcDbEntity
  8
0
100
AcDbBlockBegin
  2
*D29
 70
     1
 10
0.0
 20
0.0
 30
0.0
  3
*D29
  1

  0
LINE
  5
1904
330
1902
100
AcDbEntity
  8
SK2
 62
     0
370
    -2
100
AcDbLine
 10
271.2707998697499
 20
24.32505714682964
 30
0.0
 11
290.2678348697499
 21
24.32505714682964
 31
0.0
  0
LINE
  5
1905
330
1902
100
AcDbEntity
  8
SK2
 62
     0
370
    -2
100
AcDbLine
 10
271.2707998697499
 20
30.32505714682964
 30
0.0
 11
290.2678348697499
 21
30.32505714682964
 31
0.0
  0
LINE
  5
1906
330
1902
100
AcDbEntity
  8
SK2
 62
     0
370
    -2
100
AcDbLine
 10
285.2678348697499
 20
34.89505714682964
 30
0.0
 11
285.2678348697499
 21
39.46505714682964
 31
0.0
  0
LINE
  5
1907
330
1902
100
AcDbEntity
  8
SK2
 62
     0
370
    -2
100
AcDbLine
 10
285.2678348697499
 20
19.75505714682964
 30
0.0
 11
285.2678348697499
 21
15.18505714682964
 31
0.0
  0
INSERT
  5
1908
330
1902
100
AcDbEntity
  8
SK2
 62
     0
370
    -2
100
AcDbBlockReference
  2
_ARROW_FILLED
 10
285.2678348697499
 20
24.32505714682964
 30
0.0
 41
4.57
 42
4.57
 43
4.57
 50
90.0
  0
INSERT
  5
1909
330
1902
100
AcDbEntity
  8
SK2
 62
     0
370
    -2
100
AcDbBlockReference
  2
_ARROW_FILLED
 10
285.2678348697499
 20
30.32505714682964
 30
0.0
 41
4.57
 42
4.57
 43
4.57
 50
270.0
  0
MTEXT
  5
190A
330
1902
100
AcDbEntity
  8
SK2
 62
     7
100
AcDbMText
 10
285.2678348697499
 20
43.12391131349632
 30
0.0
 40
3.5
 41
0.0
 71
     5
 72
     1
  1
%%c\A1;6
 11
0.0
 21
1.0
 31
0.0
 73
     1
 44
1.0
  0
POINT
  5
190B
330
1902
100
AcDbEntity
  8
DEFPOINTS
 62
     0
100
AcDbPoint
 10
271.2707998697499
 20
24.32505714682964
 30
0.0
  0
POINT
  5
190C
330
1902
100
AcDbEntity
  8
DEFPOINTS
 62
     0
100
AcDbPoint
 10
271.2707998697499
 20
30.32505714682964
 30
0.0
  0
POINT
  5
190D
330
1902
100
AcDbEntity
  8
DEFPOINTS
 62
     0
100
AcDbPoint
 10
285.2678348697499
 20
30.32505714682964
 30
0.0
  0
ENDBLK
  5
190E
330
1902
100
AcDbEntity
  8
0
100
AcDbBlockEnd
  0
BLOCK
  5
1911
330
1910
100
AcDbEntity
  8
0
100
AcDbBlockBegin
  2
*D30
 70
     1
 10
0.0
 20
0.0
 30
0.0
  3
*D30
  1

  0
LINE
  5
1912
330
1910
100
AcDbEntity
  8
SK2
 62
     0
370
    -2
100
AcDbLine
 10
236.2677168697499
 20
30.82505714682964
 30
0.0
 11
236.2677168697499
 21
60.32605714682964
 31
0.0
  0
LINE
  5
1913
330
1910
100
AcDbEntity
  8
SK2
 62
     0
370
    -2
100
AcDbLine
 10
272.2677168697499
 20
36.73627614682964
 30
0.0
 11
272.2677168697499
 21
60.32605714682964
 31
0.0
  0
LINE
  5
1914
330
1910
100
AcDbEntity
  8
SK2
 62
     0
370
    -2
100
AcDbLine
 10
240.8377168697499
 20
55.32605714682964
 30
0.0
 11
250.5255293697499
 21
55.32605714682964
 31
0.0
  0
LINE
  5
1915
330
1910
100
AcDbEntity
  8
SK2
 62
     0
370
    -2
100
AcDbLine
 10
267.6977168697499
 20
55.32605714682964
 30
0.0
 11
258.0099043697499
 21
55.32605714682964
 31
0.0
  0
INSERT
  5
1916
330
1910
100
AcDbEntity
  8
SK2
 62
     0
370
    -2
100
AcDbBlockReference
  2
_ARROW_FILLED
 10
236.2677168697499
 20
55.32605714682964
 30
0.0
 41
4.57
 42
4.57
 43
4.57
 50
180.0
  0
INSERT
  5
1917
330
1910
100
AcDbEntity
  8
SK2
 62
     0
370
    -2
100
AcDbBlockReference
  2
_ARROW_FILLED
 10
272.2677168697499
 20
55.32605714682964
 30
0.0
 41
4.57
 42
4.57
 43
4.57
  0
MTEXT
  5
1918
330
1910
100
AcDbEntity
  8
SK2
 62
     7
100
AcDbMText
 10
254.2677168697499
 20
55.32605714682964
 30
0.0
 40
3.5
 41
0.0
 71
     5
 72
     1
  1
\A1;36
 73
     1
 44
1.0
  0
POINT
  5
1919
330
1910
100
AcDbEntity
  8
DEFPOINTS
 62
     0
100
AcDbPoint
 10
236.2677168697499
 20
30.82505714682964
 30
0.0
  0
POINT
  5
191A
330
1910
100
AcDbEntity
  8
DEFPOINTS
 62
     0
100
AcDbPoint
 10
272.2677168697499
 20
36.73627614682964
 30
0.0
  0
POINT
  5
19CB
330
1910
100
AcDbEntity
  8
DEFPOINTS
 62
     0
100
AcDbPoint
 10
272.2677168697499
 20
55.32605714682964
 30
0.0
  0
ENDBLK
  5
191B
330
1910
100
AcDbEntity
  8
0
100
AcDbBlockEnd
  0
BLOCK
  5
191E
330
191D
100
AcDbEntity
  8
0
100
AcDbBlockBegin
  2
*D31
 70
     1
 10
0.0
 20
0.0
 30
0.0
  3
*D31
  1

  0
LINE
  5
191F
330
191D
100
AcDbEntity
  8
SK2
 62
     0
370
    -2
100
AcDbLine
 10
272.2677168697499
 20
36.73627614682964
 30
0.0
 11
272.2677168697499
 21
74.32605714682964
 31
0.0
  0
LINE
  5
1920
330
191D
100
AcDbEntity
  8
SK2
 62
     0
370
    -2
100
AcDbLine
 10
218.2677168697499
 20
58.82505714682964
 30
0.0
 11
218.2677168697499
 21
74.32605714682964
 31
0.0
  0
LINE
  5
1921
330
191D
100
AcDbEntity
  8
SK2
 62
     0
370
    -2
100
AcDbLine
 10
267.6977168697499
 20
69.32605714682964
 30
0.0
 11
249.1921960364166
 21
69.32605714682964
 31
0.0
  0
LINE
  5
1922
330
191D
100
AcDbEntity
  8
SK2
 62
     0
370
    -2
100
AcDbLine
 10
222.8377168697499
 20
69.32605714682964
 30
0.0
 11
241.3432377030832
 21
69.32605714682964
 31
0.0
  0
INSERT
  5
1923
330
191D
100
AcDbEntity
  8
SK2
 62
     0
370
    -2
100
AcDbBlockReference
  2
_ARROW_FILLED
 10
272.2677168697499
 20
69.32605714682964
 30
0.0
 41
4.57
 42
4.57
 43
4.57
  0
INSERT
  5
1924
330
191D
100
AcDbEntity
  8
SK2
 62
     0
370
    -2
100
AcDbBlockReference
  2
_ARROW_FILLED
 10
218.2677168697499
 20
69.32605714682964
 30
0.0
 41
4.57
 42
4.57
 43
4.57
 50
180.0
  0
MTEXT
  5
1925
330
191D
100
AcDbEntity
  8
SK2
 62
     7
100
AcDbMText
 10
245.2677168697499
 20
69.32605714682964
 30
0.0
 40
3.5
 41
0.0
 71
     5
 72
     1
  1
\A1;54
 73
     1
 44
1.0
  0
POINT
  5
1926
330
191D
100
AcDbEntity
  8
DEFPOINTS
 62
     0
100
AcDbPoint
 10
272.2677168697499
 20
36.73627614682964
 30
0.0
  0
POINT
  5
1927
330
191D
100
AcDbEntity
  8
DEFPOINTS
 62
     0
100
AcDbPoint
 10
218.2677168697499
 20
58.82505714682964
 30
0.0
  0
POINT
  5
19C7
330
191D
100
AcDbEntity
  8
DEFPOINTS
 62
     0
100
AcDbPoint
 10
218.2677168697499
 20
69.32605714682964
 30
0.0
  0
ENDBLK
  5
1928
330
191D
100
AcDbEntity
  8
0
100
AcDbBlockEnd
  0
BLOCK
  5
192B
330
192A
100
AcDbEntity
  8
0
100
AcDbBlockBegin
  2
*D32
 70
     1
 10
0.0
 20
0.0
 30
0.0
  3
*D32
  1

  0
LINE
  5
192C
330
192A
100
AcDbEntity
  8
SK2
 62
     0
370
    -2
100
AcDbLine
 10
272.2677168697499
 20
16.82505714682964
 30
0.0
 11
304.2678348697499
 21
16.82505714682964
 31
0.0
  0
LINE
  5
192D
330
192A
100
AcDbEntity
  8
SK2
 62
     0
370
    -2
100
AcDbLine
 10
272.2677168697499
 20
37.82505714682964
 30
0.0
 11
304.2678348697499
 21
37.82505714682964
 31
0.0
  0
LINE
  5
192E
330
192A
100
AcDbEntity
  8
SK2
 62
     0
370
    -2
100
AcDbLine
 10
299.2678348697499
 20
21.39505714682964
 30
0.0
 11
299.2678348697499
 21
22.65578631349632
 31
0.0
  0
LINE
  5
192F
330
192A
100
AcDbEntity
  8
SK2
 62
     0
370
    -2
100
AcDbLine
 10
299.2678348697499
 20
33.25505714682964
 30
0.0
 11
299.2678348697499
 21
31.99432798016295
 31
0.0
  0
INSERT
  5
1930
330
192A
100
AcDbEntity
  8
SK2
 62
     0
370
    -2
100
AcDbBlockReference
  2
_ARROW_FILLED
 10
299.2678348697499
 20
16.82505714682964
 30
0.0
 41
4.57
 42
4.57
 43
4.57
 50
270.0
  0
INSERT
  5
1931
330
192A
100
AcDbEntity
  8
SK2
 62
     0
370
    -2
100
AcDbBlockReference
  2
_ARROW_FILLED
 10
299.2678348697499
 20
37.82505714682964
 30
0.0
 41
4.57
 42
4.57
 43
4.57
 50
90.0
  0
MTEXT
  5
1932
330
192A
100
AcDbEntity
  8
SK2
 62
     7
100
AcDbMText
 10
299.2678348697499
 20
27.32505714682964
 30
0.0
 40
3.5
 41
0.0
 71
     5
 72
     1
  1
%%c\A1;21
 11
0.0
 21
1.0
 31
0.0
 73
     1
 44
1.0
  0
POINT
  5
1933
330
192A
100
AcDbEntity
  8
DEFPOINTS
 62
     0
100
AcDbPoint
 10
272.2677168697499
 20
16.82505714682964
 30
0.0
  0
POINT
  5
1934
330
192A
100
AcDbEntity
  8
DEFPOINTS
 62
     0
100
AcDbPoint
 10
272.2677168697499
 20
37.82505714682964
 30
0.0
  0
POINT
  5
19CC
330
192A
100
AcDbEntity
  8
DEFPOINTS
 62
     0
100
AcDbPoint
 10
299.2678348697499
 20
37.82505714682964
 30
0.0
  0
ENDBLK
  5
1935
330
192A
100
AcDbEntity
  8
0
100
AcDbBlockEnd
  0
BLOCK
  5
1938
330
1937
100
AcDbEntity
  8
0
100
AcDbBlockBegin
  2
*D33
 70
     1
 10
0.0
 20
0.0
 30
0.0
  3
*D33
  1

  0
LINE
  5
1939
330
1937
100
AcDbEntity
  8
2
 62
     0
370
    -2
100
AcDbLine
 10
234.1491028697499
 20
13.82505714682964
 30
0.0
 11
318.2678348697499
 21
13.82505714682964
 31
0.0
  0
LINE
  5
193A
330
1937
100
AcDbEntity
  8
2
 62
     0
370
    -2
100
AcDbLine
 10
234.1491028697499
 20
40.82505714682964
 30
0.0
 11
318.2678348697499
 21
40.82505714682963
 31
0.0
  0
LINE
  5
193B
330
1937
100
AcDbEntity
  8
2
 62
     0
370
    -2
100
AcDbLine
 10
313.2678348697499
 20
18.39505714682964
 30
0.0
 11
313.2678348697499
 21
21.90839048016295
 31
0.0
  0
LINE
  5
193C
330
1937
100
AcDbEntity
  8
2
 62
     0
370
    -2
100
AcDbLine
 10
313.2678348697499
 20
36.25505714682963
 30
0.0
 11
313.2678348697499
 21
32.74172381349632
 31
0.0
  0
INSERT
  5
193D
330
1937
100
AcDbEntity
  8
2
 62
     0
370
    -2
100
AcDbBlockReference
  2
_ARROW_FILLED
 10
313.2678348697499
 20
13.82505714682964
 30
0.0
 41
4.57
 42
4.57
 43
4.57
 50
270.0
  0
INSERT
  5
193E
330
1937
100
AcDbEntity
  8
2
 62
     0
370
    -2
100
AcDbBlockReference
  2
_ARROW_FILLED
 10
313.2678348697499
 20
40.82505714682963
 30
0.0
 41
4.57
 42
4.57
 43
4.57
 50
90.0
  0
MTEXT
  5
193F
330
1937
100
AcDbEntity
  8
2
 62
     7
100
AcDbMText
 10
313.2678348697499
 20
27.32505714682963
 30
0.0
 40
3.5
 41
0.0
 71
     5
 72
     1
  1
%%c\A1;27
 11
0.0
 21
1.0
 31
0.0
 73
     1
 44
1.0
  0
POINT
  5
1940
330
1937
100
AcDbEntity
  8
DEFPOINTS
 62
     0
100
AcDbPoint
 10
234.1491028697499
 20
13.82505714682964
 30
0.0
  0
POINT
  5
1941
330
1937
100
AcDbEntity
  8
DEFPOINTS
 62
     0
100
AcDbPoint
 10
234.1491028697499
 20
40.82505714682964
 30
0.0
  0
POINT
  5
1996
330
1937
100
AcDbEntity
  8
DEFPOINTS
 62
     0
100
AcDbPoint
 10
313.2678348697499
 20
40.82505714682963
 30
0.0
  0
ENDBLK
  5
1942
330
1937
100
AcDbEntity
  8
0
100
AcDbBlockEnd
  0
BLOCK
  5
1A39
330
1A38
100
AcDbEntity
  8
0
100
AcDbBlockBegin
  2
*D34
 70
     1
 10
0.0
 20
0.0
 30
0.0
  3
*D34
  1

  0
LINE
  5
1A3A
330
1A38
100
AcDbEntity
  8
SK2
 62
     0
370
    -2
100
AcDbLine
 10
-0.0000000000000004
 20
-31.5
 30
0.0
 11
-53.99988200000003
 21
-31.5
 31
0.0
  0
LINE
  5
1A3B
330
1A38
100
AcDbEntity
  8
SK2
 62
     0
370
    -2
100
AcDbLine
 10
-0.0000000000000004
 20
31.5
 30
0.0
 11
-53.99988200000002
 21
31.5
 31
0.0
  0
LINE
  5
1A3C
330
1A38
100
AcDbEntity
  8
SK2
 62
     0
370
    -2
100
AcDbLine
 10
-48.99988200000003
 20
-26.93
 30
0.0
 11
-48.99988200000003
 21
-5.416666666666664
 31
0.0
  0
LINE
  5
1A3D
330
1A38
100
AcDbEntity
  8
SK2
 62
     0
370
    -2
100
AcDbLine
 10
-48.99988200000002
 20
26.93
 30
0.0
 11
-48.99988200000002
 21
5.416666666666664
 31
0.0
  0
INSERT
  5
1A3E
330
1A38
100
AcDbEntity
  8
SK2
 62
     0
370
    -2
100
AcDbBlockReference
  2
_ARROW_FILLED
 10
-48.99988200000003
 20
-31.5
 30
0.0
 41
4.57
 42
4.57
 43
4.57
 50
270.0
  0
INSERT
  5
1A3F
330
1A38
100
AcDbEntity
  8
SK2
 62
     0
370
    -2
100
AcDbBlockReference
  2
_ARROW_FILLED
 10
-48.99988200000002
 20
31.5
 30
0.0
 41
4.57
 42
4.57
 43
4.57
 50
90.0
  0
MTEXT
  5
1A40
330
1A38
100
AcDbEntity
  8
SK2
 62
     7
100
AcDbMText
 10
-48.99988200000003
 20
0.0
 30
0.0
 40
3.5
 41
0.0
 71
     5
 72
     1
  1
%%c\A1;63
 11
1.127845612317619E-16
 21
1.0
 31
0.0
 73
     1
 44
1.0
  0
POINT
  5
1A41
330
1A38
100
AcDbEntity
  8
DEFPOINTS
 62
     0
100
AcDbPoint
 10
-0.0000000000000004
 20
-31.5
 30
0.0
  0
POINT
  5
1A42
330
1A38
100
AcDbEntity
  8
DEFPOINTS
 62
     0
100
AcDbPoint
 10
-0.0000000000000004
 20
31.5
 30
0.0
  0
POINT
  5
1A43
330
1A38
100
AcDbEntity
  8
DEFPOINTS
 62
     0
100
AcDbPoint
 10
-48.99988200000002
 20
31.5
 30
0.0
  0
ENDBLK
  5
1A44
330
1A38
100
AcDbEntity
  8
0
100
AcDbBlockEnd
  0
BLOCK
  5
1A48
330
1A47
100
AcDbEntity
  8
0
100
AcDbBlockBegin
  2
*D35
 70
     1
 10
0.0
 20
0.0
 30
0.0
  3
*D35
  1

  0
LINE
  5
1A49
330
1A47
100
AcDbEntity
  8
SK2
 62
     0
370
    -2
100
AcDbLine
 10
-32.00000000000003
 20
21.573501
 30
0.0
 11
-32.00000000000003
 21
47.001
 31
0.0
  0
LINE
  5
1A4A
330
1A47
100
AcDbEntity
  8
SK2
 62
     0
370
    -2
100
AcDbLine
 10
-0.0000000000000004
 20
31.5
 30
0.0
 11
-0.0000000000000004
 21
47.001
 31
0.0
  0
LINE
  5
1A4B
330
1A47
100
AcDbEntity
  8
SK2
 62
     0
370
    -2
100
AcDbLine
 10
-27.43000000000003
 20
42.001
 30
0.0
 11
-19.83333333333335
 21
42.001
 31
0.0
  0
LINE
  5
1A4C
330
1A47
100
AcDbEntity
  8
SK2
 62
     0
370
    -2
100
AcDbLine
 10
-4.57
 20
42.001
 30
0.0
 11
-12.16666666666669
 21
42.001
 31
0.0
  0
INSERT
  5
1A4D
330
1A47
100
AcDbEntity
  8
SK2
 62
     0
370
    -2
100
AcDbBlockReference
  2
_ARROW_FILLED
 10
-32.00000000000003
 20
42.001
 30
0.0
 41
4.57
 42
4.57
 43
4.57
 50
180.0
  0
INSERT
  5
1A4E
330
1A47
100
AcDbEntity
  8
SK2
 62
     0
370
    -2
100
AcDbBlockReference
  2
_ARROW_FILLED
 10
-0.0000000000000004
 20
42.001
 30
0.0
 41
4.57
 42
4.57
 43
4.57
  0
MTEXT
  5
1A4F
330
1A47
100
AcDbEntity
  8
SK2
 62
     7
100
AcDbMText
 10
-16.00000000000001
 20
42.001
 30
0.0
 40
3.5
 41
0.0
 71
     5
 72
     1
  1
\A1;32
 73
     1
 44
1.0
  0
POINT
  5
1A50
330
1A47
100
AcDbEntity
  8
DEFPOINTS
 62
     0
100
AcDbPoint
 10
-32.00000000000003
 20
21.573501
 30
0.0
  0
POINT
  5
1A51
330
1A47
100
AcDbEntity
  8
DEFPOINTS
 62
     0
100
AcDbPoint
 10
-0.0000000000000004
 20
31.5
 30
0.0
  0
POINT
  5
1A52
330
1A47
100
AcDbEntity
  8
DEFPOINTS
 62
     0
100
AcDbPoint
 10
-0.0000000000000004
 20
42.001
 30
0.0
  0
ENDBLK
  5
1A53
330
1A47
100
AcDbEntity
  8
0
100
AcDbBlockEnd
  0
BLOCK
  5
1A56
330
1A55
100
AcDbEntity
  8
0
100
AcDbBlockBegin
  2
*D36
 70
     1
 10
0.0
 20
0.0
 30
0.0
  3
*D36
  1

  0
LINE
  5
1A57
330
1A55
100
AcDbEntity
  8
SK2
 62
     0
370
    -2
100
AcDbLine
 10
-32.00000000000003
 20
21.573501
 30
0.0
 11
-32.00000000000003
 21
61.001
 31
0.0
  0
LINE
  5
1A58
330
1A55
100
AcDbEntity
  8
SK2
 62
     0
370
    -2
100
AcDbLine
 10
119.9999745562315
 20
9.411246943932365
 30
0.0
 11
119.9999745562315
 21
61.001
 31
0.0
  0
LINE
  5
1A59
330
1A55
100
AcDbEntity
  8
SK2
 62
     0
370
    -2
100
AcDbLine
 10
-27.43000000000003
 20
56.001
 30
0.0
 11
38.83332061144904
 21
56.001
 31
0.0
  0
LINE
  5
1A5A
330
1A55
100
AcDbEntity
  8
SK2
 62
     0
370
    -2
100
AcDbLine
 10
115.4299745562315
 20
56.001
 30
0.0
 11
49.1666539447824
 21
56.001
 31
0.0
  0
INSERT
  5
1A5B
330
1A55
100
AcDbEntity
  8
SK2
 62
     0
370
    -2
100
AcDbBlockReference
  2
_ARROW_FILLED
 10
-32.00000000000003
 20
56.001
 30
0.0
 41
4.57
 42
4.57
 43
4.57
 50
180.0
  0
INSERT
  5
1A5C
330
1A55
100
AcDbEntity
  8
SK2
 62
     0
370
    -2
100
AcDbBlockReference
  2
_ARROW_FILLED
 10
119.9999745562315
 20
56.001
 30
0.0
 41
4.57
 42
4.57
 43
4.57
  0
MTEXT
  5
1A5D
330
1A55
100
AcDbEntity
  8
SK2
 62
     7
100
AcDbMText
 10
43.99998727811571
 20
56.001
 30
0.0
 40
3.5
 41
0.0
 71
     5
 72
     1
  1
\A1;152
 73
     1
 44
1.0
  0
POINT
  5
1A5E
330
1A55
100
AcDbEntity
  8
DEFPOINTS
 62
     0
100
AcDbPoint
 10
-32.00000000000003
 20
21.573501
 30
0.0
  0
POINT
  5
1A5F
330
1A55
100
AcDbEntity
  8
DEFPOINTS
 62
     0
100
AcDbPoint
 10
119.9999745562315
 20
9.411246943932365
 30
0.0
  0
POINT
  5
1A60
330
1A55
100
AcDbEntity
  8
DEFPOINTS
 62
     0
100
AcDbPoint
 10
119.9999745562315
 20
56.001
 30
0.0
  0
ENDBLK
  5
1A61
330
1A55
100
AcDbEntity
  8
0
100
AcDbBlockEnd
  0
BLOCK
  5
1A65
330
1A64
100
AcDbEntity
  8
0
100
AcDbBlockBegin
  2
*D37
 70
     1
 10
0.0
 20
0.0
 30
0.0
  3
*D37
  1

  0
LINE
  5
1A66
330
1A64
100
AcDbEntity
  8
2
 62
     0
370
    -2
100
AcDbLine
 10
119.9999745562315
 20
-9.411191056067633
 30
0.0
 11
119.9999745562315
 21
-44.44646758793155
 31
0.0
  0
LINE
  5
1A67
330
1A64
100
AcDbEntity
  8
2
 62
     0
370
    -2
100
AcDbLine
 10
-0.0000000000000004
 20
-31.5
 30
0.0
 11
0.0000000000000003
 21
-44.44646758793155
 31
0.0
  0
LINE
  5
1A68
330
1A64
100
AcDbEntity
  8
2
 62
     0
370
    -2
100
AcDbLine
 10
115.4299745562315
 20
-39.44646758793155
 30
0.0
 11
63.83715327169515
 21
-39.44646758793155
 31
0.0
  0
LINE
  5
1A69
330
1A64
100
AcDbEntity
  8
2
 62
     0
370
    -2
100
AcDbLine
 10
4.57
 20
-39.44646758793155
 30
0.0
 11
53.50381993836183
 21
-39.44646758793155
 31
0.0
  0
INSERT
  5
1A6A
330
1A64
100
AcDbEntity
  8
2
 62
     0
370
    -2
100
AcDbBlockReference
  2
_ARROW_FILLED
 10
119.9999745562315
 20
-39.44646758793155
 30
0.0
 41
4.57
 42
4.57
 43
4.57
  0
INSERT
  5
1A6B
330
1A64
100
AcDbEntity
  8
2
 62
     0
370
    -2
100
AcDbBlockReference
  2
_ARROW_FILLED
 10
0.0
 20
-39.44646758793155
 30
0.0
 41
4.57
 42
4.57
 43
4.57
 50
180.0
  0
MTEXT
  5
1A6C
330
1A64
100
AcDbEntity
  8
2
 62
     7
100
AcDbMText
 10
58.67048660502849
 20
-39.44646758793155
 30
0.0
 40
3.5
 41
0.0
 71
     5
 72
     1
  1
\A1;120
 73
     1
 44
1.0
  0
POINT
  5
1A6D
330
1A64
100
AcDbEntity
  8
DEFPOINTS
 62
     0
100
AcDbPoint
 10
119.9999745562315
 20
-9.411191056067633
 30
0.0
  0
POINT
  5
1A6E
330
1A64
100
AcDbEntity
  8
DEFPOINTS
 62
     0
100
AcDbPoint
 10
-0.0000000000000004
 20
-31.5
 30
0.0
  0
POINT
  5
1A6F
330
1A64
100
AcDbEntity
  8
DEFPOINTS
 62
     0
100
AcDbPoint
 10
-0.0000000000000004
 20
-39.44646758793155
 30
0.0
  0
ENDBLK
  5
1A70
330
1A64
100
AcDbEntity
  8
0
100
AcDbBlockEnd
  0
BLOCK
  5
1A87
330
1A86
100
AcDbEntity
  8
0
100
AcDbBlockBegin
  2
*D38
 70
     1
 10
0.0
 20
0.0
 30
0.0
  3
*D38
  1

  0
LINE
  5
1A88
330
1A86
100
AcDbEntity
  8
SK2
 62
     0
370
    -2
100
AcDbLine
 10
119.0030575562315
 20
-3.0
 30
0.0
 11
138.5015877781157
 21
-3.000000000000001
 31
0.0
  0
LINE
  5
1A89
330
1A86
100
AcDbEntity
  8
SK2
 62
     0
370
    -2
100
AcDbLine
 10
119.0030575562315
 20
3.0
 30
0.0
 11
138.5015877781157
 21
2.999999999999999
 31
0.0
  0
LINE
  5
1A8A
330
1A86
100
AcDbEntity
  8
SK2
 62
     0
370
    -2
100
AcDbLine
 10
133.5015877781157
 20
7.569999999999999
 30
0.0
 11
133.5015877781157
 21
12.14
 31
0.0
  0
LINE
  5
1A8B
330
1A86
100
AcDbEntity
  8
SK2
 62
     0
370
    -2
100
AcDbLine
 10
133.5015877781157
 20
-3.000000000000001
 30
0.0
 11
133.5015877781157
 21
-12.14
 31
0.0
  0
INSERT
  5
1A8C
330
1A86
100
AcDbEntity
  8
SK2
 62
     0
370
    -2
100
AcDbBlockReference
  2
_ARROW_FILLED
 10
133.5015877781157
 20
-3.000000000000001
 30
0.0
 41
4.57
 42
4.57
 43
4.57
 50
90.0
  0
INSERT
  5
1A8D
330
1A86
100
AcDbEntity
  8
SK2
 62
     0
370
    -2
100
AcDbBlockReference
  2
_ARROW_FILLED
 10
133.5015877781157
 20
2.999999999999999
 30
0.0
 41
4.57
 42
4.57
 43
4.57
 50
270.0
  0
MTEXT
  5
1A8E
330
1A86
100
AcDbEntity
  8
SK2
 62
     7
100
AcDbMText
 10
133.5015877781157
 20
15.79885416666666
 30
0.0
 40
3.5
 41
0.0
 71
     5
 72
     1
  1
\A1;%%c6
 11
0.0
 21
1.0
 31
0.0
 73
     1
 44
1.0
  0
POINT
  5
1A8F
330
1A86
100
AcDbEntity
  8
DEFPOINTS
 62
     0
100
AcDbPoint
 10
119.0030575562315
 20
-3.0
 30
0.0
  0
POINT
  5
1A90
330
1A86
100
AcDbEntity
  8
DEFPOINTS
 62
     0
100
AcDbPoint
 10
119.0030575562315
 20
3.0
 30
0.0
  0
POINT
  5
1A91
330
1A86
100
AcDbEntity
  8
DEFPOINTS
 62
     0
100
AcDbPoint
 10
133.5015877781157
 20
2.999999999999999
 30
0.0
  0
ENDBLK
  5
1A92
330
1A86
100
AcDbEntity
  8
0
100
AcDbBlockEnd
  0
BLOCK
  5
1A95
330
1A94
100
AcDbEntity
  8
0
100
AcDbBlockBegin
  2
*D39
 70
     1
 10
0.0
 20
0.0
 30
0.0
  3
*D39
  1

  0
LINE
  5
1A96
330
1A94
100
AcDbEntity
  8
SK2
 62
     0
370
    -2
100
AcDbLine
 10
83.99997455623145
 20
3.500027943932359
 30
0.0
 11
83.99997455623145
 21
33.001
 31
0.0
  0
LINE
  5
1A97
330
1A94
100
AcDbEntity
  8
SK2
 62
     0
370
    -2
100
AcDbLine
 10
119.9999745562009
 20
4.911248946436229
 30
0.0
 11
119.9999745562009
 21
33.001
 31
0.0
  0
LINE
  5
1A98
330
1A94
100
AcDbEntity
  8
SK2
 62
     0
370
    -2
100
AcDbLine
 10
88.56997455623144
 20
28.00100000000001
 30
0.0
 11
98.25778705621616
 21
28.00100000000001
 31
0.0
  0
LINE
  5
1A99
330
1A94
100
AcDbEntity
  8
SK2
 62
     0
370
    -2
100
AcDbLine
 10
115.4299745562009
 20
28.00100000000001
 30
0.0
 11
105.7421620562162
 21
28.00100000000001
 31
0.0
  0
INSERT
  5
1A9A
330
1A94
100
AcDbEntity
  8
SK2
 62
     0
370
    -2
100
AcDbBlockReference
  2
_ARROW_FILLED
 10
83.99997455623145
 20
28.00100000000001
 30
0.0
 41
4.57
 42
4.57
 43
4.57
 50
180.0
  0
INSERT
  5
1A9B
330
1A94
100
AcDbEntity
  8
SK2
 62
     0
370
    -2
100
AcDbBlockReference
  2
_ARROW_FILLED
 10
119.9999745562009
 20
28.00100000000001
 30
0.0
 41
4.57
 42
4.57
 43
4.57
  0
MTEXT
  5
1A9C
330
1A94
100
AcDbEntity
  8
SK2
 62
     7
100
AcDbMText
 10
101.9999745562162
 20
28.00100000000001
 30
0.0
 40
3.5
 41
0.0
 71
     5
 72
     1
  1
\A1;36
 73
     1
 44
1.0
  0
POINT
  5
1A9D
330
1A94
100
AcDbEntity
  8
DEFPOINTS
 62
     0
100
AcDbPoint
 10
83.99997455623145
 20
3.500027943932359
 30
0.0
  0
POINT
  5
1A9E
330
1A94
100
AcDbEntity
  8
DEFPOINTS
 62
     0
100
AcDbPoint
 10
119.9999745562009
 20
4.911248946436229
 30
0.0
  0
POINT
  5
1A9F
330
1A94
100
AcDbEntity
  8
DEFPOINTS
 62
     0
100
AcDbPoint
 10
119.9999745562009
 20
28.00100000000001
 30
0.0
  0
ENDBLK
  5
1AA0
330
1A94
100
AcDbEntity
  8
0
100
AcDbBlockEnd
  0
BLOCK
  5
1AA3
330
1AA2
100
AcDbEntity
  8
0
100
AcDbBlockBegin
  2
*D40
 70
     1
 10
0.0
 20
0.0
 30
0.0
  3
*D40
  1

  0
LINE
  5
1AA4
330
1AA2
100
AcDbEntity
  8
SK2
 62
     0
370
    -2
100
AcDbLine
 10
119.9999745562315
 20
9.411219000000006
 30
0.0
 11
119.9999745562315
 21
47.001
 31
0.0
  0
LINE
  5
1AA5
330
1AA2
100
AcDbEntity
  8
SK2
 62
     0
370
    -2
100
AcDbLine
 10
25.99999999999997
 20
31.5
 30
0.0
 11
25.99999999999997
 21
47.001
 31
0.0
  0
LINE
  5
1AA6
330
1AA2
100
AcDbEntity
  8
SK2
 62
     0
370
    -2
100
AcDbLine
 10
115.4299745562315
 20
42.001
 30
0.0
 11
76.92446644478238
 21
42.001
 31
0.0
  0
LINE
  5
1AA7
330
1AA2
100
AcDbEntity
  8
SK2
 62
     0
370
    -2
100
AcDbLine
 10
30.56999999999997
 20
42.001
 30
0.0
 11
69.07550811144904
 21
42.001
 31
0.0
  0
INSERT
  5
1AA8
330
1AA2
100
AcDbEntity
  8
SK2
 62
     0
370
    -2
100
AcDbBlockReference
  2
_ARROW_FILLED
 10
119.9999745562315
 20
42.001
 30
0.0
 41
4.57
 42
4.57
 43
4.57
  0
INSERT
  5
1AA9
330
1AA2
100
AcDbEntity
  8
SK2
 62
     0
370
    -2
100
AcDbBlockReference
  2
_ARROW_FILLED
 10
25.99999999999997
 20
42.001
 30
0.0
 41
4.57
 42
4.57
 43
4.57
 50
180.0
  0
MTEXT
  5
1AAA
330
1AA2
100
AcDbEntity
  8
SK2
 62
     7
100
AcDbMText
 10
72.99998727811571
 20
42.001
 30
0.0
 40
3.5
 41
0.0
 71
     5
 72
     1
  1
\A1;94
 73
     1
 44
1.0
  0
POINT
  5
1AAB
330
1AA2
100
AcDbEntity
  8
DEFPOINTS
 62
     0
100
AcDbPoint
 10
119.9999745562315
 20
9.411219000000006
 30
0.0
  0
POINT
  5
1AAC
330
1AA2
100
AcDbEntity
  8
DEFPOINTS
 62
     0
100
AcDbPoint
 10
25.99999999999997
 20
31.5
 30
0.0
  0
POINT
  5
1AAD
330
1AA2
100
AcDbEntity
  8
DEFPOINTS
 62
     0
100
AcDbPoint
 10
25.99999999999997
 20
42.001
 30
0.0
  0
ENDBLK
  5
1AAE
330
1AA2
100
AcDbEntity
  8
0
100
AcDbBlockEnd
  0
BLOCK
  5
1AB1
330
1AB0
100
AcDbEntity
  8
0
100
AcDbBlockBegin
  2
*D41
 70
     1
 10
0.0
 20
0.0
 30
0.0
  3
*D41
  1

  0
LINE
  5
1AB2
330
1AB0
100
AcDbEntity
  8
SK2
 62
     0
370
    -2
100
AcDbLine
 10
119.0033142271583
 20
-5.999944135952504
 30
0.0
 11
147.0761187707101
 21
-5.999944135952505
 31
0.0
  0
LINE
  5
1AB3
330
1AB0
100
AcDbEntity
  8
SK2
 62
     0
370
    -2
100
AcDbLine
 10
119.003083
 20
6.0
 30
0.0
 11
147.0761187707101
 21
5.999999999999998
 31
0.0
  0
LINE
  5
1AB4
330
1AB0
100
AcDbEntity
  8
SK2
 62
     0
370
    -2
100
AcDbLine
 10
142.0761187707101
 20
-5.999944135952505
 30
0.0
 11
142.0761187707101
 21
-15.13994413595251
 31
0.0
  0
LINE
  5
1AB5
330
1AB0
100
AcDbEntity
  8
SK2
 62
     0
370
    -2
100
AcDbLine
 10
142.0761187707101
 20
5.999999999999998
 30
0.0
 11
142.0761187707101
 21
15.14
 31
0.0
  0
INSERT
  5
1AB6
330
1AB0
100
AcDbEntity
  8
SK2
 62
     0
370
    -2
100
AcDbBlockReference
  2
_ARROW_FILLED
 10
142.0761187707101
 20
-5.999944135952505
 30
0.0
 41
4.57
 42
4.57
 43
4.57
 50
90.0
  0
INSERT
  5
1AB7
330
1AB0
100
AcDbEntity
  8
SK2
 62
     0
370
    -2
100
AcDbBlockReference
  2
_ARROW_FILLED
 10
142.0761187707101
 20
5.999999999999998
 30
0.0
 41
4.57
 42
4.57
 43
4.57
 50
270.0
  0
MTEXT
  5
1AB8
330
1AB0
100
AcDbEntity
  8
SK2
 62
     7
100
AcDbMText
 10
142.0761187707101
 20
0.3757515556903801
 30
0.0
 40
3.5
 41
0.0
 71
     5
 72
     1
  1
\A1;%%c12
 11
0.0
 21
1.0
 31
0.0
 73
     1
 44
1.0
  0
POINT
  5
1AB9
330
1AB0
100
AcDbEntity
  8
DEFPOINTS
 62
     0
100
AcDbPoint
 10
119.0033142271583
 20
-5.999944135952504
 30
0.0
  0
POINT
  5
1ABA
330
1AB0
100
AcDbEntity
  8
DEFPOINTS
 62
     0
100
AcDbPoint
 10
119.003083
 20
6.0
 30
0.0
  0
POINT
  5
1ABB
330
1AB0
100
AcDbEntity
  8
DEFPOINTS
 62
     0
100
AcDbPoint
 10
142.0761187707101
 20
5.999999999999998
 30
0.0
  0
ENDBLK
  5
1ABC
330
1AB0
100
AcDbEntity
  8
0
100
AcDbBlockEnd
  0
BLOCK
  5
1ABF
330
1ABE
100
AcDbEntity
  8
0
100
AcDbBlockBegin
  2
*D42
 70
     1
 10
0.0
 20
0.0
 30
0.0
  3
*D42
  1

  0
LINE
  5
1AC0
330
1ABE
100
AcDbEntity
  8
2
 62
     0
370
    -2
100
AcDbLine
 10
72.8006004045167
 20
-8.502117655187824
 30
0.0
 11
155.3678546517159
 21
-8.502117655187828
 31
0.0
  0
LINE
  5
1AC1
330
1ABE
100
AcDbEntity
  8
2
 62
     0
370
    -2
100
AcDbLine
 10
72.8006004045167
 20
8.499997772749525
 30
0.0
 11
155.3678546517159
 21
8.499997772749522
 31
0.0
  0
LINE
  5
1AC2
330
1ABE
100
AcDbEntity
  8
2
 62
     0
370
    -2
100
AcDbLine
 10
150.3678546517159
 20
-8.502117655187828
 30
0.0
 11
150.3678546517159
 21
-17.64211765518783
 31
0.0
  0
LINE
  5
1AC3
330
1ABE
100
AcDbEntity
  8
2
 62
     0
370
    -2
100
AcDbLine
 10
150.3678546517159
 20
8.499997772749522
 30
0.0
 11
150.3678546517159
 21
17.63999777274952
 31
0.0
  0
INSERT
  5
1AC4
330
1ABE
100
AcDbEntity
  8
2
 62
     0
370
    -2
100
AcDbBlockReference
  2
_ARROW_FILLED
 10
150.3678546517159
 20
-8.502117655187828
 30
0.0
 41
4.57
 42
4.57
 43
4.57
 50
90.0
  0
INSERT
  5
1AC5
330
1ABE
100
AcDbEntity
  8
2
 62
     0
370
    -2
100
AcDbBlockReference
  2
_ARROW_FILLED
 10
150.3678546517159
 20
8.499997772749522
 30
0.0
 41
4.57
 42
4.57
 43
4.57
 50
270.0
  0
MTEXT
  5
1AC6
330
1ABE
100
AcDbEntity
  8
2
 62
     7
100
AcDbMText
 10
150.3678546517159
 20
-0.4986376568881496
 30
0.0
 40
3.5
 41
0.0
 71
     5
 72
     1
  1
\A1;%%c17
 11
0.0
 21
1.0
 31
0.0
 73
     1
 44
1.0
  0
POINT
  5
1AC7
330
1ABE
100
AcDbEntity
  8
DEFPOINTS
 62
     0
100
AcDbPoint
 10
72.8006004045167
 20
-8.502117655187824
 30
0.0
  0
POINT
  5
1AC8
330
1ABE
100
AcDbEntity
  8
DEFPOINTS
 62
     0
100
AcDbPoint
 10
72.8006004045167
 20
8.499997772749525
 30
0.0
  0
POINT
  5
1AC9
330
1ABE
100
AcDbEntity
  8
DEFPOINTS
 62
     0
100
AcDbPoint
 10
150.3678546517159
 20
8.49999777274952
 30
0.0
  0
ENDBLK
  5
1ACA
330
1ABE
100
AcDbEntity
  8
0
100
AcDbBlockEnd
  0
BLOCK
  5
1B77
330
1B6A
100
AcDbEntity
  8
0
100
AcDbBlockBegin
  2
*D43
 70
     1
 10
0.0
 20
0.0
 30
0.0
  3
*D43
  1

  0
ARC
  5
1B6B
330
1B6A
100
AcDbEntity
  8
SK2
 62
     0
370
    -2
100
AcDbCircle
 10
234.980819907632
 20
0.0000000004251866
 30
0.0
 40
153.3531227428187
100
AcDbArc
 50
175.131706368532
 51
176.0657664804172
  0
ARC
  5
1B6C
330
1B6A
100
AcDbEntity
  8
SK2
 62
     0
370
    -2
100
AcDbCircle
 10
234.980819907632
 20
0.0000000004251866
 30
0.0
 40
153.3531227428187
100
AcDbArc
 50
180.9340601119747
 51
181.8681202238599
  0
ARC
  5
1B6D
330
1B6A
100
AcDbEntity
  8
SK2
 62
     0
370
    -2
100
AcDbCircle
 10
234.980819907632
 20
0.0000000004251866
 30
0.0
 40
153.3531227428187
100
AcDbArc
 50
176.9998265923023
 51
180.0000000000896
  0
SOLID
  5
1B6E
330
1B6A
100
AcDbEntity
  8
SK2
 62
     0
100
AcDbTrace
 10
81.57317556384396
 20
10.5469685924328
 30
0.0
 11
82.40498354679798
 21
10.49657093436822
 31
0.0
 12
81.83788658112724
 22
8.026345814538422
 32
0.0
 13
81.83788658112724
 23
8.026345814538422
 33
0.0
  0
SOLID
  5
1B6F
330
1B6A
100
AcDbEntity
  8
SK2
 62
     0
100
AcDbTrace
 10
82.06472779421827
 20
-2.496520646649459
 30
0.0
 11
81.23142214500669
 21
-2.503313248249188
 31
0.0
 12
81.6276971648133
 22
0.0000000001854502
 32
0.0
 13
81.6276971648133
 23
0.0000000001854502
 33
0.0
  0
MTEXT
  5
1B70
330
1B6A
100
AcDbEntity
  8
SK2
 62
     0
100
AcDbMText
 10
79.83720224350408
 20
13.47984091526172
 30
0.0
 40
3.5
 41
0.0
 71
     5
 72
     1
  1
3%%d
 11
0.08656009381875213
 21
0.9962466311903336
 31
0.0
 73
     1
 44
1.0
  0
POINT
  5
1B71
330
1B6A
100
AcDbEntity
  8
DEFPOINTS
 62
     0
100
AcDbPoint
 10
81.65105628831869
 20
2.676535712780376
 30
0.0
  0
POINT
  5
1B72
330
1B6A
100
AcDbEntity
  8
DEFPOINTS
 62
     0
100
AcDbPoint
 10
-37.00000000000003
 20
0.0
 30
0.0
  0
POINT
  5
1B73
330
1B6A
100
AcDbEntity
  8
DEFPOINTS
 62
     0
100
AcDbPoint
 10
119.0030575562315
 20
6.078488946400431
 30
0.0
  0
POINT
  5
1B7E
330
1B6A
100
AcDbEntity
  8
DEFPOINTS
 62
     0
100
AcDbPoint
 10
72.8006004045167
 20
8.49999734059305
 30
0.0
  0
POINT
  5
1B7F
330
1B6A
100
AcDbEntity
  8
DEFPOINTS
 62
     0
100
AcDbPoint
 10
119.9999745562114
 20
0.0000000002454374
 30
0.0
  0
ENDBLK
  5
1B78
330
1B6A
100
AcDbEntity
  8
0
100
AcDbBlockEnd
  0
BLOCK
  5
1B8F
330
1B84
100
AcDbEntity
  8
0
100
AcDbBlockBegin
  2
*D44
 70
     1
 10
0.0
 20
0.0
 30
0.0
  3
*D44
  1

  0
LINE
  5
1B85
330
1B84
100
AcDbEntity
  8
SK2
 62
     0
370
    -2
100
AcDbLine
 10
77.45297755623147
 20
2.500027943932359
 30
0.0
 11
64.3110393156114
 21
2.500027943932359
 31
0.0
  0
LINE
  5
1B86
330
1B84
100
AcDbEntity
  8
SK2
 62
     0
370
    -2
100
AcDbLine
 10
77.45297755623147
 20
-2.499972056067641
 30
0.0
 11
64.3110393156114
 21
-2.499972056067641
 31
0.0
  0
LINE
  5
1B87
330
1B84
100
AcDbEntity
  8
SK2
 62
     0
370
    -2
100
AcDbLine
 10
65.5610393156114
 20
2.500027943932359
 30
0.0
 11
65.5610393156114
 21
16.11494172042486
 31
0.0
  0
LINE
  5
1B88
330
1B84
100
AcDbEntity
  8
SK2
 62
     0
370
    -2
100
AcDbLine
 10
65.5610393156114
 20
2.500027943932359
 30
0.0
 11
65.5610393156114
 21
7.500027943932359
 31
0.0
  0
LINE
  5
1B89
330
1B84
100
AcDbEntity
  8
SK2
 62
     0
370
    -2
100
AcDbLine
 10
65.5610393156114
 20
-2.499972056067641
 30
0.0
 11
65.5610393156114
 21
-7.499972056067641
 31
0.0
  0
SOLID
  5
1B8A
330
1B84
100
AcDbEntity
  8
SK2
 62
     0
100
AcDbTrace
 10
65.14437264894472
 20
5.000027943932359
 30
0.0
 11
65.97770598227807
 21
5.000027943932359
 31
0.0
 12
65.5610393156114
 22
2.500027943932359
 32
0.0
 13
65.5610393156114
 23
2.500027943932359
 33
0.0
  0
SOLID
  5
1B8B
330
1B84
100
AcDbEntity
  8
SK2
 62
     0
100
AcDbTrace
 10
65.97770598227807
 20
-4.999972056067641
 30
0.0
 11
65.14437264894472
 21
-4.999972056067641
 31
0.0
 12
65.5610393156114
 22
-2.499972056067641
 32
0.0
 13
65.5610393156114
 23
-2.499972056067641
 33
0.0
  0
MTEXT
  5
1B8C
330
1B84
100
AcDbEntity
  8
SK2
 62
     0
100
AcDbMText
 10
63.1860393156114
 20
12.32327505375819
 30
0.0
 40
3.5
 41
0.0
 71
     5
 72
     1
  1
M5
 11
0.0
 21
1.0
 31
0.0
 73
     1
 44
1.0
  0
POINT
  5
1B8D
330
1B84
100
AcDbEntity
  8
DEFPOINTS
 62
     0
100
AcDbPoint
 10
77.45297755623147
 20
2.500027943932359
 30
0.0
  0
POINT
  5
1B8E
330
1B84
100
AcDbEntity
  8
DEFPOINTS
 62
     0
100
AcDbPoint
 10
77.45297755623147
 20
-2.499972056067641
 30
0.0
  0
POINT
  5
1B91
330
1B84
100
AcDbEntity
  8
DEFPOINTS
 62
     0
100
AcDbPoint
 10
65.5610393156114
 20
-2.49997205606764
 30
0.0
  0
ENDBLK
  5
1B90
330
1B84
100
AcDbEntity
  8
0
100
AcDbBlockEnd
  0
ENDSEC
  0
SECTION
  2
ENTITIES
  0
LINE
  5
14DA
330
18
100
AcDbEntity
  8
INFTOTAL
100
AcDbLine
 10
-56.95830627109495
 20
-64.34180692621722
 30
0.0
 11
-56.95830627109495
 21
75.51512812539195
 31
0.0
  0
LINE
  5
14DB
330
18
100
AcDbEntity
  8
INFTOTAL
100
AcDbLine
 10
-56.95830627109495
 20
75.51512812539195
 30
0.0
 11
162.4731315120029
 21
75.51512812539193
 31
0.0
  0
LINE
  5
14DC
330
18
100
AcDbEntity
  8
INFTOTAL
100
AcDbLine
 10
162.4731315120029
 20
75.51512812539193
 30
0.0
 11
162.4731315120028
 21
-64.34180692621723
 31
0.0
  0
LINE
  5
14DD
330
18
100
AcDbEntity
  8
INFTOTAL
100
AcDbLine
 10
162.4731315120028
 20
-64.34180692621723
 30
0.0
 11
-56.95830627109495
 21
-64.34180692621722
 31
0.0
  0
LINE
  5
19E8
330
18
100
AcDbEntity
  8
1
  6
Continuous
 62
     4
100
AcDbLine
 10
-0.0000000000000004
 20
31.5
 30
0.0
 11
14.46373
 21
31.5
 31
0.0
  0
LINE
  5
19EA
330
18
100
AcDbEntity
  8
1
  6
Continuous
 62
     4
100
AcDbLine
 10
-0.0000000000000004
 20
-31.5
 30
0.0
 11
14.46373
 21
-31.5
 31
0.0
  0
LINE
  5
19EB
330
18
100
AcDbEntity
  8
1
  6
Continuous
 62
     4
100
AcDbLine
 10
14.46373
 20
31.5
 30
0.0
 11
16.12499999999997
 21
28.62259500000001
 31
0.0
  0
LINE
  5
19EC
330
18
100
AcDbEntity
  8
1
  6
Continuous
 62
     4
100
AcDbLine
 10
21.53627099999997
 20
31.5
 30
0.0
 11
19.87499999999997
 21
28.62259500000001
 31
0.0
  0
LINE
  5
19ED
330
18
100
AcDbEntity
  8
1
  6
Continuous
 62
     4
100
AcDbLine
 10
14.46373
 20
-24.336187
 30
0.0
 11
16.12499999999997
 21
-21.458782
 31
0.0
  0
LINE
  5
19EE
330
18
100
AcDbEntity
  8
1
  6
Continuous
 62
     4
100
AcDbLine
 10
16.12499999999997
 20
-27.84999999999999
 30
0.0
 11
19.87499999999997
 21
-27.84999999999999
 31
0.0
  0
LINE
  5
19EF
330
18
100
AcDbEntity
  8
1
  6
Continuous
 62
     4
100
AcDbLine
 10
19.87499999999997
 20
28.62259500000001
 30
0.0
 11
19.87499999999997
 21
8.05
 31
0.0
  0
LINE
  5
19F0
330
18
100
AcDbEntity
  8
1
  6
Continuous
 62
     4
100
AcDbLine
 10
16.12499999999997
 20
28.62259500000001
 30
0.0
 11
16.12499999999997
 21
8.05
 31
0.0
  0
LINE
  5
19F1
330
18
100
AcDbEntity
  8
1
  6
Continuous
 62
     4
100
AcDbLine
 10
-0.6000000000000223
 20
23.70000000000001
 30
0.0
 11
-0.0000000000000004
 21
23.70000000000001
 31
0.0
  0
LINE
  5
19F2
330
18
100
AcDbEntity
  8
1
  6
Continuous
 62
     4
100
AcDbLine
 10
-0.6000000000000223
 20
-23.7
 30
0.0
 11
-0.0000000000000004
 21
-23.7
 31
0.0
  0
LINE
  5
19F3
330
18
100
AcDbEntity
  8
1
  6
Continuous
 62
     4
100
AcDbLine
 10
19.87499999999997
 20
-28.622595
 30
0.0
 11
19.87499999999997
 21
-21.458782
 31
0.0
  0
LINE
  5
19F4
330
18
100
AcDbEntity
  8
1
  6
Continuous
 62
     4
100
AcDbLine
 10
21.53627099999997
 20
-31.5
 30
0.0
 11
21.53627099999997
 21
-24.336187
 31
0.0
  0
LINE
  5
19F5
330
18
100
AcDbEntity
  8
1
  6
Continuous
 62
     4
100
AcDbLine
 10
14.46373
 20
-31.5
 30
0.0
 11
14.46373
 21
-24.336187
 31
0.0
  0
LINE
  5
19F6
330
18
100
AcDbEntity
  8
1
  6
Continuous
 62
     4
100
AcDbLine
 10
14.46373
 20
7.999999999999996
 30
0.0
 11
14.46373
 21
31.5
 31
0.0
  0
LINE
  5
19F7
330
18
100
AcDbEntity
  8
1
  6
Continuous
 62
     4
100
AcDbLine
 10
21.53627099999997
 20
-8.0
 30
0.0
 11
21.53627099999997
 21
-20.0
 31
0.0
  0
LINE
  5
19F8
330
18
100
AcDbEntity
  8
1
  6
Continuous
 62
     4
100
AcDbLine
 10
16.12499999999997
 20
-8.0
 30
0.0
 11
16.12499999999997
 21
-20.0
 31
0.0
  0
LINE
  5
19F9
330
18
100
AcDbEntity
  8
1
  6
Continuous
 62
     4
100
AcDbLine
 10
-31.00000000000003
 20
5.0
 30
0.0
 11
-32.00000000000003
 21
5.57735000000001
 31
0.0
  0
LINE
  5
19FA
330
18
100
AcDbEntity
  8
1
  6
Continuous
 62
     4
100
AcDbLine
 10
-31.00000000000003
 20
-5.0
 30
0.0
 11
-32.00000000000003
 21
-5.577349999999992
 31
0.0
  0
LINE
  5
19FB
330
18
100
AcDbEntity
  8
1
  6
Continuous
 62
     4
100
AcDbLine
 10
-31.00000000000003
 20
-5.0
 30
0.0
 11
-31.00000000000003
 21
-5.0
 31
0.0
  0
LINE
  5
19FC
330
18
100
AcDbEntity
  8
1
  6
Continuous
 62
     4
100
AcDbLine
 10
-0.0000000000000004
 20
31.5
 30
0.0
 11
-0.0000000000000004
 21
-31.5
 31
0.0
  0
LINE
  5
19FD
330
18
100
AcDbEntity
  8
1
  6
Continuous
 62
     4
100
AcDbLine
 10
19.87499999999997
 20
-8.0
 30
0.0
 11
19.87499999999997
 21
-20.0
 31
0.0
  0
LINE
  5
19FE
330
18
100
AcDbEntity
  8
1
  6
Continuous
 62
     4
100
AcDbLine
 10
21.53627099999997
 20
31.5
 30
0.0
 11
21.53627099999997
 21
7.999999999999996
 31
0.0
  0
LINE
  5
19FF
330
18
100
AcDbEntity
  8
1
  6
Continuous
 62
     4
100
AcDbLine
 10
-0.6000000000000223
 20
24.285
 30
0.0
 11
-0.6000000000000223
 21
-24.285
 31
0.0
  0
LINE
  5
1A00
330
18
100
AcDbEntity
  8
1
  6
Continuous
 62
     4
100
AcDbLine
 10
25.99999999999997
 20
0.0
 30
0.0
 11
25.99999999999997
 21
-31.5
 31
0.0
  0
LINE
  5
1A01
102
{ACAD_REACTORS
102
}
330
18
100
AcDbEntity
  8
SK4
 62
     2
100
AcDbLine
 10
-37.00000000000003
 20
0.0
 30
0.0
 11
119.9999745562114
 21
0.0000000002454374
 31
0.0
  0
LINE
  5
1A05
330
18
100
AcDbEntity
  8
1
  6
Continuous
 62
     4
100
AcDbLine
 10
12.99999999999997
 20
-8.0
 30
0.0
 11
25.99999999999997
 21
-8.0
 31
0.0
  0
LINE
  5
1A06
330
18
100
AcDbEntity
  8
1
  6
Continuous
 62
     4
100
AcDbLine
 10
12.99999999999997
 20
7.999999999999996
 30
0.0
 11
25.99999999999997
 21
7.999999999999996
 31
0.0
  0
LINE
  5
1A07
330
18
100
AcDbEntity
  8
1
  6
Continuous
 62
     4
100
AcDbLine
 10
16.12499999999997
 20
-28.622595
 30
0.0
 11
16.12499999999997
 21
-21.458782
 31
0.0
  0
LINE
  5
1A08
330
18
100
AcDbEntity
  8
1
  6
Continuous
 62
     4
100
AcDbLine
 10
25.99999999999997
 20
31.5
 30
0.0
 11
21.53627099999997
 21
31.5
 31
0.0
  0
LINE
  5
1A09
330
18
100
AcDbEntity
  8
1
  6
Continuous
 62
     4
100
AcDbLine
 10
14.46373
 20
31.5
 30
0.0
 11
14.46373
 21
31.5
 31
0.0
  0
LINE
  5
1A0A
330
18
100
AcDbEntity
  8
1
  6
Continuous
 62
     4
100
AcDbLine
 10
16.12499999999997
 20
28.13647900000001
 30
0.0
 11
19.87499999999997
 21
28.13647900000001
 31
0.0
  0
ARC
  5
1A0B
330
18
100
AcDbEntity
  8
1
  6
Continuous
 62
     4
100
AcDbCircle
 10
12.99999999999997
 20
0.0
 30
0.0
 40
8.0
100
AcDbArc
 50
90.0
 51
270.0
  0
LINE
  5
1A0C
330
18
100
AcDbEntity
  8
1
  6
Continuous
 62
     4
100
AcDbLine
 10
21.53627099999997
 20
-24.336187
 30
0.0
 11
19.87499999999997
 21
-21.458782
 31
0.0
  0
LINE
  5
1A0D
330
18
100
AcDbEntity
  8
1
  6
Continuous
 62
     4
100
AcDbLine
 10
21.53627099999997
 20
-31.5
 30
0.0
 11
25.99999999999997
 21
-31.5
 31
0.0
  0
ARC
  5
1A0E
330
18
100
AcDbEntity
  8
1
  6
Continuous
 62
     4
100
AcDbCircle
 10
-30.80000000000001
 20
21.573501
 30
0.0
 40
1.2
100
AcDbArc
 50
92.86240500000088
 51
180.0
  0
LINE
  5
1A0F
330
18
100
AcDbEntity
  8
1
  6
Continuous
 62
     4
100
AcDbLine
 10
-32.00000000000003
 20
21.573501
 30
0.0
 11
-32.00000000000003
 21
5.57735000000001
 31
0.0
  0
LINE
  5
1A10
330
18
100
AcDbEntity
  8
1
  6
Continuous
 62
     4
100
AcDbLine
 10
-32.00000000000003
 20
-5.577349999999992
 30
0.0
 11
-32.00000000000003
 21
-21.573501
 31
0.0
  0
ARC
  5
1A11
330
18
100
AcDbEntity
  8
1
  6
Continuous
 62
     4
100
AcDbCircle
 10
-30.80000000000001
 20
-21.573501
 30
0.0
 40
1.2
100
AcDbArc
 50
180.0
 51
267.1375949999991
  0
LINE
  5
1A12
330
18
100
AcDbEntity
  8
1
  6
Continuous
 62
     4
100
AcDbLine
 10
-30.85992500000001
 20
-22.772004
 30
0.0
 11
-0.6000000000000223
 21
-24.285
 31
0.0
  0
LINE
  5
1A13
330
18
100
AcDbEntity
  8
1
  6
Continuous
 62
     4
100
AcDbLine
 10
25.99999999999997
 20
-20.0
 30
0.0
 11
12.11171399999998
 21
-20.0
 31
0.0
  0
ARC
  5
1A14
330
18
100
AcDbEntity
  8
1
  6
Continuous
 62
     4
100
AcDbCircle
 10
12.11171399999998
 20
-28.0
 30
0.0
 40
8.0
100
AcDbArc
 50
90.0
 51
152.7433809999999
  0
LINE
  5
1A15
330
18
100
AcDbEntity
  8
1
  6
Continuous
 62
     4
100
AcDbLine
 10
16.12499999999997
 20
-28.622595
 30
0.0
 11
14.46373
 21
-31.5
 31
0.0
  0
LINE
  5
1A16
330
18
100
AcDbEntity
  8
1
  6
Continuous
 62
     4
100
AcDbLine
 10
19.87499999999997
 20
-28.622595
 30
0.0
 11
21.53627099999997
 21
-31.5
 31
0.0
  0
LINE
  5
1A17
330
18
100
AcDbEntity
  8
1
  6
Continuous
 62
     4
100
AcDbLine
 10
16.12499999999997
 20
-21.458782
 30
0.0
 11
19.87499999999997
 21
-21.458782
 31
0.0
  0
LINE
  5
1A18
330
18
100
AcDbEntity
  8
1
  6
Continuous
 62
     4
100
AcDbLine
 10
14.46373
 20
-8.0
 30
0.0
 11
14.46373
 21
-20.0
 31
0.0
  0
ARC
  5
1A19
330
18
100
AcDbEntity
  8
1
  6
Continuous
 62
     4
100
AcDbCircle
 10
-27.50000000000003
 20
3.5
 30
0.0
 40
1.5
100
AcDbArc
 50
0.0
 51
90.0
  0
LINE
  5
1A1A
330
18
100
AcDbEntity
  8
1
  6
Continuous
 62
     4
100
AcDbLine
 10
-31.00000000000003
 20
5.0
 30
0.0
 11
-27.50000000000003
 21
5.0
 31
0.0
  0
LINE
  5
1A1B
330
18
100
AcDbEntity
  8
1
  6
Continuous
 62
     4
100
AcDbLine
 10
-26.00000000000003
 20
3.5
 30
0.0
 11
-26.00000000000003
 21
-3.5
 31
0.0
  0
ARC
  5
1A1C
330
18
100
AcDbEntity
  8
1
  6
Continuous
 62
     4
100
AcDbCircle
 10
-27.50000000000003
 20
-3.5
 30
0.0
 40
1.5
100
AcDbArc
 50
270.0
 51
0.0
  0
LINE
  5
1A1D
330
18
100
AcDbEntity
  8
1
  6
Continuous
 62
     4
100
AcDbLine
 10
-31.00000000000003
 20
-5.0
 30
0.0
 11
-27.50000000000003
 21
-5.0
 31
0.0
  0
LINE
  5
1A1E
330
18
100
AcDbEntity
  8
1
  6
Continuous
 62
     4
100
AcDbLine
 10
-30.85992500000001
 20
22.77200400000001
 30
0.0
 11
-0.6000000000000223
 21
24.285
 31
0.0
  0
LINE
  5
1A1F
330
18
100
AcDbEntity
  8
1
  6
Continuous
 62
     4
100
AcDbLine
 10
14.46373
 20
-24.336187
 30
0.0
 11
5.0
 21
-24.336187
 31
0.0
  0
LINE
  5
1A20
330
18
100
AcDbEntity
  8
1
  6
Continuous
 62
     4
100
AcDbLine
 10
25.99999999999997
 20
-24.336187
 30
0.0
 11
21.53627099999997
 21
-24.336187
 31
0.0
  0
LINE
  5
1A21
330
18
100
AcDbEntity
  8
SK3
 62
     1
100
AcDbLine
 10
11.99999999999997
 20
31.5
 30
0.0
 11
11.99999999999997
 21
26.90000000000001
 31
0.0
  0
LINE
  5
1A24
330
18
100
AcDbEntity
  8
SK3
 62
     1
100
AcDbLine
 10
9.804260999999993
 20
26.90000000000001
 30
0.0
 11
7.0
 21
25.45471200000001
 31
0.0
  0
LINE
  5
1A25
330
18
100
AcDbEntity
  8
SK3
 62
     1
100
AcDbLine
 10
4.195739999999972
 20
26.90000000000001
 30
0.0
 11
7.0
 21
25.45471200000001
 31
0.0
  0
LINE
  5
1A26
330
18
100
AcDbEntity
  8
SK3
 62
     1
100
AcDbLine
 10
2.0
 20
31.5
 30
0.0
 11
2.0
 21
26.90000000000001
 31
0.0
  0
LINE
  5
1A27
330
18
100
AcDbEntity
  8
SK3
 62
     1
100
AcDbLine
 10
2.0
 20
26.90000000000001
 30
0.0
 11
11.99999999999997
 21
26.90000000000001
 31
0.0
  0
LINE
  5
1A28
330
18
100
AcDbEntity
  8
1
  6
Continuous
 62
     4
100
AcDbLine
 10
-31.00000000000003
 20
5.0
 30
0.0
 11
-31.00000000000003
 21
9.131665000000002
 31
0.0
  0
LINE
  5
1A29
330
18
100
AcDbEntity
  8
1
  6
Continuous
 62
     4
100
AcDbLine
 10
-31.00000000000003
 20
9.131665000000002
 30
0.0
 11
-32.00000000000003
 21
9.709016000000009
 31
0.0
  0
LINE
  5
1A2A
330
18
100
AcDbEntity
  8
1
  6
Continuous
 62
     4
100
AcDbLine
 10
-26.00000000000003
 20
3.5
 30
0.0
 11
-26.00000000000003
 21
11.66875000000001
 31
0.0
  0
LINE
  5
1A2B
330
18
100
AcDbEntity
  8
1
  6
Continuous
 62
     4
100
AcDbLine
 10
-31.00000000000003
 20
9.131665000000002
 30
0.0
 11
-26.00000000000003
 21
11.66875000000001
 31
0.0
  0
LINE
  5
1A2C
330
18
100
AcDbEntity
  8
1
  6
Continuous
 62
     4
100
AcDbLine
 10
-31.00000000000003
 20
-5.0
 30
0.0
 11
-31.00000000000003
 21
-9.131664999999991
 31
0.0
  0
LINE
  5
1A2D
330
18
100
AcDbEntity
  8
1
  6
Continuous
 62
     4
100
AcDbLine
 10
-31.00000000000003
 20
-9.131664999999991
 30
0.0
 11
-32.00000000000003
 21
-9.709015999999991
 31
0.0
  0
LINE
  5
1A2E
330
18
100
AcDbEntity
  8
1
  6
Continuous
 62
     4
100
AcDbLine
 10
-31.00000000000003
 20
-9.131664999999991
 30
0.0
 11
-26.00000000000003
 21
-11.66874999999999
 31
0.0
  0
LINE
  5
1A2F
330
18
100
AcDbEntity
  8
1
  6
Continuous
 62
     4
100
AcDbLine
 10
-26.00000000000003
 20
-3.5
 30
0.0
 11
-26.00000000000003
 21
-11.66874999999999
 31
0.0
  0
DIMENSION
  5
1A30
330
18
100
AcDbEntity
  8
SK2
100
AcDbDimension
  2
*D34
 10
-48.99988200000002
 20
31.5
 30
0.0
 11
-48.99988200000003
 21
0.0
 31
0.0
 70
    32
  1
%%c<>
 71
     5
 42
62.99999999999999
  3
BMG
100
AcDbAlignedDimension
 13
-0.0000000000000004
 23
-31.5
 33
0.0
 14
-0.0000000000000004
 24
31.5
 34
0.0
 50
90.0
100
AcDbRotatedDimension
  0
CIRCLE
  5
1A45
330
18
100
AcDbEntity
  8
1
  6
Continuous
 62
     4
100
AcDbCircle
 10
-9.000000000000028
 20
0.0
 30
0.0
 40
3.75
  0
DIMENSION
  5
1A46
330
18
100
AcDbEntity
  8
SK2
100
AcDbDimension
  2
*D35
 10
-0.0000000000000004
 20
42.001
 30
0.0
 11
-16.00000000000001
 21
42.001
 31
0.0
 70
    32
 71
     5
 42
32.00000000000003
  3
BMG
100
AcDbAlignedDimension
 13
-32.00000000000003
 23
21.573501
 33
0.0
 14
-0.0000000000000004
 24
31.5
 34
0.0
100
AcDbRotatedDimension
  0
DIMENSION
  5
1A54
330
18
100
AcDbEntity
  8
SK2
100
AcDbDimension
  2
*D36
 10
119.9999745562315
 20
56.001
 30
0.0
 11
43.99998727811571
 21
56.001
 31
0.0
 70
    32
 71
     5
 42
151.9999745562315
  3
BMG
100
AcDbAlignedDimension
 13
-32.00000000000003
 23
21.573501
 33
0.0
 14
119.9999745562315
 24
9.411246943932365
 34
0.0
100
AcDbRotatedDimension
  0
DIMENSION
  5
1A62
330
18
100
AcDbEntity
  8
2
100
AcDbDimension
  2
*D37
 10
0.0
 20
-39.44646758793155
 30
0.0
 11
58.67048660502849
 21
-39.44646758793155
 31
0.0
 70
   160
 71
     5
 42
119.9999745562315
  3
BMG
100
AcDbAlignedDimension
 13
119.9999745562315
 23
-9.411191056067633
 33
0.0
 14
-0.0000000000000004
 24
-31.5
 34
0.0
100
AcDbRotatedDimension
  0
LINE
  5
1A71
330
18
100
AcDbEntity
  8
1
  6
Continuous
 62
     4
100
AcDbLine
 10
119.9999745562218
 20
-4.911248945938776
 30
0.0
 11
119.9999745562009
 21
4.911248946436229
 31
0.0
  0
LINE
  5
1A72
330
18
100
AcDbEntity
  8
1
  6
Continuous
 62
     4
100
AcDbLine
 10
119.003083
 20
6.07848694393236
 30
0.0
 11
119.9999745562315
 21
4.911248946400436
 31
0.0
  0
LINE
  5
1A74
330
18
100
AcDbEntity
  8
1
  6
Continuous
 62
     4
100
AcDbLine
 10
119.003083
 20
6.07848694393236
 30
0.0
 11
119.0030575562505
 21
-6.078488945912672
 31
0.0
  0
LINE
  5
1A75
330
18
100
AcDbEntity
  8
SK3
 62
     1
100
AcDbLine
 10
83.99997455623145
 20
-3.499972056067641
 30
0.0
 11
83.99997455623145
 21
3.500027943932359
 31
0.0
  0
LINE
  5
1A76
330
18
100
AcDbEntity
  8
SK3
 62
     1
100
AcDbLine
 10
93.99997455623145
 20
-3.499972056067641
 30
0.0
 11
93.99997455623145
 21
3.500027943932359
 31
0.0
  0
LINE
  5
1A77
330
18
100
AcDbEntity
  8
SK3
 62
     1
100
AcDbLine
 10
93.99997455623145
 20
3.000027943932359
 30
0.0
 11
119.0030575562315
 21
3.000027943932359
 31
0.0
  0
LINE
  5
1A78
330
18
100
AcDbEntity
  8
SK3
 62
     1
100
AcDbLine
 10
93.99997455623145
 20
-2.999972056067641
 30
0.0
 11
119.0030575562315
 21
-2.999972056067641
 31
0.0
  0
LINE
  5
1A79
330
18
100
AcDbEntity
  8
SK3
 62
     1
100
AcDbLine
 10
83.99997455623145
 20
3.500027943932359
 30
0.0
 11
93.99997455623145
 21
3.500027943932359
 31
0.0
  0
LINE
  5
1A7A
330
18
100
AcDbEntity
  8
SK3
 62
     1
100
AcDbLine
 10
83.99997455623145
 20
-3.499972056067641
 30
0.0
 11
93.99997455623145
 21
-3.499972056067641
 31
0.0
  0
LINE
  5
1A7B
330
18
100
AcDbEntity
  8
SK3
 62
     1
100
AcDbLine
 10
119.0030575562315
 20
3.000027943932359
 30
0.0
 11
119.0030575562315
 21
-2.999972056067641
 31
0.0
  0
LINE
  5
1A7C
330
18
100
AcDbEntity
  8
SK3
 62
     1
100
AcDbLine
 10
119.0030575562315
 20
3.000027943932359
 30
0.0
 11
119.9999745562315
 21
3.575597943932369
 31
0.0
  0
LINE
  5
1A7D
330
18
100
AcDbEntity
  8
SK3
 62
     1
100
AcDbLine
 10
119.0030575562315
 20
-2.999972056067641
 30
0.0
 11
119.9999745562315
 21
-3.575542056067633
 31
0.0
  0
LINE
  5
1A7E
330
18
100
AcDbEntity
  8
SK3
 62
     1
100
AcDbLine
 10
81.99997455623145
 20
-2.749972056067641
 30
0.0
 11
81.99997455623145
 21
2.750027943932359
 31
0.0
  0
LINE
  5
1A7F
330
18
100
AcDbEntity
  8
SK3
 62
     1
100
AcDbLine
 10
81.99997455623145
 20
2.750027943932359
 30
0.0
 11
83.99997455623145
 21
2.750027943932359
 31
0.0
  0
LINE
  5
1A80
330
18
100
AcDbEntity
  8
SK3
 62
     1
100
AcDbLine
 10
81.99997455623145
 20
-2.749972056067641
 30
0.0
 11
83.99997455623145
 21
-2.749972056067641
 31
0.0
  0
LINE
  5
1A81
102
{ACAD_REACTORS
102
}
330
18
100
AcDbEntity
  8
SK3
 62
     1
100
AcDbLine
 10
77.45297755623147
 20
2.500027943932359
 30
0.0
 11
81.99997455623145
 21
2.500027943932359
 31
0.0
  0
LINE
  5
1A82
102
{ACAD_REACTORS
102
}
330
18
100
AcDbEntity
  8
SK3
 62
     1
100
AcDbLine
 10
77.75369255623147
 20
-2.499972056067641
 30
0.0
 11
81.99997455623145
 21
-2.499972056067641
 31
0.0
  0
LINE
  5
1A83
330
18
100
AcDbEntity
  8
SK3
 62
     1
100
AcDbLine
 10
78.15464655623146
 20
2.000027943932359
 30
0.0
 11
81.99997455623145
 21
2.000027943932359
 31
0.0
  0
LINE
  5
1A84
330
18
100
AcDbEntity
  8
SK3
 62
     1
100
AcDbLine
 10
77.15226155623145
 20
-1.999972056067641
 30
0.0
 11
81.99997455623145
 21
-1.999972056067641
 31
0.0
  0
DIMENSION
  5
1A85
330
18
100
AcDbEntity
  8
SK2
100
AcDbDimension
  2
*D38
 10
133.5015877781157
 20
2.999999999999999
 30
0.0
 11
133.5015877781157
 21
15.79885416666666
 31
0.0
 70
    32
  1
%%c<>
 71
     5
 42
6.0
  3
BMG
100
AcDbAlignedDimension
 13
119.0030575562315
 23
-3.0
 33
0.0
 14
119.0030575562315
 24
3.0
 34
0.0
 50
90.0
100
AcDbRotatedDimension
  0
DIMENSION
  5
1A93
330
18
100
AcDbEntity
  8
SK2
100
AcDbDimension
  2
*D39
 10
119.9999745562009
 20
28.00100000000001
 30
0.0
 11
101.9999745562162
 21
28.00100000000001
 31
0.0
 70
    32
 71
     5
 42
35.99999999996943
  3
BMG
100
AcDbAlignedDimension
 13
83.99997455623145
 23
3.500027943932359
 33
0.0
 14
119.9999745562009
 24
4.911248946436229
 34
0.0
100
AcDbRotatedDimension
  0
DIMENSION
  5
1AA1
330
18
100
AcDbEntity
  8
SK2
100
AcDbDimension
  2
*D40
 10
25.99999999999997
 20
42.001
 30
0.0
 11
72.99998727811571
 21
42.001
 31
0.0
 70
    32
 71
     5
 42
93.99997455623148
  3
BMG
100
AcDbAlignedDimension
 13
119.9999745562315
 23
9.411219000000006
 33
0.0
 14
25.99999999999997
 24
31.5
 34
0.0
100
AcDbRotatedDimension
  0
DIMENSION
  5
1AAF
330
18
100
AcDbEntity
  8
SK2
100
AcDbDimension
  2
*D41
 10
142.0761187707101
 20
5.999999999999998
 30
0.0
 11
142.0761187707101
 21
0.3757515556903801
 31
0.0
 70
   160
  1
%%c<>
 71
     5
 42
11.9999441359525
  3
BMG
100
AcDbAlignedDimension
 13
119.0033142271583
 23
-5.999944135952504
 33
0.0
 14
119.003083
 24
6.0
 34
0.0
 50
90.0
100
AcDbRotatedDimension
  0
DIMENSION
  5
1ABD
330
18
100
AcDbEntity
  8
2
100
AcDbDimension
  2
*D42
 10
150.3678546517159
 20
8.499997772749522
 30
0.0
 11
150.3678546517159
 21
-0.4986376568881496
 31
0.0
 70
   160
  1
%%c<>
 71
     5
 42
17.00211542793735
  3
BMG
100
AcDbAlignedDimension
 13
72.8006004045167
 23
-8.502117655187824
 33
0.0
 14
72.8006004045167
 24
8.499997772749525
 34
0.0
 50
90.0
100
AcDbRotatedDimension
  0
LINE
  5
1ACC
102
{ACAD_REACTORS
102
}
330
18
100
AcDbEntity
  8
1
  6
Continuous
 62
     4
100
AcDbLine
 10
119.0030575562315
 20
6.078488946400431
 30
0.0
 11
72.8006004045167
 21
8.49999734059305
 31
0.0
  0
LINE
  5
1AD2
330
18
100
AcDbEntity
  8
1
  6
Continuous
 62
     4
100
AcDbLine
 10
25.99999999999997
 20
0.0
 30
0.0
 11
25.99999999999997
 21
31.5
 31
0.0
  0
LINE
  5
1AD3
330
18
100
AcDbEntity
  8
NOCUT
100
AcDbLine
 10
-0.0000000000000004
 20
0.0
 30
0.0
 11
-0.0000000000000004
 21
31.5
 31
0.0
  0
LINE
  5
1AD5
330
18
100
AcDbEntity
  8
NOCUT
100
AcDbLine
 10
-0.0000000000000004
 20
31.5
 30
0.0
 11
14.46373
 21
31.5
 31
0.0
  0
LINE
  5
1AD6
330
18
100
AcDbEntity
  8
NOCUT
100
AcDbLine
 10
14.46373
 20
31.5
 30
0.0
 11
16.12499999999997
 21
28.62259500000001
 31
0.0
  0
LINE
  5
1AD7
330
18
100
AcDbEntity
  8
NOCUT
100
AcDbLine
 10
16.12499999999997
 20
28.62259500000001
 30
0.0
 11
16.12499999999997
 21
28.13647900000001
 31
0.0
  0
LINE
  5
1AD8
330
18
100
AcDbEntity
  8
NOCUT
100
AcDbLine
 10
16.12499999999997
 20
28.13647900000001
 30
0.0
 11
19.87499999999997
 21
28.13647900000001
 31
0.0
  0
LINE
  5
1AD9
330
18
100
AcDbEntity
  8
NOCUT
100
AcDbLine
 10
19.87499999999997
 20
28.13647900000001
 30
0.0
 11
19.87499999999997
 21
28.62259500000001
 31
0.0
  0
LINE
  5
1ADA
330
18
100
AcDbEntity
  8
NOCUT
100
AcDbLine
 10
19.87499999999997
 20
28.62259500000001
 30
0.0
 11
21.53627099999997
 21
31.5
 31
0.0
  0
LINE
  5
1ADB
330
18
100
AcDbEntity
  8
NOCUT
100
AcDbLine
 10
21.53627099999997
 20
31.5
 30
0.0
 11
25.99999999999997
 21
31.5
 31
0.0
  0
LINE
  5
1ADC
330
18
100
AcDbEntity
  8
NOCUT
100
AcDbLine
 10
25.99999999999997
 20
31.5
 30
0.0
 11
25.99999999999997
 21
8.5
 31
0.0
  0
LINE
  5
1ADF
330
18
100
AcDbEntity
  8
NOCUT
100
AcDbLine
 10
119.0030575562315
 20
6.078488946400431
 30
0.0
 11
119.9999745562315
 21
4.911248946400437
 31
0.0
  0
LINE
  5
1AE0
330
18
100
AcDbEntity
  8
NOCUT
100
AcDbLine
 10
119.9999745562315
 20
4.911248946400437
 30
0.0
 11
119.9999745562315
 21
0.0000279439323592
 31
0.0
  0
LINE
  5
1AE1
330
18
100
AcDbEntity
  8
NOCUT
100
AcDbLine
 10
119.9999745562315
 20
0.0000279439323592
 30
0.0
 11
-0.0000000000000004
 21
0.0
 31
0.0
  0
TEXT
  5
1AE4
330
18
100
AcDbEntity
  8
INFTEXT63
100
AcDbText
 10
-24.79611017798382
 20
15.79402791792586
 30
-0.0000000001
 40
3.5
  1
HSK-A63
100
AcDbText
  0
TEXT
  5
1AE7
330
18
100
AcDbEntity
  8
INFTEXT63
100
AcDbText
 10
-21.63045028975833
 20
10.10139308486283
 30
-0.0000000001
 40
3.5
  1
1:10
100
AcDbText
  0
TEXT
  5
1B20
330
18
100
AcDbEntity
  8
INFTEXT63
100
AcDbText
 10
-52.6736
 20
-60.62330000000001
 30
0.0
 40
3.5
  1
93.05.071.330
100
AcDbText
  0
LINE
  5
1B63
330
18
100
AcDbEntity
  8
1
  6
Continuous
 62
     4
100
AcDbLine
 10
119.0030575562505
 20
-6.078488945912672
 30
0.0
 11
72.8006004045167
 21
-8.49999777237783
 31
0.0
  0
LINE
  5
1B64
330
18
100
AcDbEntity
  8
1
  6
Continuous
 62
     4
100
AcDbLine
 10
119.003083000019
 20
-6.0784869434446
 30
0.0
 11
119.9999745562468
 21
-4.911248945909561
 31
0.0
  0
LINE
  5
1B65
330
18
100
AcDbEntity
  8
SK1
100
AcDbLine
 10
72.8006004045167
 20
8.499997772749525
 30
0.0
 11
25.99999999999997
 21
8.5
 31
0.0
  0
LINE
  5
1B66
330
18
100
AcDbEntity
  8
SK1
100
AcDbLine
 10
72.8006004045167
 20
-8.49999777237783
 30
0.0
 11
25.99999999999997
 21
-8.499999999628304
 31
0.0
  0
DIMENSION
  5
1B67
102
{ACAD_REACTORS
102
}
102
{ACAD_XDICTIONARY
360
1B68
102
}
330
18
100
AcDbEntity
  8
SK2
100
AcDbDimension
  2
*D43
 10
119.9999745562114
 20
0.0000000002454374
 30
0.0
 11
82.20328799258112
 21
13.27426069244218
 31
0.0
 70
   162
  1
<>
 71
     5
 42
0.0523629040966662
  3
STANDARD
100
AcDb2LineAngularDimension
 13
119.0030575562315
 23
6.078488946400431
 33
0.0
 14
72.8006004045167
 24
8.49999734059305
 34
0.0
 15
-37.00000000000003
 25
0.0
 35
0.0
 16
81.65105628831869
 26
2.676535712780376
 36
0.0
1001
ACAD
1000
DSTYLE
1002
{
1070
   340
1005
10
1002
}
1001
ACAD_DSTYLE_DIMFLIPARROW_SYMBOL
1070
   385
1070
     0
1001
ACAD_DSTYLE_DIMFLIPARROW_WHICH_SYMBOL
1070
   386
1070
     3
  0
LINE
  5
1B7B
330
18
100
AcDbEntity
  8
SK1
100
AcDbLine
 10
72.8006004045167
 20
-8.49999777237783
 30
0.0
 11
72.8006004045167
 21
8.499997772749525
 31
0.0
  0
DIMENSION
  5
1B81
102
{ACAD_REACTORS
102
}
102
{ACAD_XDICTIONARY
360
1B82
102
}
330
18
100
AcDbEntity
  8
SK2
100
AcDbDimension
  2
*D44
 10
65.5610393156114
 20
-2.499972056067641
 30
0.0
 11
65.5610393156114
 21
12.32327505375819
 31
0.0
 70
   160
  1
M5
 71
     5
 42
5.0
  3
STANDARD
100
AcDbAlignedDimension
 13
77.45297755623147
 23
2.500027943932359
 33
0.0
 14
77.45297755623147
 24
-2.499972056067641
 34
0.0
 50
90.0
100
AcDbRotatedDimension
1001
ACAD
1000
DSTYLE
1002
{
1070
   340
1005
10
1002
}
  0
LINE
  5
1B94
330
18
100
AcDbEntity
  8
NOCUT
100
AcDbLine
 10
25.99999999999997
 20
8.5
 30
0.0
 11
72.8006004045167
 21
8.49999734059305
 31
0.0
  0
LINE
  5
1B95
330
18
100
AcDbEntity
  8
NOCUT
100
AcDbLine
 10
72.8006004045167
 20
8.49999734059305
 30
0.0
 11
119.0030575562315
 21
6.078488946400431
 31
0.0
  0
TEXT
  5
1BC8
330
18
100
AcDbEntity
  8
INFTEXT63
100
AcDbText
 10
13.0216474678619
 20
-58.53458384967654
 30
0.0
 40
3.5
  1
Allgemeintoleranzen nach DIN ISO 2768 m
  7
BMG_Text
100
AcDbText
  0
ENDSEC
  0
SECTION
  2
OBJECTS
  0
DICTIONARY
  5
C
330
0
100
AcDbDictionary
281
     1
  3
ACAD_GROUP
350
D
  3
ACAD_IMAGE_VARS
350
1845
  3
ACAD_LAYOUT
350
301
  3
ACAD_MLINESTYLE
350
E
  3
ACAD_PLOTSETTINGS
350
302
  3
ACAD_PLOTSTYLENAME
350
2FF
  3
ACAD_SCALELIST
350
1822
  3
AcDbVariableDictionary
350
357
  3
APPDATA
350
1844
  3
ASE_INDEX_DICTIONARY
350
14C7
  3
DWGPROPS
350
1BCF
  0
DICTIONARY
  5
47B
330
2
100
AcDbDictionary
280
     1
281
     1
  3
ACAD_LAYERFILTERS
360
14C5
  3
ACAD_LAYERSTATES
360
47C
  0
DICTIONARY
  5
1B68
330
1B67
100
AcDbDictionary
280
     1
281
     1
  0
DICTIONARY
  5
1B82
330
1B81
100
AcDbDictionary
280
     1
281
     1
  0
DICTIONARY
  5
D
102
{ACAD_REACTORS
330
C
102
}
330
C
100
AcDbDictionary
281
     1
  0
RASTERVARIABLES
  5
1845
102
{ACAD_REACTORS
330
C
102
}
330
C
100
AcDbRasterVariables
 90
        0
 70
     1
 71
     1
 72
     1
  0
DICTIONARY
  5
301
102
{ACAD_REACTORS
330
C
102
}
330
C
100
AcDbDictionary
281
     1
  3
Layout1
350
33B
  3
Model
350
303
  0
DICTIONARY
  5
E
102
{ACAD_REACTORS
330
C
102
}
330
C
100
AcDbDictionary
281
     1
  3
STANDARD
350
1B
  0
DICTIONARY
  5
302
102
{ACAD_REACTORS
330
C
102
}
330
C
100
AcDbDictionary
281
     1
  0
ACDBDICTIONARYWDFLT
  5
2FF
102
{ACAD_REACTORS
330
C
102
}
330
C
100
AcDbDictionary
281
     1
  3
Normal
350
300
100
AcDbDictionaryWithDefault
340
300
  0
DICTIONARY
  5
1822
102
{ACAD_REACTORS
330
C
102
}
330
C
100
AcDbDictionary
281
     1
  3
A0
350
1823
  3
A1
350
1824
  3
A2
350
1825
  3
A3
350
1826
  3
A4
350
1827
  3
A5
350
1828
  3
A6
350
1829
  3
A7
350
182A
  3
A8
350
182B
  3
A9
350
182C
  3
B0
350
182D
  3
B1
350
182E
  3
B2
350
182F
  3
B3
350
1830
  3
B4
350
1831
  3
B5
350
1832
  3
B6
350
1833
  3
B7
350
1834
  3
B8
350
1835
  3
B9
350
1836
  3
C0
350
1837
  3
C1
350
1838
  3
C2
350
1839
  3
C3
350
183A
  3
C4
350
183B
  3
C5
350
183C
  3
C6
350
183D
  3
C7
350
183E
  3
C8
350
183F
  3
C9
350
1840
  3
D0
350
1841
  3
D1
350
1842
  3
D2
350
1843
  0
DICTIONARY
  5
357
102
{ACAD_REACTORS
330
C
102
}
330
C
100
AcDbDictionary
281
     1
  3
CANNOSCALE
350
1B99
  3
DIMASSOC
350
359
  3
HIDETEXT
350
358
  3
PROJECTNAME
350
5A9
  0
DICTIONARY
  5
1844
102
{ACAD_REACTORS
330
C
102
}
330
C
100
AcDbDictionary
281
     1
  0
DICTIONARY
  5
14C7
102
{ACAD_REACTORS
330
C
102
}
330
C
100
AcDbDictionary
281
     1
  3
ASEBlockHierarchyIndexRecord
350
14C8
1001
DCO15
1040
1691547462.432
  0
XRECORD
  5
1BCF
102
{ACAD_REACTORS
330
C
102
}
330
C
100
AcDbXrecord
280
     1
  1
DWGPROPS COOKIE
  2

  3

  4

  6

  7

  8
KutluO
  9

300
=
301
=
302
=
303
=
304
=
305
=
306
=
307
=
308
=
309
=
 40
0.0
 41
2455549.303015579
 42
2456206.564429838
  1

 90
        0
  0
DICTIONARY
  5
14C5
102
{ACAD_REACTORS
330
47B
102
}
330
47B
100
AcDbDictionary
281
     1
  0
DICTIONARY
  5
47C
102
{ACAD_REACTORS
330
47B
102
}
330
47B
100
AcDbDictionary
281
     1
  3
ARGON_LAYERP_1
350
194B
  3
ARGON_LAYERP_10
350
1954
  3
ARGON_LAYERP_100
350
19C6
  3
ARGON_LAYERP_101
350
19CD
  3
ARGON_LAYERP_102
350
19CE
  3
ARGON_LAYERP_103
350
19CF
  3
ARGON_LAYERP_104
350
19D0
  3
ARGON_LAYERP_105
350
19D1
  3
ARGON_LAYERP_106
350
19D2
  3
ARGON_LAYERP_107
350
19D3
  3
ARGON_LAYERP_108
350
19D4
  3
ARGON_LAYERP_109
350
19D5
  3
ARGON_LAYERP_11
350
1955
  3
ARGON_LAYERP_110
350
19D6
  3
ARGON_LAYERP_111
350
19D7
  3
ARGON_LAYERP_112
350
19D8
  3
ARGON_LAYERP_113
350
19D9
  3
ARGON_LAYERP_114
350
19DA
  3
ARGON_LAYERP_115
350
19DB
  3
ARGON_LAYERP_116
350
19DC
  3
ARGON_LAYERP_117
350
19DD
  3
ARGON_LAYERP_118
350
19DE
  3
ARGON_LAYERP_119
350
19DF
  3
ARGON_LAYERP_12
350
1956
  3
ARGON_LAYERP_120
350
19E0
  3
ARGON_LAYERP_121
350
19E1
  3
ARGON_LAYERP_122
350
19E2
  3
ARGON_LAYERP_123
350
19E3
  3
ARGON_LAYERP_124
350
19E4
  3
ARGON_LAYERP_125
350
19E5
  3
ARGON_LAYERP_126
350
19E6
  3
ARGON_LAYERP_127
350
19E7
  3
ARGON_LAYERP_128
350
1AEE
  3
ARGON_LAYERP_129
350
1B26
  3
ARGON_LAYERP_13
350
1957
  3
ARGON_LAYERP_130
350
1B27
  3
ARGON_LAYERP_131
350
1B29
  3
ARGON_LAYERP_132
350
1B2A
  3
ARGON_LAYERP_133
350
1B2B
  3
ARGON_LAYERP_134
350
1B2D
  3
ARGON_LAYERP_135
350
1B2E
  3
ARGON_LAYERP_136
350
1B2F
  3
ARGON_LAYERP_137
350
1B30
  3
ARGON_LAYERP_138
350
1B31
  3
ARGON_LAYERP_139
350
1B32
  3
ARGON_LAYERP_14
350
1958
  3
ARGON_LAYERP_140
350
1B33
  3
ARGON_LAYERP_141
350
1B34
  3
ARGON_LAYERP_142
350
1B35
  3
ARGON_LAYERP_143
350
1B36
  3
ARGON_LAYERP_144
350
1B37
  3
ARGON_LAYERP_145
350
1B38
  3
ARGON_LAYERP_146
350
1B39
  3
ARGON_LAYERP_147
350
1B3A
  3
ARGON_LAYERP_148
350
1B3B
  3
ARGON_LAYERP_149
350
1B3C
  3
ARGON_LAYERP_15
350
1959
  3
ARGON_LAYERP_150
350
1B3D
  3
ARGON_LAYERP_151
350
1B3E
  3
ARGON_LAYERP_152
350
1B3F
  3
ARGON_LAYERP_153
350
1B40
  3
ARGON_LAYERP_154
350
1B5C
  3
ARGON_LAYERP_155
350
1B79
  3
ARGON_LAYERP_156
350
1B80
  3
ARGON_LAYERP_157
350
1B92
  3
ARGON_LAYERP_158
350
1B93
  3
ARGON_LAYERP_159
350
1B9D
  3
ARGON_LAYERP_16
350
195A
  3
ARGON_LAYERP_160
350
1B9E
  3
ARGON_LAYERP_161
350
1B9F
  3
ARGON_LAYERP_17
350
195B
  3
ARGON_LAYERP_18
350
195C
  3
ARGON_LAYERP_19
350
195D
  3
ARGON_LAYERP_2
350
194C
  3
ARGON_LAYERP_20
350
196C
  3
ARGON_LAYERP_21
350
196D
  3
ARGON_LAYERP_22
350
196E
  3
ARGON_LAYERP_23
350
196F
  3
ARGON_LAYERP_24
350
1970
  3
ARGON_LAYERP_25
350
1971
  3
ARGON_LAYERP_26
350
1973
  3
ARGON_LAYERP_27
350
1974
  3
ARGON_LAYERP_28
350
1975
  3
ARGON_LAYERP_29
350
1976
  3
ARGON_LAYERP_3
350
194D
  3
ARGON_LAYERP_30
350
1977
  3
ARGON_LAYERP_31
350
1978
  3
ARGON_LAYERP_32
350
1979
  3
ARGON_LAYERP_33
350
197A
  3
ARGON_LAYERP_34
350
197B
  3
ARGON_LAYERP_35
350
197C
  3
ARGON_LAYERP_36
350
197D
  3
ARGON_LAYERP_37
350
197E
  3
ARGON_LAYERP_38
350
197F
  3
ARGON_LAYERP_39
350
1980
  3
ARGON_LAYERP_4
350
194E
  3
ARGON_LAYERP_40
350
1981
  3
ARGON_LAYERP_41
350
1982
  3
ARGON_LAYERP_42
350
1983
  3
ARGON_LAYERP_43
350
1985
  3
ARGON_LAYERP_44
350
1986
  3
ARGON_LAYERP_45
350
1987
  3
ARGON_LAYERP_46
350
1988
  3
ARGON_LAYERP_47
350
1989
  3
ARGON_LAYERP_48
350
198A
  3
ARGON_LAYERP_49
350
198B
  3
ARGON_LAYERP_5
350
194F
  3
ARGON_LAYERP_50
350
198C
  3
ARGON_LAYERP_51
350
198D
  3
ARGON_LAYERP_52
350
198E
  3
ARGON_LAYERP_53
350
198F
  3
ARGON_LAYERP_54
350
1990
  3
ARGON_LAYERP_55
350
1991
  3
ARGON_LAYERP_56
350
1992
  3
ARGON_LAYERP_57
350
1993
  3
ARGON_LAYERP_58
350
1994
  3
ARGON_LAYERP_59
350
1997
  3
ARGON_LAYERP_6
350
1950
  3
ARGON_LAYERP_60
350
1998
  3
ARGON_LAYERP_61
350
1999
  3
ARGON_LAYERP_62
350
199A
  3
ARGON_LAYERP_63
350
199B
  3
ARGON_LAYERP_64
350
199C
  3
ARGON_LAYERP_65
350
199D
  3
ARGON_LAYERP_66
350
199E
  3
ARGON_LAYERP_67
350
199F
  3
ARGON_LAYERP_68
350
19A0
  3
ARGON_LAYERP_69
350
19A1
  3
ARGON_LAYERP_7
350
1951
  3
ARGON_LAYERP_70
350
19A2
  3
ARGON_LAYERP_71
350
19A3
  3
ARGON_LAYERP_72
350
19A4
  3
ARGON_LAYERP_73
350
19A5
  3
ARGON_LAYERP_74
350
19A6
  3
ARGON_LAYERP_75
350
19A7
  3
ARGON_LAYERP_76
350
19A8
  3
ARGON_LAYERP_77
350
19A9
  3
ARGON_LAYERP_78
350
19AA
  3
ARGON_LAYERP_79
350
19AB
  3
ARGON_LAYERP_8
350
1952
  3
ARGON_LAYERP_80
350
19AC
  3
ARGON_LAYERP_81
350
19AD
  3
ARGON_LAYERP_82
350
19AE
  3
ARGON_LAYERP_83
350
19AF
  3
ARGON_LAYERP_84
350
19B0
  3
ARGON_LAYERP_85
350
19B7
  3
ARGON_LAYERP_86
350
19B8
  3
ARGON_LAYERP_87
350
19B9
  3
ARGON_LAYERP_88
350
19BA
  3
ARGON_LAYERP_89
350
19BB
  3
ARGON_LAYERP_9
350
1953
  3
ARGON_LAYERP_90
350
19BC
  3
ARGON_LAYERP_91
350
19BD
  3
ARGON_LAYERP_92
350
19BE
  3
ARGON_LAYERP_93
350
19BF
  3
ARGON_LAYERP_94
350
19C0
  3
ARGON_LAYERP_95
350
19C1
  3
ARGON_LAYERP_96
350
19C2
  3
ARGON_LAYERP_97
350
19C3
  3
ARGON_LAYERP_98
350
19C4
  3
ARGON_LAYERP_99
350
19C5
  0
LAYOUT
  5
33B
102
{ACAD_REACTORS
330
301
102
}
330
301
100
AcDbPlotSettings
  1

  2
Lexmark Optra PS2
  4

  6

 40
0.0
 41
0.0
 42
0.0
 43
0.0
 44
0.0
 45
0.0
 46
0.0
 47
0.0
 48
0.0
 49
0.0
140
0.0
141
0.0
142
1.0
143
1.0
 70
   688
 72
     0
 73
     0
 74
     5
  7
monochrome.ctb
 75
    16
147
1.0
148
0.0
149
0.0
100
AcDbLayout
  1
Layout1
 70
     1
 71
     1
 10
0.0
 20
0.0
 11
12.0
 21
9.0
 12
0.0
 22
0.0
 32
0.0
 14
0.0
 24
0.0
 34
0.0
 15
0.0
 25
0.0
 35
0.0
146
0.0
 13
0.0
 23
0.0
 33
0.0
 16
1.0
 26
0.0
 36
0.0
 17
0.0
 27
1.0
 37
0.0
 76
     0
330
338
  0
LAYOUT
  5
303
102
{ACAD_REACTORS
330
301
102
}
330
301
100
AcDbPlotSettings
  1

  2
Default Windows System Printer.pc3
  4
A4
  6

 40
6.805083274841307
 41
5.535083293914794
 42
6.974411010742187
 43
7.14373779296875
 44
209.9733276367186
 45
296.9259948730469
 46
37.97916717313226
 47
0.0
 48
0.0
 49
0.0
140
0.0
141
0.0
142
1.0
143
0.133151366567524
 70
  3764
 72
     1
 73
     1
 74
     1
  7
monochrome.ctb
 75
     0
147
7.510249618751587
148
-84.03300666067867
149
15.85586429789646
100
AcDbLayout
  1
Model
 70
     1
 71
     0
 10
0.0
 20
0.0
 11
12.0
 21
9.0
 12
0.0
 22
0.0
 32
0.0
 14
0.0
 24
0.0
 34
0.0
 15
0.0
 25
0.0
 35
0.0
146
0.0
 13
0.0
 23
0.0
 33
0.0
 16
1.0
 26
0.0
 36
0.0
 17
0.0
 27
1.0
 37
0.0
 76
     0
330
18
331
181C
1001
ACAD_PSEXT
1000
Default Windows System Printer.pc3
1000
Lexmark Optra Rx
1000
Lexmark Rx
1000
Erstellt von Lexmark Benutzerdefinierte Installation,Nov 13,2005,10:03
1070
     0
  0
MLINESTYLE
  5
1B
102
{ACAD_REACTORS
330
E
102
}
330
E
100
AcDbMlineStyle
  2
STANDARD
 70
     0
  3

 62
     0
 51
90.0
 52
90.0
 71
     2
 49
0.5
 62
   256
  6
BYLAYER
 49
-0.5
 62
   256
  6
BYLAYER
  0
ACDBPLACEHOLDER
  5
300
102
{ACAD_REACTORS
330
2FF
102
}
330
2FF
  0
SCALE
  5
1823
102
{ACAD_REACTORS
330
1822
102
}
330
1822
100
AcDbScale
 70
     0
300
1:1
140
1.0
141
1.0
290
     1
  0
SCALE
  5
1824
102
{ACAD_REACTORS
330
1822
102
}
330
1822
100
AcDbScale
 70
     0
300
1:2
140
1.0
141
2.0
290
     0
  0
SCALE
  5
1825
102
{ACAD_REACTORS
330
1822
102
}
330
1822
100
AcDbScale
 70
     0
300
1:4
140
1.0
141
4.0
290
     0
  0
SCALE
  5
1826
102
{ACAD_REACTORS
330
1822
102
}
330
1822
100
AcDbScale
 70
     0
300
1:5
140
1.0
141
5.0
290
     0
  0
SCALE
  5
1827
102
{ACAD_REACTORS
330
1822
102
}
330
1822
100
AcDbScale
 70
     0
300
1:8
140
1.0
141
8.0
290
     0
  0
SCALE
  5
1828
102
{ACAD_REACTORS
330
1822
102
}
330
1822
100
AcDbScale
 70
     0
300
1:10
140
1.0
141
10.0
290
     0
  0
SCALE
  5
1829
102
{ACAD_REACTORS
330
1822
102
}
330
1822
100
AcDbScale
 70
     0
300
1:16
140
1.0
141
16.0
290
     0
  0
SCALE
  5
182A
102
{ACAD_REACTORS
330
1822
102
}
330
1822
100
AcDbScale
 70
     0
300
1:20
140
1.0
141
20.0
290
     0
  0
SCALE
  5
182B
102
{ACAD_REACTORS
330
1822
102
}
330
1822
100
AcDbScale
 70
     0
300
1:30
140
1.0
141
30.0
290
     0
  0
SCALE
  5
182C
102
{ACAD_REACTORS
330
1822
102
}
330
1822
100
AcDbScale
 70
     0
300
1:40
140
1.0
141
40.0
290
     0
  0
SCALE
  5
182D
102
{ACAD_REACTORS
330
1822
102
}
330
1822
100
AcDbScale
 70
     0
300
1:50
140
1.0
141
50.0
290
     0
  0
SCALE
  5
182E
102
{ACAD_REACTORS
330
1822
102
}
330
1822
100
AcDbScale
 70
     0
300
1:100
140
1.0
141
100.0
290
     0
  0
SCALE
  5
182F
102
{ACAD_REACTORS
330
1822
102
}
330
1822
100
AcDbScale
 70
     0
300
2:1
140
2.0
141
1.0
290
     0
  0
SCALE
  5
1830
102
{ACAD_REACTORS
330
1822
102
}
330
1822
100
AcDbScale
 70
     0
300
4:1
140
4.0
141
1.0
290
     0
  0
SCALE
  5
1831
102
{ACAD_REACTORS
330
1822
102
}
330
1822
100
AcDbScale
 70
     0
300
8:1
140
8.0
141
1.0
290
     0
  0
SCALE
  5
1832
102
{ACAD_REACTORS
330
1822
102
}
330
1822
100
AcDbScale
 70
     0
300
10:1
140
10.0
141
1.0
290
     0
  0
SCALE
  5
1833
102
{ACAD_REACTORS
330
1822
102
}
330
1822
100
AcDbScale
 70
     0
300
100:1
140
100.0
141
1.0
290
     0
  0
SCALE
  5
1834
102
{ACAD_REACTORS
330
1822
102
}
330
1822
100
AcDbScale
 70
     0
300
1/128" = 1'-0"
140
0.0078125
141
12.0
290
     0
  0
SCALE
  5
1835
102
{ACAD_REACTORS
330
1822
102
}
330
1822
100
AcDbScale
 70
     0
300
1/64" = 1'-0"
140
0.015625
141
12.0
290
     0
  0
SCALE
  5
1836
102
{ACAD_REACTORS
330
1822
102
}
330
1822
100
AcDbScale
 70
     0
300
1/32" = 1'-0"
140
0.03125
141
12.0
290
     0
  0
SCALE
  5
1837
102
{ACAD_REACTORS
330
1822
102
}
330
1822
100
AcDbScale
 70
     0
300
1/16" = 1'-0"
140
0.0625
141
12.0
290
     0
  0
SCALE
  5
1838
102
{ACAD_REACTORS
330
1822
102
}
330
1822
100
AcDbScale
 70
     0
300
3/32" = 1'-0"
140
0.09375
141
12.0
290
     0
  0
SCALE
  5
1839
102
{ACAD_REACTORS
330
1822
102
}
330
1822
100
AcDbScale
 70
     0
300
1/8" = 1'-0"
140
0.125
141
12.0
290
     0
  0
SCALE
  5
183A
102
{ACAD_REACTORS
330
1822
102
}
330
1822
100
AcDbScale
 70
     0
300
3/16" = 1'-0"
140
0.1875
141
12.0
290
     0
  0
SCALE
  5
183B
102
{ACAD_REACTORS
330
1822
102
}
330
1822
100
AcDbScale
 70
     0
300
1/4" = 1'-0"
140
0.25
141
12.0
290
     0
  0
SCALE
  5
183C
102
{ACAD_REACTORS
330
1822
102
}
330
1822
100
AcDbScale
 70
     0
300
3/8" = 1'-0"
140
0.375
141
12.0
290
     0
  0
SCALE
  5
183D
102
{ACAD_REACTORS
330
1822
102
}
330
1822
100
AcDbScale
 70
     0
300
1/2" = 1'-0"
140
0.5
141
12.0
290
     0
  0
SCALE
  5
183E
102
{ACAD_REACTORS
330
1822
102
}
330
1822
100
AcDbScale
 70
     0
300
3/4" = 1'-0"
140
0.75
141
12.0
290
     0
  0
SCALE
  5
183F
102
{ACAD_REACTORS
330
1822
102
}
330
1822
100
AcDbScale
 70
     0
300
1" = 1'-0"
140
1.0
141
12.0
290
     0
  0
SCALE
  5
1840
102
{ACAD_REACTORS
330
1822
102
}
330
1822
100
AcDbScale
 70
     0
300
1-1/2" = 1'-0"
140
1.5
141
12.0
290
     0
  0
SCALE
  5
1841
102
{ACAD_REACTORS
330
1822
102
}
330
1822
100
AcDbScale
 70
     0
300
3" = 1'-0"
140
3.0
141
12.0
290
     0
  0
SCALE
  5
1842
102
{ACAD_REACTORS
330
1822
102
}
330
1822
100
AcDbScale
 70
     0
300
6" = 1'-0"
140
6.0
141
12.0
290
     0
  0
SCALE
  5
1843
102
{ACAD_REACTORS
330
1822
102
}
330
1822
100
AcDbScale
 70
     0
300
1'-0" = 1'-0"
140
12.0
141
12.0
290
     0
  0
DICTIONARYVAR
  5
1B99
102
{ACAD_REACTORS
330
357
102
}
330
357
100
DictionaryVariables
280
     0
  1
1:1
  0
DICTIONARYVAR
  5
359
102
{ACAD_REACTORS
330
357
102
}
330
357
100
DictionaryVariables
280
     0
  1
2
  0
DICTIONARYVAR
  5
358
102
{ACAD_REACTORS
330
357
102
}
330
357
100
DictionaryVariables
280
     0
  1
1
  0
DICTIONARYVAR
  5
5A9
102
{ACAD_REACTORS
330
357
102
}
330
357
100
DictionaryVariables
280
     0
  1

  0
XRECORD
  5
14C8
102
{ACAD_REACTORS
330
14C7
102
}
330
14C7
100
AcDbXrecord
280
     1
330
0
330
0
330
0
330
0
330
0
330
0
330
0
330
0
330
0
330
0
330
0
330
0
330
0
330
0
330
0
330
0
330
0
330
0
330
0
330
0
330
0
330
0
330
0
330
0
330
0
330
0
  0
XRECORD
  5
194B
102
{ACAD_REACTORS
330
47C
102
}
330
47C
100
AcDbXrecord
280
     1
 91
     1023
301

290
     0
302
INFTOTAL
330
F
 90
        8
 62
     7
370
    -3
331
14
  1
Color_7
330
23
 90
        8
 62
     4
370
    50
331
14
  1
Color_4
330
24
 90
        8
 62
     4
370
    50
331
14
  1
Color_4
330
25
 90
        8
 62
     7
370
    25
331
14
  1
Color_7
330
27
 90
        8
 62
     7
370
    25
331
14
  1
Color_7
330
29
 90
        8
 62
     1
370
    35
331
20
  1
Color_1
330
2A
 90
        8
 62
     2
370
    25
331
471
  1
Color_2
330
2F
 90
        0
 62
     7
370
    -3
331
14
  1
Color_7
330
376
 90
        8
 62
     7
370
    25
331
14
  1
Color_7
330
472
 90
        0
 62
     9
370
    18
331
14
  1
Color_9
330
473
 90
        8
 62
     5
370
    -3
331
14
  1
Color_5
330
1861
 90
        8
 62
     2
370
    -3
331
1862
  1
Color_2
330
187E
 90
        8
 62
     5
370
    -3
331
14
  1
Color_5
330
18B2
 90
        8
 62
     2
370
    -3
331
351
  1
Color_2
  0
XRECORD
  5
1954
102
{ACAD_REACTORS
330
47C
102
}
330
47C
100
AcDbXrecord
280
     1
 91
     1023
301

290
     0
302
INFTOTAL
330
F
 90
        9
 62
     7
370
    -3
331
14
  1
Color_7
330
23
 90
        9
 62
     4
370
    50
331
14
  1
Color_4
330
24
 90
        8
 62
     4
370
    50
331
14
  1
Color_4
330
25
 90
        9
 62
     7
370
    25
331
14
  1
Color_7
330
27
 90
        8
 62
     7
370
    25
331
14
  1
Color_7
330
29
 90
        8
 62
     1
370
    35
331
20
  1
Color_1
330
2A
 90
        9
 62
     2
370
    25
331
471
  1
Color_2
330
2F
 90
        1
 62
     7
370
    -3
331
14
  1
Color_7
330
376
 90
        9
 62
     7
370
    25
331
14
  1
Color_7
330
472
 90
        1
 62
     9
370
    18
331
14
  1
Color_9
330
473
 90
        9
 62
     5
370
    -3
331
14
  1
Color_5
330
1861
 90
        8
 62
     2
370
    -3
331
1862
  1
Color_2
330
187E
 90
        8
 62
     5
370
    -3
331
14
  1
Color_5
330
18B2
 90
        9
 62
     2
370
    -3
331
351
  1
Color_2
  0
XRECORD
  5
19C6
102
{ACAD_REACTORS
330
47C
102
}
330
47C
100
AcDbXrecord
280
     1
 91
     1023
301

290
     0
302
2
330
F
 90
        8
 62
     7
370
    -3
331
14
  1
Color_7
330
23
 90
        8
 62
     4
370
    50
331
14
  1
Color_4
330
24
 90
        8
 62
     4
370
    50
331
14
  1
Color_4
330
25
 90
        8
 62
     7
370
    25
331
14
  1
Color_7
330
27
 90
        9
 62
     7
370
    25
331
14
  1
Color_7
330
29
 90
        9
 62
     1
370
    35
331
20
  1
Color_1
330
2A
 90
        8
 62
     2
370
    25
331
471
  1
Color_2
330
2F
 90
        1
 62
     7
370
    -3
331
14
  1
Color_7
330
376
 90
        8
 62
     7
370
    25
331
14
  1
Color_7
330
472
 90
        0
 62
     9
370
    18
331
14
  1
Color_9
330
473
 90
        8
 62
     5
370
    -3
331
14
  1
Color_5
330
1861
 90
        9
 62
     2
370
    -3
331
1862
  1
Color_2
330
187E
 90
        9
 62
     5
370
    -3
331
14
  1
Color_5
330
18B2
 90
        8
 62
     2
370
    -3
331
351
  1
Color_2
  0
XRECORD
  5
19CD
102
{ACAD_REACTORS
330
47C
102
}
330
47C
100
AcDbXrecord
280
     1
 91
     1023
301

290
     0
302
2
330
F
 90
        8
 62
     7
370
    -3
331
14
  1
Color_7
330
23
 90
        8
 62
     4
370
    50
331
14
  1
Color_4
330
24
 90
        8
 62
     4
370
    50
331
14
  1
Color_4
330
25
 90
        8
 62
     7
370
    25
331
14
  1
Color_7
330
27
 90
        8
 62
     7
370
    25
331
14
  1
Color_7
330
29
 90
        9
 62
     1
370
    35
331
20
  1
Color_1
330
2A
 90
        8
 62
     2
370
    25
331
471
  1
Color_2
330
2F
 90
        1
 62
     7
370
    -3
331
14
  1
Color_7
330
376
 90
        8
 62
     7
370
    25
331
14
  1
Color_7
330
472
 90
        0
 62
     9
370
    18
331
14
  1
Color_9
330
473
 90
        8
 62
     5
370
    -3
331
14
  1
Color_5
330
1861
 90
        9
 62
     2
370
    -3
331
1862
  1
Color_2
330
187E
 90
        9
 62
     5
370
    -3
331
14
  1
Color_5
330
18B2
 90
        8
 62
     2
370
    -3
331
351
  1
Color_2
  0
XRECORD
  5
19CE
102
{ACAD_REACTORS
330
47C
102
}
330
47C
100
AcDbXrecord
280
     1
 91
     1023
301

290
     0
302
2
330
F
 90
        8
 62
     7
370
    -3
331
14
  1
Color_7
330
23
 90
        8
 62
     4
370
    50
331
14
  1
Color_4
330
24
 90
        8
 62
     4
370
    50
331
14
  1
Color_4
330
25
 90
        8
 62
     7
370
    25
331
14
  1
Color_7
330
27
 90
        8
 62
     7
370
    25
331
14
  1
Color_7
330
29
 90
        8
 62
     1
370
    35
331
20
  1
Color_1
330
2A
 90
        8
 62
     2
370
    25
331
471
  1
Color_2
330
2F
 90
        1
 62
     7
370
    -3
331
14
  1
Color_7
330
376
 90
        8
 62
     7
370
    25
331
14
  1
Color_7
330
472
 90
        0
 62
     9
370
    18
331
14
  1
Color_9
330
473
 90
        8
 62
     5
370
    -3
331
14
  1
Color_5
330
1861
 90
        9
 62
     2
370
    -3
331
1862
  1
Color_2
330
187E
 90
        9
 62
     5
370
    -3
331
14
  1
Color_5
330
18B2
 90
        8
 62
     2
370
    -3
331
351
  1
Color_2
  0
XRECORD
  5
19CF
102
{ACAD_REACTORS
330
47C
102
}
330
47C
100
AcDbXrecord
280
     1
 91
     1023
301

290
     0
302
2
330
F
 90
        8
 62
     7
370
    -3
331
14
  1
Color_7
330
23
 90
        8
 62
     4
370
    50
331
14
  1
Color_4
330
24
 90
        8
 62
     4
370
    50
331
14
  1
Color_4
330
25
 90
        8
 62
     7
370
    25
331
14
  1
Color_7
330
27
 90
        8
 62
     7
370
    25
331
14
  1
Color_7
330
29
 90
        9
 62
     1
370
    35
331
20
  1
Color_1
330
2A
 90
        8
 62
     2
370
    25
331
471
  1
Color_2
330
2F
 90
        1
 62
     7
370
    -3
331
14
  1
Color_7
330
376
 90
        8
 62
     7
370
    25
331
14
  1
Color_7
330
472
 90
        0
 62
     9
370
    18
331
14
  1
Color_9
330
473
 90
        8
 62
     5
370
    -3
331
14
  1
Color_5
330
1861
 90
        9
 62
     2
370
    -3
331
1862
  1
Color_2
330
187E
 90
        9
 62
     5
370
    -3
331
14
  1
Color_5
330
18B2
 90
        8
 62
     2
370
    -3
331
351
  1
Color_2
  0
XRECORD
  5
19D0
102
{ACAD_REACTORS
330
47C
102
}
330
47C
100
AcDbXrecord
280
     1
 91
     1023
301

290
     0
302
2
330
F
 90
        8
 62
     7
370
    -3
331
14
  1
Color_7
330
23
 90
        8
 62
     4
370
    50
331
14
  1
Color_4
330
24
 90
        8
 62
     4
370
    50
331
14
  1
Color_4
330
25
 90
        8
 62
     7
370
    25
331
14
  1
Color_7
330
27
 90
        8
 62
     7
370
    25
331
14
  1
Color_7
330
29
 90
        8
 62
     1
370
    35
331
20
  1
Color_1
330
2A
 90
        8
 62
     2
370
    25
331
471
  1
Color_2
330
2F
 90
        1
 62
     7
370
    -3
331
14
  1
Color_7
330
376
 90
        8
 62
     7
370
    25
331
14
  1
Color_7
330
472
 90
        0
 62
     9
370
    18
331
14
  1
Color_9
330
473
 90
        8
 62
     5
370
    -3
331
14
  1
Color_5
330
1861
 90
        9
 62
     2
370
    -3
331
1862
  1
Color_2
330
187E
 90
        9
 62
     5
370
    -3
331
14
  1
Color_5
330
18B2
 90
        8
 62
     2
370
    -3
331
351
  1
Color_2
  0
XRECORD
  5
19D1
102
{ACAD_REACTORS
330
47C
102
}
330
47C
100
AcDbXrecord
280
     1
 91
     1023
301

290
     0
302
2
330
F
 90
        8
 62
     7
370
    -3
331
14
  1
Color_7
330
23
 90
        8
 62
     4
370
    50
331
14
  1
Color_4
330
24
 90
        8
 62
     4
370
    50
331
14
  1
Color_4
330
25
 90
        8
 62
     7
370
    25
331
14
  1
Color_7
330
27
 90
        8
 62
     7
370
    25
331
14
  1
Color_7
330
29
 90
        9
 62
     1
370
    35
331
20
  1
Color_1
330
2A
 90
        8
 62
     2
370
    25
331
471
  1
Color_2
330
2F
 90
        1
 62
     7
370
    -3
331
14
  1
Color_7
330
376
 90
        8
 62
     7
370
    25
331
14
  1
Color_7
330
472
 90
        0
 62
     9
370
    18
331
14
  1
Color_9
330
473
 90
        8
 62
     5
370
    -3
331
14
  1
Color_5
330
1861
 90
        9
 62
     2
370
    -3
331
1862
  1
Color_2
330
187E
 90
        9
 62
     5
370
    -3
331
14
  1
Color_5
330
18B2
 90
        8
 62
     2
370
    -3
331
351
  1
Color_2
  0
XRECORD
  5
19D2
102
{ACAD_REACTORS
330
47C
102
}
330
47C
100
AcDbXrecord
280
     1
 91
     1023
301

290
     0
302
2
330
F
 90
        8
 62
     7
370
    -3
331
14
  1
Color_7
330
23
 90
        8
 62
     4
370
    50
331
14
  1
Color_4
330
24
 90
        8
 62
     4
370
    50
331
14
  1
Color_4
330
25
 90
        8
 62
     7
370
    25
331
14
  1
Color_7
330
27
 90
        8
 62
     7
370
    25
331
14
  1
Color_7
330
29
 90
        8
 62
     1
370
    35
331
20
  1
Color_1
330
2A
 90
        8
 62
     2
370
    25
331
471
  1
Color_2
330
2F
 90
        1
 62
     7
370
    -3
331
14
  1
Color_7
330
376
 90
        8
 62
     7
370
    25
331
14
  1
Color_7
330
472
 90
        0
 62
     9
370
    18
331
14
  1
Color_9
330
473
 90
        8
 62
     5
370
    -3
331
14
  1
Color_5
330
1861
 90
        9
 62
     2
370
    -3
331
1862
  1
Color_2
330
187E
 90
        9
 62
     5
370
    -3
331
14
  1
Color_5
330
18B2
 90
        8
 62
     2
370
    -3
331
351
  1
Color_2
  0
XRECORD
  5
19D3
102
{ACAD_REACTORS
330
47C
102
}
330
47C
100
AcDbXrecord
280
     1
 91
     1023
301

290
     0
302
2
330
F
 90
        8
 62
     7
370
    -3
331
14
  1
Color_7
330
23
 90
        8
 62
     4
370
    50
331
14
  1
Color_4
330
24
 90
        8
 62
     4
370
    50
331
14
  1
Color_4
330
25
 90
        8
 62
     7
370
    25
331
14
  1
Color_7
330
27
 90
        8
 62
     7
370
    25
331
14
  1
Color_7
330
29
 90
        8
 62
     1
370
    35
331
20
  1
Color_1
330
2A
 90
        8
 62
     2
370
    25
331
471
  1
Color_2
330
2F
 90
        1
 62
     7
370
    -3
331
14
  1
Color_7
330
376
 90
        8
 62
     7
370
    25
331
14
  1
Color_7
330
472
 90
        0
 62
     9
370
    18
331
14
  1
Color_9
330
473
 90
        8
 62
     5
370
    -3
331
14
  1
Color_5
330
1861
 90
        8
 62
     2
370
    -3
331
1862
  1
Color_2
330
187E
 90
        9
 62
     5
370
    -3
331
14
  1
Color_5
330
18B2
 90
        8
 62
     2
370
    -3
331
351
  1
Color_2
  0
XRECORD
  5
19D4
102
{ACAD_REACTORS
330
47C
102
}
330
47C
100
AcDbXrecord
280
     1
 91
     1023
301

290
     0
302
2
330
F
 90
        8
 62
     7
370
    -3
331
14
  1
Color_7
330
23
 90
        8
 62
     4
370
    50
331
14
  1
Color_4
330
24
 90
        8
 62
     4
370
    50
331
14
  1
Color_4
330
25
 90
        8
 62
     7
370
    25
331
14
  1
Color_7
330
27
 90
        8
 62
     7
370
    25
331
14
  1
Color_7
330
29
 90
        8
 62
     1
370
    35
331
20
  1
Color_1
330
2A
 90
        8
 62
     2
370
    25
331
471
  1
Color_2
330
2F
 90
        1
 62
     7
370
    -3
331
14
  1
Color_7
330
376
 90
        8
 62
     7
370
    25
331
14
  1
Color_7
330
472
 90
        0
 62
     9
370
    18
331
14
  1
Color_9
330
473
 90
        8
 62
     5
370
    -3
331
14
  1
Color_5
330
1861
 90
        9
 62
     2
370
    -3
331
1862
  1
Color_2
330
187E
 90
        9
 62
     5
370
    -3
331
14
  1
Color_5
330
18B2
 90
        8
 62
     2
370
    -3
331
351
  1
Color_2
  0
XRECORD
  5
19D5
102
{ACAD_REACTORS
330
47C
102
}
330
47C
100
AcDbXrecord
280
     1
 91
     1023
301

290
     0
302
2
330
F
 90
        8
 62
     7
370
    -3
331
14
  1
Color_7
330
23
 90
        8
 62
     4
370
    50
331
14
  1
Color_4
330
24
 90
        8
 62
     4
370
    50
331
14
  1
Color_4
330
25
 90
        8
 62
     7
370
    25
331
14
  1
Color_7
330
27
 90
        8
 62
     7
370
    25
331
14
  1
Color_7
330
29
 90
        8
 62
     1
370
    35
331
20
  1
Color_1
330
2A
 90
        8
 62
     2
370
    25
331
471
  1
Color_2
330
2F
 90
        1
 62
     7
370
    -3
331
14
  1
Color_7
330
376
 90
        8
 62
     7
370
    25
331
14
  1
Color_7
330
472
 90
        0
 62
     9
370
    18
331
14
  1
Color_9
330
473
 90
        8
 62
     5
370
    -3
331
14
  1
Color_5
330
1861
 90
        8
 62
     2
370
    -3
331
1862
  1
Color_2
330
187E
 90
        9
 62
     5
370
    -3
331
14
  1
Color_5
330
18B2
 90
        8
 62
     2
370
    -3
331
351
  1
Color_2
  0
XRECORD
  5
1955
102
{ACAD_REACTORS
330
47C
102
}
330
47C
100
AcDbXrecord
280
     1
 91
     1023
301

290
     0
302
INFTOTAL
330
F
 90
        9
 62
     7
370
    -3
331
14
  1
Color_7
330
23
 90
        9
 62
     4
370
    50
331
14
  1
Color_4
330
24
 90
        8
 62
     4
370
    50
331
14
  1
Color_4
330
25
 90
        9
 62
     7
370
    25
331
14
  1
Color_7
330
27
 90
        8
 62
     7
370
    25
331
14
  1
Color_7
330
29
 90
        8
 62
     1
370
    35
331
20
  1
Color_1
330
2A
 90
        9
 62
     2
370
    25
331
471
  1
Color_2
330
2F
 90
        1
 62
     7
370
    -3
331
14
  1
Color_7
330
376
 90
        8
 62
     7
370
    25
331
14
  1
Color_7
330
472
 90
        1
 62
     9
370
    18
331
14
  1
Color_9
330
473
 90
        9
 62
     5
370
    -3
331
14
  1
Color_5
330
1861
 90
        8
 62
     2
370
    -3
331
1862
  1
Color_2
330
187E
 90
        8
 62
     5
370
    -3
331
14
  1
Color_5
330
18B2
 90
        9
 62
     2
370
    -3
331
351
  1
Color_2
  0
XRECORD
  5
19D6
102
{ACAD_REACTORS
330
47C
102
}
330
47C
100
AcDbXrecord
280
     1
 91
     1023
301

290
     0
302
2
330
F
 90
        8
 62
     7
370
    -3
331
14
  1
Color_7
330
23
 90
        8
 62
     4
370
    50
331
14
  1
Color_4
330
24
 90
        8
 62
     4
370
    50
331
14
  1
Color_4
330
25
 90
        8
 62
     7
370
    25
331
14
  1
Color_7
330
27
 90
        8
 62
     7
370
    25
331
14
  1
Color_7
330
29
 90
        8
 62
     1
370
    35
331
20
  1
Color_1
330
2A
 90
        8
 62
     2
370
    25
331
471
  1
Color_2
330
2F
 90
        1
 62
     7
370
    -3
331
14
  1
Color_7
330
376
 90
        8
 62
     7
370
    25
331
14
  1
Color_7
330
472
 90
        0
 62
     9
370
    18
331
14
  1
Color_9
330
473
 90
        8
 62
     5
370
    -3
331
14
  1
Color_5
330
1861
 90
        9
 62
     2
370
    -3
331
1862
  1
Color_2
330
187E
 90
        9
 62
     5
370
    -3
331
14
  1
Color_5
330
18B2
 90
        8
 62
     2
370
    -3
331
351
  1
Color_2
  0
XRECORD
  5
19D7
102
{ACAD_REACTORS
330
47C
102
}
330
47C
100
AcDbXrecord
280
     1
 91
     1023
301

290
     0
302
2
330
F
 90
        8
 62
     7
370
    -3
331
14
  1
Color_7
330
23
 90
        8
 62
     4
370
    50
331
14
  1
Color_4
330
24
 90
        8
 62
     4
370
    50
331
14
  1
Color_4
330
25
 90
        8
 62
     7
370
    25
331
14
  1
Color_7
330
27
 90
        8
 62
     7
370
    25
331
14
  1
Color_7
330
29
 90
        8
 62
     1
370
    35
331
20
  1
Color_1
330
2A
 90
        8
 62
     2
370
    25
331
471
  1
Color_2
330
2F
 90
        1
 62
     7
370
    -3
331
14
  1
Color_7
330
376
 90
        8
 62
     7
370
    25
331
14
  1
Color_7
330
472
 90
        0
 62
     9
370
    18
331
14
  1
Color_9
330
473
 90
        8
 62
     5
370
    -3
331
14
  1
Color_5
330
1861
 90
        8
 62
     2
370
    -3
331
1862
  1
Color_2
330
187E
 90
        9
 62
     5
370
    -3
331
14
  1
Color_5
330
18B2
 90
        8
 62
     2
370
    -3
331
351
  1
Color_2
  0
XRECORD
  5
19D8
102
{ACAD_REACTORS
330
47C
102
}
330
47C
100
AcDbXrecord
280
     1
 91
     1023
301

290
     0
302
2
330
F
 90
        8
 62
     7
370
    -3
331
14
  1
Color_7
330
23
 90
        8
 62
     4
370
    50
331
14
  1
Color_4
330
24
 90
        8
 62
     4
370
    50
331
14
  1
Color_4
330
25
 90
        8
 62
     7
370
    25
331
14
  1
Color_7
330
27
 90
        8
 62
     7
370
    25
331
14
  1
Color_7
330
29
 90
        8
 62
     1
370
    35
331
20
  1
Color_1
330
2A
 90
        8
 62
     2
370
    25
331
471
  1
Color_2
330
2F
 90
        1
 62
     7
370
    -3
331
14
  1
Color_7
330
376
 90
        8
 62
     7
370
    25
331
14
  1
Color_7
330
472
 90
        0
 62
     9
370
    18
331
14
  1
Color_9
330
473
 90
        8
 62
     5
370
    -3
331
14
  1
Color_5
330
1861
 90
        9
 62
     2
370
    -3
331
1862
  1
Color_2
330
187E
 90
        9
 62
     5
370
    -3
331
14
  1
Color_5
330
18B2
 90
        8
 62
     2
370
    -3
331
351
  1
Color_2
  0
XRECORD
  5
19D9
102
{ACAD_REACTORS
330
47C
102
}
330
47C
100
AcDbXrecord
280
     1
 91
     1023
301

290
     0
302
2
330
F
 90
        8
 62
     7
370
    -3
331
14
  1
Color_7
330
23
 90
        8
 62
     4
370
    50
331
14
  1
Color_4
330
24
 90
        8
 62
     4
370
    50
331
14
  1
Color_4
330
25
 90
        8
 62
     7
370
    25
331
14
  1
Color_7
330
27
 90
        8
 62
     7
370
    25
331
14
  1
Color_7
330
29
 90
        8
 62
     1
370
    35
331
20
  1
Color_1
330
2A
 90
        8
 62
     2
370
    25
331
471
  1
Color_2
330
2F
 90
        1
 62
     7
370
    -3
331
14
  1
Color_7
330
376
 90
        8
 62
     7
370
    25
331
14
  1
Color_7
330
472
 90
        0
 62
     9
370
    18
331
14
  1
Color_9
330
473
 90
        8
 62
     5
370
    -3
331
14
  1
Color_5
330
1861
 90
        8
 62
     2
370
    -3
331
1862
  1
Color_2
330
187E
 90
        9
 62
     5
370
    -3
331
14
  1
Color_5
330
18B2
 90
        8
 62
     2
370
    -3
331
351
  1
Color_2
  0
XRECORD
  5
19DA
102
{ACAD_REACTORS
330
47C
102
}
330
47C
100
AcDbXrecord
280
     1
 91
     1023
301

290
     0
302
2
330
F
 90
        8
 62
     7
370
    -3
331
14
  1
Color_7
330
23
 90
        8
 62
     4
370
    50
331
14
  1
Color_4
330
24
 90
        8
 62
     4
370
    50
331
14
  1
Color_4
330
25
 90
        8
 62
     7
370
    25
331
14
  1
Color_7
330
27
 90
        8
 62
     7
370
    25
331
14
  1
Color_7
330
29
 90
        8
 62
     1
370
    35
331
20
  1
Color_1
330
2A
 90
        8
 62
     2
370
    25
331
471
  1
Color_2
330
2F
 90
        1
 62
     7
370
    -3
331
14
  1
Color_7
330
376
 90
        8
 62
     7
370
    25
331
14
  1
Color_7
330
472
 90
        0
 62
     9
370
    18
331
14
  1
Color_9
330
473
 90
        8
 62
     5
370
    -3
331
14
  1
Color_5
330
1861
 90
        9
 62
     2
370
    -3
331
1862
  1
Color_2
330
187E
 90
        9
 62
     5
370
    -3
331
14
  1
Color_5
330
18B2
 90
        8
 62
     2
370
    -3
331
351
  1
Color_2
  0
XRECORD
  5
19DB
102
{ACAD_REACTORS
330
47C
102
}
330
47C
100
AcDbXrecord
280
     1
 91
     1023
301

290
     0
302
2
330
F
 90
        8
 62
     7
370
    -3
331
14
  1
Color_7
330
23
 90
        8
 62
     4
370
    50
331
14
  1
Color_4
330
24
 90
        8
 62
     4
370
    50
331
14
  1
Color_4
330
25
 90
        8
 62
     7
370
    25
331
14
  1
Color_7
330
27
 90
        8
 62
     7
370
    25
331
14
  1
Color_7
330
29
 90
        8
 62
     1
370
    35
331
20
  1
Color_1
330
2A
 90
        8
 62
     2
370
    25
331
471
  1
Color_2
330
2F
 90
        1
 62
     7
370
    -3
331
14
  1
Color_7
330
376
 90
        8
 62
     7
370
    25
331
14
  1
Color_7
330
472
 90
        0
 62
     9
370
    18
331
14
  1
Color_9
330
473
 90
        8
 62
     5
370
    -3
331
14
  1
Color_5
330
1861
 90
        8
 62
     2
370
    -3
331
1862
  1
Color_2
330
187E
 90
        9
 62
     5
370
    -3
331
14
  1
Color_5
330
18B2
 90
        8
 62
     2
370
    -3
331
351
  1
Color_2
  0
XRECORD
  5
19DC
102
{ACAD_REACTORS
330
47C
102
}
330
47C
100
AcDbXrecord
280
     1
 91
     1023
301

290
     0
302
2
330
F
 90
        8
 62
     7
370
    -3
331
14
  1
Color_7
330
23
 90
        8
 62
     4
370
    50
331
14
  1
Color_4
330
24
 90
        8
 62
     4
370
    50
331
14
  1
Color_4
330
25
 90
        8
 62
     7
370
    25
331
14
  1
Color_7
330
27
 90
        8
 62
     7
370
    25
331
14
  1
Color_7
330
29
 90
        8
 62
     1
370
    35
331
20
  1
Color_1
330
2A
 90
        8
 62
     2
370
    25
331
471
  1
Color_2
330
2F
 90
        1
 62
     7
370
    -3
331
14
  1
Color_7
330
376
 90
        8
 62
     7
370
    25
331
14
  1
Color_7
330
472
 90
        0
 62
     9
370
    18
331
14
  1
Color_9
330
473
 90
        8
 62
     5
370
    -3
331
14
  1
Color_5
330
1861
 90
        9
 62
     2
370
    -3
331
1862
  1
Color_2
330
187E
 90
        9
 62
     5
370
    -3
331
14
  1
Color_5
330
18B2
 90
        8
 62
     2
370
    -3
331
351
  1
Color_2
  0
XRECORD
  5
19DD
102
{ACAD_REACTORS
330
47C
102
}
330
47C
100
AcDbXrecord
280
     1
 91
     1023
301

290
     0
302
2
330
F
 90
        8
 62
     7
370
    -3
331
14
  1
Color_7
330
23
 90
        8
 62
     4
370
    50
331
14
  1
Color_4
330
24
 90
        8
 62
     4
370
    50
331
14
  1
Color_4
330
25
 90
        8
 62
     7
370
    25
331
14
  1
Color_7
330
27
 90
        8
 62
     7
370
    25
331
14
  1
Color_7
330
29
 90
        8
 62
     1
370
    35
331
20
  1
Color_1
330
2A
 90
        8
 62
     2
370
    25
331
471
  1
Color_2
330
2F
 90
        1
 62
     7
370
    -3
331
14
  1
Color_7
330
376
 90
        8
 62
     7
370
    25
331
14
  1
Color_7
330
472
 90
        0
 62
     9
370
    18
331
14
  1
Color_9
330
473
 90
        8
 62
     5
370
    -3
331
14
  1
Color_5
330
1861
 90
        8
 62
     2
370
    -3
331
1862
  1
Color_2
330
187E
 90
        9
 62
     5
370
    -3
331
14
  1
Color_5
330
18B2
 90
        8
 62
     2
370
    -3
331
351
  1
Color_2
  0
XRECORD
  5
19DE
102
{ACAD_REACTORS
330
47C
102
}
330
47C
100
AcDbXrecord
280
     1
 91
     1023
301

290
     0
302
2
330
F
 90
        8
 62
     7
370
    -3
331
14
  1
Color_7
330
23
 90
        8
 62
     4
370
    50
331
14
  1
Color_4
330
24
 90
        8
 62
     4
370
    50
331
14
  1
Color_4
330
25
 90
        8
 62
     7
370
    25
331
14
  1
Color_7
330
27
 90
        8
 62
     7
370
    25
331
14
  1
Color_7
330
29
 90
        8
 62
     1
370
    35
331
20
  1
Color_1
330
2A
 90
        8
 62
     2
370
    25
331
471
  1
Color_2
330
2F
 90
        1
 62
     7
370
    -3
331
14
  1
Color_7
330
376
 90
        8
 62
     7
370
    25
331
14
  1
Color_7
330
472
 90
        0
 62
     9
370
    18
331
14
  1
Color_9
330
473
 90
        8
 62
     5
370
    -3
331
14
  1
Color_5
330
1861
 90
        9
 62
     2
370
    -3
331
1862
  1
Color_2
330
187E
 90
        9
 62
     5
370
    -3
331
14
  1
Color_5
330
18B2
 90
        8
 62
     2
370
    -3
331
351
  1
Color_2
  0
XRECORD
  5
19DF
102
{ACAD_REACTORS
330
47C
102
}
330
47C
100
AcDbXrecord
280
     1
 91
     1023
301

290
     0
302
2
330
F
 90
        8
 62
     7
370
    -3
331
14
  1
Color_7
330
23
 90
        8
 62
     4
370
    50
331
14
  1
Color_4
330
24
 90
        8
 62
     4
370
    50
331
14
  1
Color_4
330
25
 90
        8
 62
     7
370
    25
331
14
  1
Color_7
330
27
 90
        8
 62
     7
370
    25
331
14
  1
Color_7
330
29
 90
        8
 62
     1
370
    35
331
20
  1
Color_1
330
2A
 90
        8
 62
     2
370
    25
331
471
  1
Color_2
330
2F
 90
        1
 62
     7
370
    -3
331
14
  1
Color_7
330
376
 90
        8
 62
     7
370
    25
331
14
  1
Color_7
330
472
 90
        0
 62
     9
370
    18
331
14
  1
Color_9
330
473
 90
        8
 62
     5
370
    -3
331
14
  1
Color_5
330
1861
 90
        8
 62
     2
370
    -3
331
1862
  1
Color_2
330
187E
 90
        9
 62
     5
370
    -3
331
14
  1
Color_5
330
18B2
 90
        8
 62
     2
370
    -3
331
351
  1
Color_2
  0
XRECORD
  5
1956
102
{ACAD_REACTORS
330
47C
102
}
330
47C
100
AcDbXrecord
280
     1
 91
     1023
301

290
     0
302
INFTOTAL
330
F
 90
        9
 62
     7
370
    -3
331
14
  1
Color_7
330
23
 90
        9
 62
     4
370
    50
331
14
  1
Color_4
330
24
 90
        9
 62
     4
370
    50
331
14
  1
Color_4
330
25
 90
        9
 62
     7
370
    25
331
14
  1
Color_7
330
27
 90
        8
 62
     7
370
    25
331
14
  1
Color_7
330
29
 90
        8
 62
     1
370
    35
331
20
  1
Color_1
330
2A
 90
        9
 62
     2
370
    25
331
471
  1
Color_2
330
2F
 90
        1
 62
     7
370
    -3
331
14
  1
Color_7
330
376
 90
        8
 62
     7
370
    25
331
14
  1
Color_7
330
472
 90
        1
 62
     9
370
    18
331
14
  1
Color_9
330
473
 90
        9
 62
     5
370
    -3
331
14
  1
Color_5
330
1861
 90
        8
 62
     2
370
    -3
331
1862
  1
Color_2
330
187E
 90
        8
 62
     5
370
    -3
331
14
  1
Color_5
330
18B2
 90
        9
 62
     2
370
    -3
331
351
  1
Color_2
  0
XRECORD
  5
19E0
102
{ACAD_REACTORS
330
47C
102
}
330
47C
100
AcDbXrecord
280
     1
 91
     1023
301

290
     0
302
2
330
F
 90
        8
 62
     7
370
    -3
331
14
  1
Color_7
330
23
 90
        8
 62
     4
370
    50
331
14
  1
Color_4
330
24
 90
        8
 62
     4
370
    50
331
14
  1
Color_4
330
25
 90
        8
 62
     7
370
    25
331
14
  1
Color_7
330
27
 90
        8
 62
     7
370
    25
331
14
  1
Color_7
330
29
 90
        8
 62
     1
370
    35
331
20
  1
Color_1
330
2A
 90
        8
 62
     2
370
    25
331
471
  1
Color_2
330
2F
 90
        1
 62
     7
370
    -3
331
14
  1
Color_7
330
376
 90
        8
 62
     7
370
    25
331
14
  1
Color_7
330
472
 90
        0
 62
     9
370
    18
331
14
  1
Color_9
330
473
 90
        8
 62
     5
370
    -3
331
14
  1
Color_5
330
1861
 90
        9
 62
     2
370
    -3
331
1862
  1
Color_2
330
187E
 90
        9
 62
     5
370
    -3
331
14
  1
Color_5
330
18B2
 90
        8
 62
     2
370
    -3
331
351
  1
Color_2
  0
XRECORD
  5
19E1
102
{ACAD_REACTORS
330
47C
102
}
330
47C
100
AcDbXrecord
280
     1
 91
     1023
301

290
     0
302
2
330
F
 90
        8
 62
     7
370
    -3
331
14
  1
Color_7
330
23
 90
        8
 62
     4
370
    50
331
14
  1
Color_4
330
24
 90
        8
 62
     4
370
    50
331
14
  1
Color_4
330
25
 90
        8
 62
     7
370
    25
331
14
  1
Color_7
330
27
 90
        8
 62
     7
370
    25
331
14
  1
Color_7
330
29
 90
        8
 62
     1
370
    35
331
20
  1
Color_1
330
2A
 90
        8
 62
     2
370
    25
331
471
  1
Color_2
330
2F
 90
        1
 62
     7
370
    -3
331
14
  1
Color_7
330
376
 90
        8
 62
     7
370
    25
331
14
  1
Color_7
330
472
 90
        0
 62
     9
370
    18
331
14
  1
Color_9
330
473
 90
        8
 62
     5
370
    -3
331
14
  1
Color_5
330
1861
 90
        8
 62
     2
370
    -3
331
1862
  1
Color_2
330
187E
 90
        9
 62
     5
370
    -3
331
14
  1
Color_5
330
18B2
 90
        8
 62
     2
370
    -3
331
351
  1
Color_2
  0
XRECORD
  5
19E2
102
{ACAD_REACTORS
330
47C
102
}
330
47C
100
AcDbXrecord
280
     1
 91
     1023
301

290
     0
302
2
330
F
 90
        8
 62
     7
370
    -3
331
14
  1
Color_7
330
23
 90
        8
 62
     4
370
    50
331
14
  1
Color_4
330
24
 90
        8
 62
     4
370
    50
331
14
  1
Color_4
330
25
 90
        8
 62
     7
370
    25
331
14
  1
Color_7
330
27
 90
        8
 62
     7
370
    25
331
14
  1
Color_7
330
29
 90
        8
 62
     1
370
    35
331
20
  1
Color_1
330
2A
 90
        8
 62
     2
370
    25
331
471
  1
Color_2
330
2F
 90
        1
 62
     7
370
    -3
331
14
  1
Color_7
330
376
 90
        8
 62
     7
370
    25
331
14
  1
Color_7
330
472
 90
        0
 62
     9
370
    18
331
14
  1
Color_9
330
473
 90
        8
 62
     5
370
    -3
331
14
  1
Color_5
330
1861
 90
        8
 62
     2
370
    -3
331
1862
  1
Color_2
330
187E
 90
        8
 62
     5
370
    -3
331
14
  1
Color_5
330
18B2
 90
        8
 62
     2
370
    -3
331
351
  1
Color_2
  0
XRECORD
  5
19E3
102
{ACAD_REACTORS
330
47C
102
}
330
47C
100
AcDbXrecord
280
     1
 91
     1023
301

290
     0
302
2
330
F
 90
        8
 62
     7
370
    -3
331
14
  1
Color_7
330
23
 90
        8
 62
     4
370
    50
331
14
  1
Color_4
330
24
 90
        8
 62
     4
370
    50
331
14
  1
Color_4
330
25
 90
        8
 62
     7
370
    25
331
14
  1
Color_7
330
27
 90
        8
 62
     7
370
    25
331
14
  1
Color_7
330
29
 90
        8
 62
     1
370
    35
331
20
  1
Color_1
330
2A
 90
        8
 62
     2
370
    25
331
471
  1
Color_2
330
2F
 90
        1
 62
     7
370
    -3
331
14
  1
Color_7
330
376
 90
        8
 62
     7
370
    25
331
14
  1
Color_7
330
472
 90
        0
 62
     9
370
    18
331
14
  1
Color_9
330
473
 90
        8
 62
     5
370
    -3
331
14
  1
Color_5
330
1861
 90
        8
 62
     2
370
    -3
331
1862
  1
Color_2
330
187E
 90
        9
 62
     5
370
    -3
331
14
  1
Color_5
330
18B2
 90
        8
 62
     2
370
    -3
331
351
  1
Color_2
  0
XRECORD
  5
19E4
102
{ACAD_REACTORS
330
47C
102
}
330
47C
100
AcDbXrecord
280
     1
 91
     1023
301

290
     0
302
2
330
F
 90
        8
 62
     7
370
    -3
331
14
  1
Color_7
330
23
 90
        8
 62
     4
370
    50
331
14
  1
Color_4
330
24
 90
        8
 62
     4
370
    50
331
14
  1
Color_4
330
25
 90
        8
 62
     7
370
    25
331
14
  1
Color_7
330
27
 90
        8
 62
     7
370
    25
331
14
  1
Color_7
330
29
 90
        8
 62
     1
370
    35
331
20
  1
Color_1
330
2A
 90
        8
 62
     2
370
    25
331
471
  1
Color_2
330
2F
 90
        1
 62
     7
370
    -3
331
14
  1
Color_7
330
376
 90
        8
 62
     7
370
    25
331
14
  1
Color_7
330
472
 90
        0
 62
     9
370
    18
331
14
  1
Color_9
330
473
 90
        8
 62
     5
370
    -3
331
14
  1
Color_5
330
1861
 90
        8
 62
     2
370
    -3
331
1862
  1
Color_2
330
187E
 90
        8
 62
     5
370
    -3
331
14
  1
Color_5
330
18B2
 90
        8
 62
     2
370
    -3
331
351
  1
Color_2
  0
XRECORD
  5
19E5
102
{ACAD_REACTORS
330
47C
102
}
330
47C
100
AcDbXrecord
280
     1
 91
     1023
301

290
     0
302
2
330
F
 90
        8
 62
     7
370
    -3
331
14
  1
Color_7
330
23
 90
        8
 62
     4
370
    50
331
14
  1
Color_4
330
24
 90
        8
 62
     4
370
    50
331
14
  1
Color_4
330
25
 90
        8
 62
     7
370
    25
331
14
  1
Color_7
330
27
 90
        8
 62
     7
370
    25
331
14
  1
Color_7
330
29
 90
        8
 62
     1
370
    35
331
20
  1
Color_1
330
2A
 90
        8
 62
     2
370
    25
331
471
  1
Color_2
330
2F
 90
        1
 62
     7
370
    -3
331
14
  1
Color_7
330
376
 90
        8
 62
     7
370
    25
331
14
  1
Color_7
330
472
 90
        0
 62
     9
370
    18
331
14
  1
Color_9
330
473
 90
        8
 62
     5
370
    -3
331
14
  1
Color_5
330
1861
 90
        8
 62
     2
370
    -3
331
1862
  1
Color_2
330
187E
 90
        9
 62
     5
370
    -3
331
14
  1
Color_5
330
18B2
 90
        8
 62
     2
370
    -3
331
351
  1
Color_2
  0
XRECORD
  5
19E6
102
{ACAD_REACTORS
330
47C
102
}
330
47C
100
AcDbXrecord
280
     1
 91
     1023
301

290
     0
302
2
330
F
 90
        8
 62
     7
370
    -3
331
14
  1
Color_7
330
23
 90
        8
 62
     4
370
    50
331
14
  1
Color_4
330
24
 90
        8
 62
     4
370
    50
331
14
  1
Color_4
330
25
 90
        8
 62
     7
370
    25
331
14
  1
Color_7
330
27
 90
        8
 62
     7
370
    25
331
14
  1
Color_7
330
29
 90
        8
 62
     1
370
    35
331
20
  1
Color_1
330
2A
 90
        8
 62
     2
370
    25
331
471
  1
Color_2
330
2F
 90
        1
 62
     7
370
    -3
331
14
  1
Color_7
330
376
 90
        8
 62
     7
370
    25
331
14
  1
Color_7
330
472
 90
        0
 62
     9
370
    18
331
14
  1
Color_9
330
473
 90
        8
 62
     5
370
    -3
331
14
  1
Color_5
330
1861
 90
        8
 62
     2
370
    -3
331
1862
  1
Color_2
330
187E
 90
        8
 62
     5
370
    -3
331
14
  1
Color_5
330
18B2
 90
        8
 62
     2
370
    -3
331
351
  1
Color_2
  0
XRECORD
  5
19E7
102
{ACAD_REACTORS
330
47C
102
}
330
47C
100
AcDbXrecord
280
     1
 91
     1023
301

290
     0
302
2
330
F
 90
        8
 62
     7
370
    -3
331
14
  1
Color_7
330
23
 90
        8
 62
     4
370
    50
331
14
  1
Color_4
330
24
 90
        8
 62
     4
370
    50
331
14
  1
Color_4
330
25
 90
        8
 62
     7
370
    25
331
14
  1
Color_7
330
27
 90
        8
 62
     7
370
    25
331
14
  1
Color_7
330
29
 90
        8
 62
     1
370
    35
331
20
  1
Color_1
330
2A
 90
        8
 62
     2
370
    25
331
471
  1
Color_2
330
2F
 90
        1
 62
     7
370
    -3
331
14
  1
Color_7
330
376
 90
        8
 62
     7
370
    25
331
14
  1
Color_7
330
472
 90
        0
 62
     9
370
    18
331
14
  1
Color_9
330
473
 90
        8
 62
     5
370
    -3
331
14
  1
Color_5
330
1861
 90
        8
 62
     2
370
    -3
331
1862
  1
Color_2
330
187E
 90
        9
 62
     5
370
    -3
331
14
  1
Color_5
330
18B2
 90
        8
 62
     2
370
    -3
331
351
  1
Color_2
  0
XRECORD
  5
1AEE
102
{ACAD_REACTORS
330
47C
102
}
330
47C
100
AcDbXrecord
280
     1
 91
     1023
301

290
     0
302
2
330
F
 90
        8
 62
     7
370
    -3
331
14
  1
Color_7
330
23
 90
        8
 62
     4
370
    50
331
14
  1
Color_4
330
24
 90
        8
 62
     4
370
    50
331
14
  1
Color_4
330
25
 90
        8
 62
     7
370
    25
331
14
  1
Color_7
330
27
 90
        8
 62
     7
370
    25
331
14
  1
Color_7
330
29
 90
        8
 62
     1
370
    35
331
20
  1
Color_1
330
2A
 90
        8
 62
     2
370
    25
331
471
  1
Color_2
330
2F
 90
        1
 62
     7
370
    -3
331
14
  1
Color_7
330
376
 90
        8
 62
     7
370
    25
331
14
  1
Color_7
330
472
 90
        0
 62
     9
370
    18
331
14
  1
Color_9
330
473
 90
        8
 62
     5
370
    -3
331
14
  1
Color_5
330
1861
 90
        8
 62
     2
370
    -3
331
1862
  1
Color_2
330
187E
 90
        8
 62
     5
370
    -3
331
14
  1
Color_5
330
18B2
 90
        8
 62
     2
370
    -3
331
351
  1
Color_2
  0
XRECORD
  5
1B26
102
{ACAD_REACTORS
330
47C
102
}
330
47C
100
AcDbXrecord
280
     1
 91
     1023
301

290
     0
302
2
330
F
 90
        8
 62
     7
370
    -3
331
14
  1
Color_7
330
23
 90
        8
 62
     4
370
    50
331
14
  1
Color_4
330
24
 90
        8
 62
     4
370
    50
331
14
  1
Color_4
330
25
 90
        8
 62
     7
370
    25
331
14
  1
Color_7
330
27
 90
        8
 62
     7
370
    25
331
14
  1
Color_7
330
29
 90
        8
 62
     1
370
    35
331
20
  1
Color_1
330
2A
 90
        8
 62
     2
370
    25
331
471
  1
Color_2
330
2F
 90
        1
 62
     7
370
    -3
331
14
  1
Color_7
330
376
 90
        8
 62
     7
370
    25
331
14
  1
Color_7
330
472
 90
        0
 62
     9
370
    18
331
14
  1
Color_9
330
473
 90
        8
 62
     5
370
    -3
331
14
  1
Color_5
330
1861
 90
        8
 62
     2
370
    -3
331
471
  1
Color_2
330
187E
 90
        8
 62
     5
370
    -3
331
14
  1
Color_5
330
18B2
 90
        8
 62
     2
370
    -3
331
351
  1
Color_2
  0
XRECORD
  5
1957
102
{ACAD_REACTORS
330
47C
102
}
330
47C
100
AcDbXrecord
280
     1
 91
     1023
301

290
     0
302
INFTOTAL
330
F
 90
        9
 62
     7
370
    -3
331
14
  1
Color_7
330
23
 90
        9
 62
     4
370
    50
331
14
  1
Color_4
330
24
 90
        9
 62
     4
370
    50
331
14
  1
Color_4
330
25
 90
        9
 62
     7
370
    25
331
14
  1
Color_7
330
27
 90
        9
 62
     7
370
    25
331
14
  1
Color_7
330
29
 90
        8
 62
     1
370
    35
331
20
  1
Color_1
330
2A
 90
        9
 62
     2
370
    25
331
471
  1
Color_2
330
2F
 90
        1
 62
     7
370
    -3
331
14
  1
Color_7
330
376
 90
        8
 62
     7
370
    25
331
14
  1
Color_7
330
472
 90
        1
 62
     9
370
    18
331
14
  1
Color_9
330
473
 90
        9
 62
     5
370
    -3
331
14
  1
Color_5
330
1861
 90
        8
 62
     2
370
    -3
331
1862
  1
Color_2
330
187E
 90
        8
 62
     5
370
    -3
331
14
  1
Color_5
330
18B2
 90
        9
 62
     2
370
    -3
331
351
  1
Color_2
  0
XRECORD
  5
1B27
102
{ACAD_REACTORS
330
47C
102
}
330
47C
100
AcDbXrecord
280
     1
 91
     1023
301

290
     0
302
2
330
F
 90
        8
 62
     7
370
    -3
331
14
  1
Color_7
330
23
 90
        8
 62
     4
370
    50
331
14
  1
Color_4
330
24
 90
        8
 62
     4
370
    50
331
14
  1
Color_4
330
25
 90
        8
 62
     7
370
    25
331
14
  1
Color_7
330
27
 90
        8
 62
     7
370
    25
331
14
  1
Color_7
330
29
 90
        8
 62
     1
370
    35
331
20
  1
Color_1
330
2A
 90
        8
 62
     2
370
    25
331
471
  1
Color_2
330
2F
 90
        1
 62
     7
370
    -3
331
14
  1
Color_7
330
376
 90
        9
 62
     7
370
    25
331
14
  1
Color_7
330
472
 90
        0
 62
     9
370
    18
331
14
  1
Color_9
330
473
 90
        8
 62
     5
370
    -3
331
14
  1
Color_5
330
1861
 90
        8
 62
     2
370
    -3
331
471
  1
Color_2
330
187E
 90
        8
 62
     5
370
    -3
331
14
  1
Color_5
330
18B2
 90
        8
 62
     2
370
    -3
331
351
  1
Color_2
  0
XRECORD
  5
1B29
102
{ACAD_REACTORS
330
47C
102
}
330
47C
100
AcDbXrecord
280
     1
 91
     1023
301

290
     0
302
2
330
F
 90
        8
 62
     7
370
    -3
331
14
  1
Color_7
330
23
 90
        8
 62
     4
370
    50
331
14
  1
Color_4
330
24
 90
        8
 62
     4
370
    50
331
14
  1
Color_4
330
25
 90
        8
 62
     7
370
    25
331
14
  1
Color_7
330
27
 90
        8
 62
     7
370
    25
331
14
  1
Color_7
330
29
 90
        8
 62
     1
370
    35
331
20
  1
Color_1
330
2A
 90
        8
 62
     2
370
    25
331
471
  1
Color_2
330
2F
 90
        1
 62
     7
370
    -3
331
14
  1
Color_7
330
376
 90
        8
 62
     7
370
    25
331
14
  1
Color_7
330
472
 90
        0
 62
     9
370
    18
331
14
  1
Color_9
330
473
 90
        8
 62
     5
370
    -3
331
14
  1
Color_5
330
1861
 90
        8
 62
     2
370
    -3
331
471
  1
Color_2
330
187E
 90
        8
 62
     5
370
    -3
331
14
  1
Color_5
330
18B2
 90
        8
 62
     2
370
    -3
331
351
  1
Color_2
  0
XRECORD
  5
1B2A
102
{ACAD_REACTORS
330
47C
102
}
330
47C
100
AcDbXrecord
280
     1
 91
     1023
301

290
     0
302
2
330
F
 90
        8
 62
     7
370
    -3
331
14
  1
Color_7
330
23
 90
        9
 62
     4
370
    50
331
14
  1
Color_4
330
24
 90
        8
 62
     4
370
    50
331
14
  1
Color_4
330
25
 90
        8
 62
     7
370
    25
331
14
  1
Color_7
330
27
 90
        8
 62
     7
370
    25
331
14
  1
Color_7
330
29
 90
        8
 62
     1
370
    35
331
20
  1
Color_1
330
2A
 90
        8
 62
     2
370
    25
331
471
  1
Color_2
330
2F
 90
        1
 62
     7
370
    -3
331
14
  1
Color_7
330
376
 90
        8
 62
     7
370
    25
331
14
  1
Color_7
330
472
 90
        0
 62
     9
370
    18
331
14
  1
Color_9
330
473
 90
        8
 62
     5
370
    -3
331
14
  1
Color_5
330
1861
 90
        8
 62
     2
370
    -3
331
471
  1
Color_2
330
187E
 90
        8
 62
     5
370
    -3
331
14
  1
Color_5
330
18B2
 90
        8
 62
     2
370
    -3
331
351
  1
Color_2
  0
XRECORD
  5
1B2B
102
{ACAD_REACTORS
330
47C
102
}
330
47C
100
AcDbXrecord
280
     1
 91
     1023
301

290
     0
302
2
330
F
 90
        8
 62
     7
370
    -3
331
14
  1
Color_7
330
23
 90
        8
 62
     4
370
    50
331
14
  1
Color_4
330
24
 90
        8
 62
     4
370
    50
331
14
  1
Color_4
330
25
 90
        8
 62
     7
370
    25
331
14
  1
Color_7
330
27
 90
        8
 62
     7
370
    25
331
14
  1
Color_7
330
29
 90
        8
 62
     1
370
    35
331
20
  1
Color_1
330
2A
 90
        8
 62
     2
370
    25
331
471
  1
Color_2
330
2F
 90
        1
 62
     7
370
    -3
331
14
  1
Color_7
330
376
 90
        8
 62
     7
370
    25
331
14
  1
Color_7
330
472
 90
        0
 62
     9
370
    18
331
14
  1
Color_9
330
473
 90
        8
 62
     5
370
    -3
331
14
  1
Color_5
330
1861
 90
        8
 62
     2
370
    -3
331
471
  1
Color_2
330
187E
 90
        8
 62
     5
370
    -3
331
14
  1
Color_5
330
18B2
 90
        8
 62
     2
370
    -3
331
351
  1
Color_2
  0
XRECORD
  5
1B2D
102
{ACAD_REACTORS
330
47C
102
}
330
47C
100
AcDbXrecord
280
     1
 91
     1023
301

290
     0
302
1
330
F
 90
        8
 62
     7
370
    -3
331
14
  1
Color_7
330
23
 90
        8
 62
     4
370
    50
331
14
  1
Color_4
330
24
 90
        8
 62
     4
370
    50
331
14
  1
Color_4
330
25
 90
        8
 62
     7
370
    25
331
14
  1
Color_7
330
27
 90
        8
 62
     7
370
    25
331
14
  1
Color_7
330
29
 90
        8
 62
     1
370
    35
331
20
  1
Color_1
330
2A
 90
        8
 62
     2
370
    25
331
471
  1
Color_2
330
2F
 90
        1
 62
     7
370
    -3
331
14
  1
Color_7
330
376
 90
        8
 62
     7
370
    25
331
14
  1
Color_7
330
472
 90
        0
 62
     9
370
    18
331
14
  1
Color_9
330
473
 90
        8
 62
     5
370
    -3
331
14
  1
Color_5
330
1861
 90
        8
 62
     2
370
    -3
331
471
  1
Color_2
330
187E
 90
        8
 62
     5
370
    -3
331
14
  1
Color_5
330
18B2
 90
        8
 62
     2
370
    -3
331
351
  1
Color_2
  0
XRECORD
  5
1B2E
102
{ACAD_REACTORS
330
47C
102
}
330
47C
100
AcDbXrecord
280
     1
 91
     1023
301

290
     0
302
1
330
F
 90
        8
 62
     7
370
    -3
331
14
  1
Color_7
330
23
 90
        9
 62
     4
370
    50
331
14
  1
Color_4
330
24
 90
        8
 62
     4
370
    50
331
14
  1
Color_4
330
25
 90
        8
 62
     7
370
    25
331
14
  1
Color_7
330
27
 90
        8
 62
     7
370
    25
331
14
  1
Color_7
330
29
 90
        8
 62
     1
370
    35
331
20
  1
Color_1
330
2A
 90
        8
 62
     2
370
    25
331
471
  1
Color_2
330
2F
 90
        1
 62
     7
370
    -3
331
14
  1
Color_7
330
376
 90
        8
 62
     7
370
    25
331
14
  1
Color_7
330
472
 90
        0
 62
     9
370
    18
331
14
  1
Color_9
330
473
 90
        8
 62
     5
370
    -3
331
14
  1
Color_5
330
1861
 90
        8
 62
     2
370
    -3
331
471
  1
Color_2
330
187E
 90
        8
 62
     5
370
    -3
331
14
  1
Color_5
330
18B2
 90
        8
 62
     2
370
    -3
331
351
  1
Color_2
  0
XRECORD
  5
1B2F
102
{ACAD_REACTORS
330
47C
102
}
330
47C
100
AcDbXrecord
280
     1
 91
     1023
301

290
     0
302
1
330
F
 90
        8
 62
     7
370
    -3
331
14
  1
Color_7
330
23
 90
        9
 62
     4
370
    50
331
14
  1
Color_4
330
24
 90
        8
 62
     4
370
    50
331
14
  1
Color_4
330
25
 90
        9
 62
     7
370
    25
331
14
  1
Color_7
330
27
 90
        8
 62
     7
370
    25
331
14
  1
Color_7
330
29
 90
        8
 62
     1
370
    35
331
20
  1
Color_1
330
2A
 90
        8
 62
     2
370
    25
331
471
  1
Color_2
330
2F
 90
        1
 62
     7
370
    -3
331
14
  1
Color_7
330
376
 90
        8
 62
     7
370
    25
331
14
  1
Color_7
330
472
 90
        0
 62
     9
370
    18
331
14
  1
Color_9
330
473
 90
        8
 62
     5
370
    -3
331
14
  1
Color_5
330
1861
 90
        8
 62
     2
370
    -3
331
471
  1
Color_2
330
187E
 90
        8
 62
     5
370
    -3
331
14
  1
Color_5
330
18B2
 90
        8
 62
     2
370
    -3
331
351
  1
Color_2
  0
XRECORD
  5
1B30
102
{ACAD_REACTORS
330
47C
102
}
330
47C
100
AcDbXrecord
280
     1
 91
     1023
301

290
     0
302
2
330
F
 90
        8
 62
     7
370
    -3
331
14
  1
Color_7
330
23
 90
        9
 62
     4
370
    50
331
14
  1
Color_4
330
24
 90
        8
 62
     4
370
    50
331
14
  1
Color_4
330
25
 90
        9
 62
     7
370
    25
331
14
  1
Color_7
330
27
 90
        8
 62
     7
370
    25
331
14
  1
Color_7
330
29
 90
        8
 62
     1
370
    35
331
20
  1
Color_1
330
2A
 90
        8
 62
     2
370
    25
331
471
  1
Color_2
330
2F
 90
        1
 62
     7
370
    -3
331
14
  1
Color_7
330
376
 90
        8
 62
     7
370
    25
331
14
  1
Color_7
330
472
 90
        0
 62
     9
370
    18
331
14
  1
Color_9
330
473
 90
        8
 62
     5
370
    -3
331
14
  1
Color_5
330
1861
 90
        8
 62
     2
370
    -3
331
471
  1
Color_2
330
187E
 90
        8
 62
     5
370
    -3
331
14
  1
Color_5
330
18B2
 90
        8
 62
     2
370
    -3
331
351
  1
Color_2
  0
XRECORD
  5
1B31
102
{ACAD_REACTORS
330
47C
102
}
330
47C
100
AcDbXrecord
280
     1
 91
     1023
301

290
     0
302
2
330
F
 90
        8
 62
     7
370
    -3
331
14
  1
Color_7
330
23
 90
        9
 62
     4
370
    50
331
14
  1
Color_4
330
24
 90
        8
 62
     4
370
    50
331
14
  1
Color_4
330
25
 90
        9
 62
     7
370
    25
331
14
  1
Color_7
330
27
 90
        8
 62
     7
370
    25
331
14
  1
Color_7
330
29
 90
        8
 62
     1
370
    35
331
20
  1
Color_1
330
2A
 90
        9
 62
     2
370
    25
331
471
  1
Color_2
330
2F
 90
        1
 62
     7
370
    -3
331
14
  1
Color_7
330
376
 90
        8
 62
     7
370
    25
331
14
  1
Color_7
330
472
 90
        0
 62
     9
370
    18
331
14
  1
Color_9
330
473
 90
        8
 62
     5
370
    -3
331
14
  1
Color_5
330
1861
 90
        8
 62
     2
370
    -3
331
471
  1
Color_2
330
187E
 90
        8
 62
     5
370
    -3
331
14
  1
Color_5
330
18B2
 90
        8
 62
     2
370
    -3
331
351
  1
Color_2
  0
XRECORD
  5
1B32
102
{ACAD_REACTORS
330
47C
102
}
330
47C
100
AcDbXrecord
280
     1
 91
     1023
301

290
     0
302
4
330
F
 90
        8
 62
     7
370
    -3
331
14
  1
Color_7
330
23
 90
        9
 62
     4
370
    50
331
14
  1
Color_4
330
24
 90
        8
 62
     4
370
    50
331
14
  1
Color_4
330
25
 90
        9
 62
     7
370
    25
331
14
  1
Color_7
330
27
 90
        8
 62
     7
370
    25
331
14
  1
Color_7
330
29
 90
        8
 62
     1
370
    35
331
20
  1
Color_1
330
2A
 90
        9
 62
     2
370
    25
331
471
  1
Color_2
330
2F
 90
        1
 62
     7
370
    -3
331
14
  1
Color_7
330
376
 90
        8
 62
     7
370
    25
331
14
  1
Color_7
330
472
 90
        0
 62
     9
370
    18
331
14
  1
Color_9
330
473
 90
        8
 62
     5
370
    -3
331
14
  1
Color_5
330
1861
 90
        8
 62
     2
370
    -3
331
471
  1
Color_2
330
187E
 90
        8
 62
     5
370
    -3
331
14
  1
Color_5
330
18B2
 90
        8
 62
     2
370
    -3
331
351
  1
Color_2
  0
XRECORD
  5
1958
102
{ACAD_REACTORS
330
47C
102
}
330
47C
100
AcDbXrecord
280
     1
 91
     1023
301

290
     0
302
INFTOTAL
330
F
 90
        9
 62
     7
370
    -3
331
14
  1
Color_7
330
23
 90
        9
 62
     4
370
    50
331
14
  1
Color_4
330
24
 90
        9
 62
     4
370
    50
331
14
  1
Color_4
330
25
 90
        9
 62
     7
370
    25
331
14
  1
Color_7
330
27
 90
        9
 62
     7
370
    25
331
14
  1
Color_7
330
29
 90
        9
 62
     1
370
    35
331
20
  1
Color_1
330
2A
 90
        9
 62
     2
370
    25
331
471
  1
Color_2
330
2F
 90
        1
 62
     7
370
    -3
331
14
  1
Color_7
330
376
 90
        8
 62
     7
370
    25
331
14
  1
Color_7
330
472
 90
        1
 62
     9
370
    18
331
14
  1
Color_9
330
473
 90
        9
 62
     5
370
    -3
331
14
  1
Color_5
330
1861
 90
        8
 62
     2
370
    -3
331
1862
  1
Color_2
330
187E
 90
        8
 62
     5
370
    -3
331
14
  1
Color_5
330
18B2
 90
        9
 62
     2
370
    -3
331
351
  1
Color_2
  0
XRECORD
  5
1B33
102
{ACAD_REACTORS
330
47C
102
}
330
47C
100
AcDbXrecord
280
     1
 91
     1023
301

290
     0
302
4
330
F
 90
        8
 62
     7
370
    -3
331
14
  1
Color_7
330
23
 90
        9
 62
     4
370
    50
331
14
  1
Color_4
330
24
 90
        8
 62
     4
370
    50
331
14
  1
Color_4
330
25
 90
        9
 62
     7
370
    25
331
14
  1
Color_7
330
27
 90
        8
 62
     7
370
    25
331
14
  1
Color_7
330
29
 90
        8
 62
     1
370
    35
331
20
  1
Color_1
330
2A
 90
        9
 62
     2
370
    25
331
471
  1
Color_2
330
2F
 90
        1
 62
     7
370
    -3
331
14
  1
Color_7
330
376
 90
        8
 62
     7
370
    25
331
14
  1
Color_7
330
472
 90
        0
 62
     9
370
    18
331
14
  1
Color_9
330
473
 90
        9
 62
     5
370
    -3
331
14
  1
Color_5
330
1861
 90
        8
 62
     2
370
    -3
331
471
  1
Color_2
330
187E
 90
        8
 62
     5
370
    -3
331
14
  1
Color_5
330
18B2
 90
        8
 62
     2
370
    -3
331
351
  1
Color_2
  0
XRECORD
  5
1B34
102
{ACAD_REACTORS
330
47C
102
}
330
47C
100
AcDbXrecord
280
     1
 91
     1023
301

290
     0
302
4
330
F
 90
        8
 62
     7
370
    -3
331
14
  1
Color_7
330
23
 90
        9
 62
     4
370
    50
331
14
  1
Color_4
330
24
 90
        8
 62
     4
370
    50
331
14
  1
Color_4
330
25
 90
        9
 62
     7
370
    25
331
14
  1
Color_7
330
27
 90
        8
 62
     7
370
    25
331
14
  1
Color_7
330
29
 90
        8
 62
     1
370
    35
331
20
  1
Color_1
330
2A
 90
        9
 62
     2
370
    25
331
471
  1
Color_2
330
2F
 90
        1
 62
     7
370
    -3
331
14
  1
Color_7
330
376
 90
        8
 62
     7
370
    25
331
14
  1
Color_7
330
472
 90
        1
 62
     9
370
    18
331
14
  1
Color_9
330
473
 90
        9
 62
     5
370
    -3
331
14
  1
Color_5
330
1861
 90
        8
 62
     2
370
    -3
331
471
  1
Color_2
330
187E
 90
        8
 62
     5
370
    -3
331
14
  1
Color_5
330
18B2
 90
        8
 62
     2
370
    -3
331
351
  1
Color_2
  0
XRECORD
  5
1B35
102
{ACAD_REACTORS
330
47C
102
}
330
47C
100
AcDbXrecord
280
     1
 91
     1023
301

290
     0
302
4
330
F
 90
        8
 62
     7
370
    -3
331
14
  1
Color_7
330
23
 90
        9
 62
     4
370
    50
331
14
  1
Color_4
330
24
 90
        8
 62
     4
370
    50
331
14
  1
Color_4
330
25
 90
        9
 62
     7
370
    25
331
14
  1
Color_7
330
27
 90
        8
 62
     7
370
    25
331
14
  1
Color_7
330
29
 90
        8
 62
     1
370
    35
331
20
  1
Color_1
330
2A
 90
        9
 62
     2
370
    25
331
471
  1
Color_2
330
2F
 90
        1
 62
     7
370
    -3
331
14
  1
Color_7
330
376
 90
        8
 62
     7
370
    25
331
14
  1
Color_7
330
472
 90
        1
 62
     9
370
    18
331
14
  1
Color_9
330
473
 90
        9
 62
     5
370
    -3
331
14
  1
Color_5
330
1861
 90
        8
 62
     2
370
    -3
331
471
  1
Color_2
330
187E
 90
        8
 62
     5
370
    -3
331
14
  1
Color_5
330
18B2
 90
        9
 62
     2
370
    -3
331
351
  1
Color_2
  0
XRECORD
  5
1B36
102
{ACAD_REACTORS
330
47C
102
}
330
47C
100
AcDbXrecord
280
     1
 91
     1023
301

290
     0
302
4
330
F
 90
        8
 62
     7
370
    -3
331
14
  1
Color_7
330
23
 90
        9
 62
     4
370
    50
331
14
  1
Color_4
330
24
 90
        9
 62
     4
370
    50
331
14
  1
Color_4
330
25
 90
        9
 62
     7
370
    25
331
14
  1
Color_7
330
27
 90
        8
 62
     7
370
    25
331
14
  1
Color_7
330
29
 90
        8
 62
     1
370
    35
331
20
  1
Color_1
330
2A
 90
        9
 62
     2
370
    25
331
471
  1
Color_2
330
2F
 90
        1
 62
     7
370
    -3
331
14
  1
Color_7
330
376
 90
        8
 62
     7
370
    25
331
14
  1
Color_7
330
472
 90
        1
 62
     9
370
    18
331
14
  1
Color_9
330
473
 90
        9
 62
     5
370
    -3
331
14
  1
Color_5
330
1861
 90
        8
 62
     2
370
    -3
331
471
  1
Color_2
330
187E
 90
        8
 62
     5
370
    -3
331
14
  1
Color_5
330
18B2
 90
        9
 62
     2
370
    -3
331
351
  1
Color_2
  0
XRECORD
  5
1B37
102
{ACAD_REACTORS
330
47C
102
}
330
47C
100
AcDbXrecord
280
     1
 91
     1023
301

290
     0
302
4
330
F
 90
        8
 62
     7
370
    -3
331
14
  1
Color_7
330
23
 90
        9
 62
     4
370
    50
331
14
  1
Color_4
330
24
 90
        9
 62
     4
370
    50
331
14
  1
Color_4
330
25
 90
        9
 62
     7
370
    25
331
14
  1
Color_7
330
27
 90
        9
 62
     7
370
    25
331
14
  1
Color_7
330
29
 90
        8
 62
     1
370
    35
331
20
  1
Color_1
330
2A
 90
        9
 62
     2
370
    25
331
471
  1
Color_2
330
2F
 90
        1
 62
     7
370
    -3
331
14
  1
Color_7
330
376
 90
        8
 62
     7
370
    25
331
14
  1
Color_7
330
472
 90
        1
 62
     9
370
    18
331
14
  1
Color_9
330
473
 90
        9
 62
     5
370
    -3
331
14
  1
Color_5
330
1861
 90
        8
 62
     2
370
    -3
331
471
  1
Color_2
330
187E
 90
        8
 62
     5
370
    -3
331
14
  1
Color_5
330
18B2
 90
        9
 62
     2
370
    -3
331
351
  1
Color_2
  0
XRECORD
  5
1B38
102
{ACAD_REACTORS
330
47C
102
}
330
47C
100
AcDbXrecord
280
     1
 91
     1023
301

290
     0
302
SK2
330
F
 90
        8
 62
     7
370
    -3
331
14
  1
Color_7
330
23
 90
        9
 62
     4
370
    50
331
14
  1
Color_4
330
24
 90
        9
 62
     4
370
    50
331
14
  1
Color_4
330
25
 90
        9
 62
     7
370
    25
331
14
  1
Color_7
330
27
 90
        9
 62
     7
370
    25
331
14
  1
Color_7
330
29
 90
        8
 62
     1
370
    35
331
20
  1
Color_1
330
2A
 90
        9
 62
     2
370
    25
331
471
  1
Color_2
330
2F
 90
        1
 62
     7
370
    -3
331
14
  1
Color_7
330
376
 90
        8
 62
     7
370
    25
331
14
  1
Color_7
330
472
 90
        1
 62
     9
370
    18
331
14
  1
Color_9
330
473
 90
        9
 62
     5
370
    -3
331
14
  1
Color_5
330
1861
 90
        8
 62
     2
370
    -3
331
471
  1
Color_2
330
187E
 90
        8
 62
     5
370
    -3
331
14
  1
Color_5
330
18B2
 90
        9
 62
     2
370
    -3
331
351
  1
Color_2
  0
XRECORD
  5
1B39
102
{ACAD_REACTORS
330
47C
102
}
330
47C
100
AcDbXrecord
280
     1
 91
     1023
301

290
     0
302
SK2
330
F
 90
        8
 62
     7
370
    -3
331
14
  1
Color_7
330
23
 90
        8
 62
     4
370
    50
331
14
  1
Color_4
330
24
 90
        9
 62
     4
370
    50
331
14
  1
Color_4
330
25
 90
        9
 62
     7
370
    25
331
14
  1
Color_7
330
27
 90
        9
 62
     7
370
    25
331
14
  1
Color_7
330
29
 90
        8
 62
     1
370
    35
331
20
  1
Color_1
330
2A
 90
        9
 62
     2
370
    25
331
471
  1
Color_2
330
2F
 90
        1
 62
     7
370
    -3
331
14
  1
Color_7
330
376
 90
        8
 62
     7
370
    25
331
14
  1
Color_7
330
472
 90
        1
 62
     9
370
    18
331
14
  1
Color_9
330
473
 90
        9
 62
     5
370
    -3
331
14
  1
Color_5
330
1861
 90
        8
 62
     2
370
    -3
331
471
  1
Color_2
330
187E
 90
        8
 62
     5
370
    -3
331
14
  1
Color_5
330
18B2
 90
        9
 62
     2
370
    -3
331
351
  1
Color_2
  0
XRECORD
  5
1B3A
102
{ACAD_REACTORS
330
47C
102
}
330
47C
100
AcDbXrecord
280
     1
 91
     1023
301

290
     0
302
SK2
330
F
 90
        8
 62
     7
370
    -3
331
14
  1
Color_7
330
23
 90
        8
 62
     4
370
    50
331
14
  1
Color_4
330
24
 90
        9
 62
     4
370
    50
331
14
  1
Color_4
330
25
 90
        8
 62
     7
370
    25
331
14
  1
Color_7
330
27
 90
        9
 62
     7
370
    25
331
14
  1
Color_7
330
29
 90
        8
 62
     1
370
    35
331
20
  1
Color_1
330
2A
 90
        9
 62
     2
370
    25
331
471
  1
Color_2
330
2F
 90
        1
 62
     7
370
    -3
331
14
  1
Color_7
330
376
 90
        8
 62
     7
370
    25
331
14
  1
Color_7
330
472
 90
        1
 62
     9
370
    18
331
14
  1
Color_9
330
473
 90
        9
 62
     5
370
    -3
331
14
  1
Color_5
330
1861
 90
        8
 62
     2
370
    -3
331
471
  1
Color_2
330
187E
 90
        8
 62
     5
370
    -3
331
14
  1
Color_5
330
18B2
 90
        9
 62
     2
370
    -3
331
351
  1
Color_2
  0
XRECORD
  5
1B3B
102
{ACAD_REACTORS
330
47C
102
}
330
47C
100
AcDbXrecord
280
     1
 91
     1023
301

290
     0
302
SK2
330
F
 90
        8
 62
     7
370
    -3
331
14
  1
Color_7
330
23
 90
        8
 62
     4
370
    50
331
14
  1
Color_4
330
24
 90
        9
 62
     4
370
    50
331
14
  1
Color_4
330
25
 90
        8
 62
     7
370
    25
331
14
  1
Color_7
330
27
 90
        9
 62
     7
370
    25
331
14
  1
Color_7
330
29
 90
        8
 62
     1
370
    35
331
20
  1
Color_1
330
2A
 90
        8
 62
     2
370
    25
331
471
  1
Color_2
330
2F
 90
        1
 62
     7
370
    -3
331
14
  1
Color_7
330
376
 90
        8
 62
     7
370
    25
331
14
  1
Color_7
330
472
 90
        1
 62
     9
370
    18
331
14
  1
Color_9
330
473
 90
        9
 62
     5
370
    -3
331
14
  1
Color_5
330
1861
 90
        8
 62
     2
370
    -3
331
471
  1
Color_2
330
187E
 90
        8
 62
     5
370
    -3
331
14
  1
Color_5
330
18B2
 90
        9
 62
     2
370
    -3
331
351
  1
Color_2
  0
XRECORD
  5
1B3C
102
{ACAD_REACTORS
330
47C
102
}
330
47C
100
AcDbXrecord
280
     1
 91
     1023
301

290
     0
302
SK2
330
F
 90
        8
 62
     7
370
    -3
331
14
  1
Color_7
330
23
 90
        8
 62
     4
370
    50
331
14
  1
Color_4
330
24
 90
        9
 62
     4
370
    50
331
14
  1
Color_4
330
25
 90
        8
 62
     7
370
    25
331
14
  1
Color_7
330
27
 90
        9
 62
     7
370
    25
331
14
  1
Color_7
330
29
 90
        8
 62
     1
370
    35
331
20
  1
Color_1
330
2A
 90
        8
 62
     2
370
    25
331
471
  1
Color_2
330
2F
 90
        0
 62
     7
370
    -3
331
14
  1
Color_7
330
376
 90
        8
 62
     7
370
    25
331
14
  1
Color_7
330
472
 90
        1
 62
     9
370
    18
331
14
  1
Color_9
330
473
 90
        9
 62
     5
370
    -3
331
14
  1
Color_5
330
1861
 90
        8
 62
     2
370
    -3
331
471
  1
Color_2
330
187E
 90
        8
 62
     5
370
    -3
331
14
  1
Color_5
330
18B2
 90
        9
 62
     2
370
    -3
331
351
  1
Color_2
  0
XRECORD
  5
1959
102
{ACAD_REACTORS
330
47C
102
}
330
47C
100
AcDbXrecord
280
     1
 91
     1023
301

290
     0
302
INFTOTAL
330
F
 90
        9
 62
     7
370
    -3
331
14
  1
Color_7
330
23
 90
        9
 62
     4
370
    50
331
14
  1
Color_4
330
24
 90
        9
 62
     4
370
    50
331
14
  1
Color_4
330
25
 90
        9
 62
     7
370
    25
331
14
  1
Color_7
330
27
 90
        9
 62
     7
370
    25
331
14
  1
Color_7
330
29
 90
        9
 62
     1
370
    35
331
20
  1
Color_1
330
2A
 90
        9
 62
     2
370
    25
331
471
  1
Color_2
330
2F
 90
        1
 62
     7
370
    -3
331
14
  1
Color_7
330
376
 90
        8
 62
     7
370
    25
331
14
  1
Color_7
330
472
 90
        1
 62
     9
370
    18
331
14
  1
Color_9
330
473
 90
        9
 62
     5
370
    -3
331
14
  1
Color_5
330
1861
 90
        9
 62
     2
370
    -3
331
1862
  1
Color_2
330
187E
 90
        8
 62
     5
370
    -3
331
14
  1
Color_5
330
18B2
 90
        9
 62
     2
370
    -3
331
351
  1
Color_2
  0
XRECORD
  5
1B3D
102
{ACAD_REACTORS
330
47C
102
}
330
47C
100
AcDbXrecord
280
     1
 91
     1023
301

290
     0
302
SK2
330
F
 90
        8
 62
     7
370
    -3
331
14
  1
Color_7
330
23
 90
        8
 62
     4
370
    50
331
14
  1
Color_4
330
24
 90
        9
 62
     4
370
    50
331
14
  1
Color_4
330
25
 90
        8
 62
     7
370
    25
331
14
  1
Color_7
330
27
 90
        9
 62
     7
370
    25
331
14
  1
Color_7
330
29
 90
        8
 62
     1
370
    35
331
20
  1
Color_1
330
2A
 90
        8
 62
     2
370
    25
331
471
  1
Color_2
330
2F
 90
        0
 62
     7
370
    -3
331
14
  1
Color_7
330
376
 90
        8
 62
     7
370
    25
331
14
  1
Color_7
330
472
 90
        1
 62
     9
370
    18
331
14
  1
Color_9
330
473
 90
        8
 62
     5
370
    -3
331
14
  1
Color_5
330
1861
 90
        8
 62
     2
370
    -3
331
471
  1
Color_2
330
187E
 90
        8
 62
     5
370
    -3
331
14
  1
Color_5
330
18B2
 90
        9
 62
     2
370
    -3
331
351
  1
Color_2
  0
XRECORD
  5
1B3E
102
{ACAD_REACTORS
330
47C
102
}
330
47C
100
AcDbXrecord
280
     1
 91
     1023
301

290
     0
302
SK2
330
F
 90
        8
 62
     7
370
    -3
331
14
  1
Color_7
330
23
 90
        8
 62
     4
370
    50
331
14
  1
Color_4
330
24
 90
        9
 62
     4
370
    50
331
14
  1
Color_4
330
25
 90
        8
 62
     7
370
    25
331
14
  1
Color_7
330
27
 90
        9
 62
     7
370
    25
331
14
  1
Color_7
330
29
 90
        8
 62
     1
370
    35
331
20
  1
Color_1
330
2A
 90
        8
 62
     2
370
    25
331
471
  1
Color_2
330
2F
 90
        0
 62
     7
370
    -3
331
14
  1
Color_7
330
376
 90
        8
 62
     7
370
    25
331
14
  1
Color_7
330
472
 90
        0
 62
     9
370
    18
331
14
  1
Color_9
330
473
 90
        8
 62
     5
370
    -3
331
14
  1
Color_5
330
1861
 90
        8
 62
     2
370
    -3
331
471
  1
Color_2
330
187E
 90
        8
 62
     5
370
    -3
331
14
  1
Color_5
330
18B2
 90
        9
 62
     2
370
    -3
331
351
  1
Color_2
  0
XRECORD
  5
1B3F
102
{ACAD_REACTORS
330
47C
102
}
330
47C
100
AcDbXrecord
280
     1
 91
     1023
301

290
     0
302
SK2
330
F
 90
        8
 62
     7
370
    -3
331
14
  1
Color_7
330
23
 90
        8
 62
     4
370
    50
331
14
  1
Color_4
330
24
 90
        9
 62
     4
370
    50
331
14
  1
Color_4
330
25
 90
        8
 62
     7
370
    25
331
14
  1
Color_7
330
27
 90
        9
 62
     7
370
    25
331
14
  1
Color_7
330
29
 90
        8
 62
     1
370
    35
331
20
  1
Color_1
330
2A
 90
        8
 62
     2
370
    25
331
471
  1
Color_2
330
2F
 90
        0
 62
     7
370
    -3
331
14
  1
Color_7
330
376
 90
        8
 62
     7
370
    25
331
14
  1
Color_7
330
472
 90
        0
 62
     9
370
    18
331
14
  1
Color_9
330
473
 90
        8
 62
     5
370
    -3
331
14
  1
Color_5
330
1861
 90
        8
 62
     2
370
    -3
331
471
  1
Color_2
330
187E
 90
        8
 62
     5
370
    -3
331
14
  1
Color_5
330
18B2
 90
        8
 62
     2
370
    -3
331
351
  1
Color_2
  0
XRECORD
  5
1B40
102
{ACAD_REACTORS
330
47C
102
}
330
47C
100
AcDbXrecord
280
     1
 91
     1023
301

290
     0
302
SK2
330
F
 90
        8
 62
     7
370
    -3
331
14
  1
Color_7
330
23
 90
        8
 62
     4
370
    50
331
14
  1
Color_4
330
24
 90
        8
 62
     4
370
    50
331
14
  1
Color_4
330
25
 90
        8
 62
     7
370
    25
331
14
  1
Color_7
330
27
 90
        9
 62
     7
370
    25
331
14
  1
Color_7
330
29
 90
        8
 62
     1
370
    35
331
20
  1
Color_1
330
2A
 90
        8
 62
     2
370
    25
331
471
  1
Color_2
330
2F
 90
        0
 62
     7
370
    -3
331
14
  1
Color_7
330
376
 90
        8
 62
     7
370
    25
331
14
  1
Color_7
330
472
 90
        0
 62
     9
370
    18
331
14
  1
Color_9
330
473
 90
        8
 62
     5
370
    -3
331
14
  1
Color_5
330
1861
 90
        8
 62
     2
370
    -3
331
471
  1
Color_2
330
187E
 90
        8
 62
     5
370
    -3
331
14
  1
Color_5
330
18B2
 90
        8
 62
     2
370
    -3
331
351
  1
Color_2
  0
XRECORD
  5
1B5C
102
{ACAD_REACTORS
330
47C
102
}
330
47C
100
AcDbXrecord
280
     1
 91
     1023
301

290
     0
302
SK2
330
F
 90
        8
 62
     7
370
    -3
331
14
  1
Color_7
330
23
 90
        8
 62
     4
370
    50
331
14
  1
Color_4
330
24
 90
        8
 62
     4
370
    50
331
14
  1
Color_4
330
25
 90
        8
 62
     7
370
    25
331
14
  1
Color_7
330
27
 90
        8
 62
     7
370
    25
331
14
  1
Color_7
330
29
 90
        8
 62
     1
370
    35
331
20
  1
Color_1
330
2A
 90
        8
 62
     2
370
    25
331
471
  1
Color_2
330
2F
 90
        0
 62
     7
370
    -3
331
14
  1
Color_7
330
376
 90
        8
 62
     7
370
    25
331
14
  1
Color_7
330
472
 90
        0
 62
     9
370
    18
331
14
  1
Color_9
330
473
 90
        8
 62
     5
370
    -3
331
14
  1
Color_5
330
1861
 90
        8
 62
     2
370
    -3
331
471
  1
Color_2
330
187E
 90
        8
 62
     5
370
    -3
331
14
  1
Color_5
330
18B2
 90
        8
 62
     2
370
    -3
331
351
  1
Color_2
  0
XRECORD
  5
1B79
102
{ACAD_REACTORS
330
47C
102
}
330
47C
100
AcDbXrecord
280
     1
 91
     1023
301

290
     0
302
SK2
330
F
 90
        8
 62
     7
370
    -3
331
14
  1
Color_7
330
23
 90
        8
 62
     4
370
    50
331
14
  1
Color_4
330
24
 90
        8
 62
     4
370
    50
331
14
  1
Color_4
330
25
 90
        8
 62
     7
370
    25
331
14
  1
Color_7
330
27
 90
        8
 62
     7
370
    25
331
14
  1
Color_7
330
29
 90
        8
 62
     1
370
    35
331
20
  1
Color_1
330
2A
 90
        8
 62
     2
370
    25
331
471
  1
Color_2
330
2F
 90
        0
 62
     7
370
    -3
331
14
  1
Color_7
330
376
 90
        9
 62
     7
370
    25
331
14
  1
Color_7
330
472
 90
        0
 62
     9
370
    18
331
14
  1
Color_9
330
473
 90
        8
 62
     5
370
    -3
331
14
  1
Color_5
330
1861
 90
        8
 62
     2
370
    -3
331
471
  1
Color_2
330
187E
 90
        8
 62
     5
370
    -3
331
14
  1
Color_5
330
18B2
 90
        8
 62
     2
370
    -3
331
351
  1
Color_2
  0
XRECORD
  5
1B80
102
{ACAD_REACTORS
330
47C
102
}
330
47C
100
AcDbXrecord
280
     1
 91
     1023
301

290
     0
302
SK1
330
F
 90
        8
 62
     7
370
    -3
331
14
  1
Color_7
330
23
 90
        8
 62
     4
370
    50
331
14
  1
Color_4
330
24
 90
        8
 62
     4
370
    50
331
14
  1
Color_4
330
25
 90
        8
 62
     7
370
    25
331
14
  1
Color_7
330
27
 90
        8
 62
     7
370
    25
331
14
  1
Color_7
330
29
 90
        8
 62
     1
370
    35
331
20
  1
Color_1
330
2A
 90
        8
 62
     2
370
    25
331
471
  1
Color_2
330
2F
 90
        0
 62
     7
370
    -3
331
14
  1
Color_7
330
376
 90
        9
 62
     7
370
    25
331
14
  1
Color_7
330
472
 90
        0
 62
     9
370
    18
331
14
  1
Color_9
330
473
 90
        8
 62
     5
370
    -3
331
14
  1
Color_5
330
1861
 90
        8
 62
     2
370
    -3
331
471
  1
Color_2
330
187E
 90
        8
 62
     5
370
    -3
331
14
  1
Color_5
330
18B2
 90
        8
 62
     2
370
    -3
331
351
  1
Color_2
  0
XRECORD
  5
1B92
102
{ACAD_REACTORS
330
47C
102
}
330
47C
100
AcDbXrecord
280
     1
 91
     1023
301

290
     0
302
SK2
330
F
 90
        8
 62
     7
370
    -3
331
14
  1
Color_7
330
23
 90
        8
 62
     4
370
    50
331
14
  1
Color_4
330
24
 90
        8
 62
     4
370
    50
331
14
  1
Color_4
330
25
 90
        8
 62
     7
370
    25
331
14
  1
Color_7
330
27
 90
        8
 62
     7
370
    25
331
14
  1
Color_7
330
29
 90
        8
 62
     1
370
    35
331
20
  1
Color_1
330
2A
 90
        8
 62
     2
370
    25
331
471
  1
Color_2
330
2F
 90
        0
 62
     7
370
    -3
331
14
  1
Color_7
330
376
 90
        9
 62
     7
370
    25
331
14
  1
Color_7
330
472
 90
        0
 62
     9
370
    18
331
14
  1
Color_9
330
473
 90
        8
 62
     5
370
    -3
331
14
  1
Color_5
330
1861
 90
        8
 62
     2
370
    -3
331
471
  1
Color_2
330
187E
 90
        8
 62
     5
370
    -3
331
14
  1
Color_5
330
18B2
 90
        8
 62
     2
370
    -3
331
351
  1
Color_2
  0
XRECORD
  5
1B93
102
{ACAD_REACTORS
330
47C
102
}
330
47C
100
AcDbXrecord
280
     1
 91
     1023
301

290
     0
302
SK2
330
F
 90
        8
 62
     7
370
    -3
331
14
  1
Color_7
330
23
 90
        8
 62
     4
370
    50
331
14
  1
Color_4
330
24
 90
        8
 62
     4
370
    50
331
14
  1
Color_4
330
25
 90
        8
 62
     7
370
    25
331
14
  1
Color_7
330
27
 90
        8
 62
     7
370
    25
331
14
  1
Color_7
330
29
 90
        8
 62
     1
370
    35
331
20
  1
Color_1
330
2A
 90
        8
 62
     2
370
    25
331
471
  1
Color_2
330
2F
 90
        0
 62
     7
370
    -3
331
14
  1
Color_7
330
376
 90
        8
 62
     7
370
    25
331
14
  1
Color_7
330
472
 90
        0
 62
     9
370
    18
331
14
  1
Color_9
330
473
 90
        8
 62
     5
370
    -3
331
14
  1
Color_5
330
1861
 90
        8
 62
     2
370
    -3
331
471
  1
Color_2
330
187E
 90
        8
 62
     5
370
    -3
331
14
  1
Color_5
330
18B2
 90
        8
 62
     2
370
    -3
331
351
  1
Color_2
  0
XRECORD
  5
1B9D
102
{ACAD_REACTORS
330
47C
102
}
330
47C
100
AcDbXrecord
280
     1
 91
     1023
301

290
     0
302
NOCUT
330
F
 90
        8
 62
     7
370
    -3
331
14
  1
Color_7
330
23
 90
        8
 62
     4
370
    50
331
14
  1
Color_4
330
24
 90
        8
 62
     4
370
    50
331
14
  1
Color_4
330
25
 90
        8
 62
     7
370
    25
331
14
  1
Color_7
330
27
 90
        8
 62
     7
370
    25
331
14
  1
Color_7
330
29
 90
        8
 62
     1
370
    35
331
20
  1
Color_1
330
2A
 90
        8
 62
     2
370
    25
331
471
  1
Color_2
330
2F
 90
        0
 62
     7
370
    -3
331
14
  1
Color_7
330
376
 90
        8
 62
     7
370
    25
331
14
  1
Color_7
330
472
 90
        0
 62
     9
370
    18
331
14
  1
Color_9
330
473
 90
        8
 62
     5
370
    -3
331
14
  1
Color_5
330
1861
 90
        8
 62
     2
370
    -3
331
471
  1
Color_2
330
187E
 90
        8
 62
     5
370
    -3
331
14
  1
Color_5
330
18B2
 90
        8
 62
     2
370
    -3
331
351
  1
Color_2
  0
XRECORD
  5
195A
102
{ACAD_REACTORS
330
47C
102
}
330
47C
100
AcDbXrecord
280
     1
 91
     1023
301

290
     0
302
INFTOTAL
330
F
 90
        9
 62
     7
370
    -3
331
14
  1
Color_7
330
23
 90
        9
 62
     4
370
    50
331
14
  1
Color_4
330
24
 90
        9
 62
     4
370
    50
331
14
  1
Color_4
330
25
 90
        9
 62
     7
370
    25
331
14
  1
Color_7
330
27
 90
        9
 62
     7
370
    25
331
14
  1
Color_7
330
29
 90
        9
 62
     1
370
    35
331
20
  1
Color_1
330
2A
 90
        9
 62
     2
370
    25
331
471
  1
Color_2
330
2F
 90
        1
 62
     7
370
    -3
331
14
  1
Color_7
330
376
 90
        8
 62
     7
370
    25
331
14
  1
Color_7
330
472
 90
        1
 62
     9
370
    18
331
14
  1
Color_9
330
473
 90
        9
 62
     5
370
    -3
331
14
  1
Color_5
330
1861
 90
        9
 62
     2
370
    -3
331
1862
  1
Color_2
330
187E
 90
        9
 62
     5
370
    -3
331
14
  1
Color_5
330
18B2
 90
        9
 62
     2
370
    -3
331
351
  1
Color_2
  0
XRECORD
  5
1B9E
102
{ACAD_REACTORS
330
47C
102
}
330
47C
100
AcDbXrecord
280
     1
 91
     1023
301

290
     0
302
NOCUT
330
F
 90
        8
 62
     7
370
    -3
331
14
  1
Color_7
330
23
 90
        9
 62
     4
370
    50
331
14
  1
Color_4
330
24
 90
        8
 62
     4
370
    50
331
14
  1
Color_4
330
25
 90
        8
 62
     7
370
    25
331
14
  1
Color_7
330
27
 90
        8
 62
     7
370
    25
331
14
  1
Color_7
330
29
 90
        8
 62
     1
370
    35
331
20
  1
Color_1
330
2A
 90
        8
 62
     2
370
    25
331
471
  1
Color_2
330
2F
 90
        0
 62
     7
370
    -3
331
14
  1
Color_7
330
376
 90
        8
 62
     7
370
    25
331
14
  1
Color_7
330
472
 90
        0
 62
     9
370
    18
331
14
  1
Color_9
330
473
 90
        8
 62
     5
370
    -3
331
14
  1
Color_5
330
1861
 90
        8
 62
     2
370
    -3
331
471
  1
Color_2
330
187E
 90
        8
 62
     5
370
    -3
331
14
  1
Color_5
330
18B2
 90
        8
 62
     2
370
    -3
331
351
  1
Color_2
  0
XRECORD
  5
1B9F
102
{ACAD_REACTORS
330
47C
102
}
330
47C
100
AcDbXrecord
280
     1
 91
     1023
301

290
     0
302
NOCUT
330
F
 90
        8
 62
     7
370
    -3
331
14
  1
Color_7
330
23
 90
        8
 62
     4
370
    50
331
14
  1
Color_4
330
24
 90
        8
 62
     4
370
    50
331
14
  1
Color_4
330
25
 90
        8
 62
     7
370
    25
331
14
  1
Color_7
330
27
 90
        8
 62
     7
370
    25
331
14
  1
Color_7
330
29
 90
        8
 62
     1
370
    35
331
20
  1
Color_1
330
2A
 90
        8
 62
     2
370
    25
331
471
  1
Color_2
330
2F
 90
        0
 62
     7
370
    -3
331
14
  1
Color_7
330
376
 90
        8
 62
     7
370
    25
331
14
  1
Color_7
330
472
 90
        0
 62
     9
370
    18
331
14
  1
Color_9
330
473
 90
        8
 62
     5
370
    -3
331
14
  1
Color_5
330
1861
 90
        8
 62
     2
370
    -3
331
471
  1
Color_2
330
187E
 90
        8
 62
     5
370
    -3
331
14
  1
Color_5
330
18B2
 90
        8
 62
     2
370
    -3
331
351
  1
Color_2
  0
XRECORD
  5
195B
102
{ACAD_REACTORS
330
47C
102
}
330
47C
100
AcDbXrecord
280
     1
 91
     1023
301

290
     0
302
INFTOTAL
330
F
 90
        8
 62
     7
370
    -3
331
14
  1
Color_7
330
23
 90
        9
 62
     4
370
    50
331
14
  1
Color_4
330
24
 90
        9
 62
     4
370
    50
331
14
  1
Color_4
330
25
 90
        9
 62
     7
370
    25
331
14
  1
Color_7
330
27
 90
        9
 62
     7
370
    25
331
14
  1
Color_7
330
29
 90
        9
 62
     1
370
    35
331
20
  1
Color_1
330
2A
 90
        9
 62
     2
370
    25
331
471
  1
Color_2
330
2F
 90
        1
 62
     7
370
    -3
331
14
  1
Color_7
330
376
 90
        8
 62
     7
370
    25
331
14
  1
Color_7
330
472
 90
        1
 62
     9
370
    18
331
14
  1
Color_9
330
473
 90
        9
 62
     5
370
    -3
331
14
  1
Color_5
330
1861
 90
        9
 62
     2
370
    -3
331
1862
  1
Color_2
330
187E
 90
        9
 62
     5
370
    -3
331
14
  1
Color_5
330
18B2
 90
        9
 62
     2
370
    -3
331
351
  1
Color_2
  0
XRECORD
  5
195C
102
{ACAD_REACTORS
330
47C
102
}
330
47C
100
AcDbXrecord
280
     1
 91
     1023
301

290
     0
302
INFTOTAL
330
F
 90
        8
 62
     7
370
    -3
331
14
  1
Color_7
330
23
 90
        8
 62
     4
370
    50
331
14
  1
Color_4
330
24
 90
        9
 62
     4
370
    50
331
14
  1
Color_4
330
25
 90
        9
 62
     7
370
    25
331
14
  1
Color_7
330
27
 90
        9
 62
     7
370
    25
331
14
  1
Color_7
330
29
 90
        9
 62
     1
370
    35
331
20
  1
Color_1
330
2A
 90
        9
 62
     2
370
    25
331
471
  1
Color_2
330
2F
 90
        1
 62
     7
370
    -3
331
14
  1
Color_7
330
376
 90
        8
 62
     7
370
    25
331
14
  1
Color_7
330
472
 90
        1
 62
     9
370
    18
331
14
  1
Color_9
330
473
 90
        9
 62
     5
370
    -3
331
14
  1
Color_5
330
1861
 90
        9
 62
     2
370
    -3
331
1862
  1
Color_2
330
187E
 90
        9
 62
     5
370
    -3
331
14
  1
Color_5
330
18B2
 90
        9
 62
     2
370
    -3
331
351
  1
Color_2
  0
XRECORD
  5
195D
102
{ACAD_REACTORS
330
47C
102
}
330
47C
100
AcDbXrecord
280
     1
 91
     1023
301

290
     0
302
1
330
F
 90
        8
 62
     7
370
    -3
331
14
  1
Color_7
330
23
 90
        8
 62
     4
370
    50
331
14
  1
Color_4
330
24
 90
        9
 62
     4
370
    50
331
14
  1
Color_4
330
25
 90
        9
 62
     7
370
    25
331
14
  1
Color_7
330
27
 90
        9
 62
     7
370
    25
331
14
  1
Color_7
330
29
 90
        9
 62
     1
370
    35
331
20
  1
Color_1
330
2A
 90
        9
 62
     2
370
    25
331
471
  1
Color_2
330
2F
 90
        1
 62
     7
370
    -3
331
14
  1
Color_7
330
376
 90
        8
 62
     7
370
    25
331
14
  1
Color_7
330
472
 90
        1
 62
     9
370
    18
331
14
  1
Color_9
330
473
 90
        9
 62
     5
370
    -3
331
14
  1
Color_5
330
1861
 90
        9
 62
     2
370
    -3
331
1862
  1
Color_2
330
187E
 90
        9
 62
     5
370
    -3
331
14
  1
Color_5
330
18B2
 90
        9
 62
     2
370
    -3
331
351
  1
Color_2
  0
XRECORD
  5
194C
102
{ACAD_REACTORS
330
47C
102
}
330
47C
100
AcDbXrecord
280
     1
 91
     1023
301

290
     0
302
INFTOTAL
330
F
 90
        9
 62
     7
370
    -3
331
14
  1
Color_7
330
23
 90
        8
 62
     4
370
    50
331
14
  1
Color_4
330
24
 90
        8
 62
     4
370
    50
331
14
  1
Color_4
330
25
 90
        8
 62
     7
370
    25
331
14
  1
Color_7
330
27
 90
        8
 62
     7
370
    25
331
14
  1
Color_7
330
29
 90
        8
 62
     1
370
    35
331
20
  1
Color_1
330
2A
 90
        8
 62
     2
370
    25
331
471
  1
Color_2
330
2F
 90
        0
 62
     7
370
    -3
331
14
  1
Color_7
330
376
 90
        8
 62
     7
370
    25
331
14
  1
Color_7
330
472
 90
        0
 62
     9
370
    18
331
14
  1
Color_9
330
473
 90
        8
 62
     5
370
    -3
331
14
  1
Color_5
330
1861
 90
        8
 62
     2
370
    -3
331
1862
  1
Color_2
330
187E
 90
        8
 62
     5
370
    -3
331
14
  1
Color_5
330
18B2
 90
        8
 62
     2
370
    -3
331
351
  1
Color_2
  0
XRECORD
  5
196C
102
{ACAD_REACTORS
330
47C
102
}
330
47C
100
AcDbXrecord
280
     1
 91
     1023
301

290
     0
302
NOCUT
330
F
 90
        8
 62
     7
370
    -3
331
14
  1
Color_7
330
23
 90
        8
 62
     4
370
    50
331
14
  1
Color_4
330
24
 90
        9
 62
     4
370
    50
331
14
  1
Color_4
330
25
 90
        9
 62
     7
370
    25
331
14
  1
Color_7
330
27
 90
        9
 62
     7
370
    25
331
14
  1
Color_7
330
29
 90
        9
 62
     1
370
    35
331
20
  1
Color_1
330
2A
 90
        9
 62
     2
370
    25
331
471
  1
Color_2
330
2F
 90
        1
 62
     7
370
    -3
331
14
  1
Color_7
330
376
 90
        8
 62
     7
370
    25
331
14
  1
Color_7
330
472
 90
        1
 62
     9
370
    18
331
14
  1
Color_9
330
473
 90
        9
 62
     5
370
    -3
331
14
  1
Color_5
330
1861
 90
        9
 62
     2
370
    -3
331
1862
  1
Color_2
330
187E
 90
        9
 62
     5
370
    -3
331
14
  1
Color_5
330
18B2
 90
        9
 62
     2
370
    -3
331
351
  1
Color_2
  0
XRECORD
  5
196D
102
{ACAD_REACTORS
330
47C
102
}
330
47C
100
AcDbXrecord
280
     1
 91
     1023
301

290
     0
302
NOCUT
330
F
 90
        8
 62
     7
370
    -3
331
14
  1
Color_7
330
23
 90
        9
 62
     4
370
    50
331
14
  1
Color_4
330
24
 90
        9
 62
     4
370
    50
331
14
  1
Color_4
330
25
 90
        9
 62
     7
370
    25
331
14
  1
Color_7
330
27
 90
        9
 62
     7
370
    25
331
14
  1
Color_7
330
29
 90
        9
 62
     1
370
    35
331
20
  1
Color_1
330
2A
 90
        9
 62
     2
370
    25
331
471
  1
Color_2
330
2F
 90
        1
 62
     7
370
    -3
331
14
  1
Color_7
330
376
 90
        8
 62
     7
370
    25
331
14
  1
Color_7
330
472
 90
        1
 62
     9
370
    18
331
14
  1
Color_9
330
473
 90
        9
 62
     5
370
    -3
331
14
  1
Color_5
330
1861
 90
        9
 62
     2
370
    -3
331
1862
  1
Color_2
330
187E
 90
        9
 62
     5
370
    -3
331
14
  1
Color_5
330
18B2
 90
        9
 62
     2
370
    -3
331
351
  1
Color_2
  0
XRECORD
  5
196E
102
{ACAD_REACTORS
330
47C
102
}
330
47C
100
AcDbXrecord
280
     1
 91
     1023
301

290
     0
302
NOCUT
330
F
 90
        8
 62
     7
370
    -3
331
14
  1
Color_7
330
23
 90
        8
 62
     4
370
    50
331
14
  1
Color_4
330
24
 90
        9
 62
     4
370
    50
331
14
  1
Color_4
330
25
 90
        9
 62
     7
370
    25
331
14
  1
Color_7
330
27
 90
        9
 62
     7
370
    25
331
14
  1
Color_7
330
29
 90
        9
 62
     1
370
    35
331
20
  1
Color_1
330
2A
 90
        9
 62
     2
370
    25
331
471
  1
Color_2
330
2F
 90
        1
 62
     7
370
    -3
331
14
  1
Color_7
330
376
 90
        8
 62
     7
370
    25
331
14
  1
Color_7
330
472
 90
        1
 62
     9
370
    18
331
14
  1
Color_9
330
473
 90
        9
 62
     5
370
    -3
331
14
  1
Color_5
330
1861
 90
        9
 62
     2
370
    -3
331
1862
  1
Color_2
330
187E
 90
        9
 62
     5
370
    -3
331
14
  1
Color_5
330
18B2
 90
        9
 62
     2
370
    -3
331
351
  1
Color_2
  0
XRECORD
  5
196F
102
{ACAD_REACTORS
330
47C
102
}
330
47C
100
AcDbXrecord
280
     1
 91
     1023
301

290
     0
302
NOCUT
330
F
 90
        8
 62
     7
370
    -3
331
14
  1
Color_7
330
23
 90
        8
 62
     4
370
    50
331
14
  1
Color_4
330
24
 90
        9
 62
     4
370
    50
331
14
  1
Color_4
330
25
 90
        8
 62
     7
370
    25
331
14
  1
Color_7
330
27
 90
        9
 62
     7
370
    25
331
14
  1
Color_7
330
29
 90
        9
 62
     1
370
    35
331
20
  1
Color_1
330
2A
 90
        9
 62
     2
370
    25
331
471
  1
Color_2
330
2F
 90
        1
 62
     7
370
    -3
331
14
  1
Color_7
330
376
 90
        8
 62
     7
370
    25
331
14
  1
Color_7
330
472
 90
        1
 62
     9
370
    18
331
14
  1
Color_9
330
473
 90
        9
 62
     5
370
    -3
331
14
  1
Color_5
330
1861
 90
        9
 62
     2
370
    -3
331
1862
  1
Color_2
330
187E
 90
        9
 62
     5
370
    -3
331
14
  1
Color_5
330
18B2
 90
        9
 62
     2
370
    -3
331
351
  1
Color_2
  0
XRECORD
  5
1970
102
{ACAD_REACTORS
330
47C
102
}
330
47C
100
AcDbXrecord
280
     1
 91
     1023
301

290
     0
302
NOCUT
330
F
 90
        8
 62
     7
370
    -3
331
14
  1
Color_7
330
23
 90
        8
 62
     4
370
    50
331
14
  1
Color_4
330
24
 90
        9
 62
     4
370
    50
331
14
  1
Color_4
330
25
 90
        9
 62
     7
370
    25
331
14
  1
Color_7
330
27
 90
        9
 62
     7
370
    25
331
14
  1
Color_7
330
29
 90
        9
 62
     1
370
    35
331
20
  1
Color_1
330
2A
 90
        9
 62
     2
370
    25
331
471
  1
Color_2
330
2F
 90
        1
 62
     7
370
    -3
331
14
  1
Color_7
330
376
 90
        8
 62
     7
370
    25
331
14
  1
Color_7
330
472
 90
        1
 62
     9
370
    18
331
14
  1
Color_9
330
473
 90
        9
 62
     5
370
    -3
331
14
  1
Color_5
330
1861
 90
        9
 62
     2
370
    -3
331
1862
  1
Color_2
330
187E
 90
        9
 62
     5
370
    -3
331
14
  1
Color_5
330
18B2
 90
        9
 62
     2
370
    -3
331
351
  1
Color_2
  0
XRECORD
  5
1971
102
{ACAD_REACTORS
330
47C
102
}
330
47C
100
AcDbXrecord
280
     1
 91
     1023
301

290
     0
302
NOCUT
330
F
 90
        8
 62
     7
370
    -3
331
14
  1
Color_7
330
23
 90
        9
 62
     4
370
    50
331
14
  1
Color_4
330
24
 90
        9
 62
     4
370
    50
331
14
  1
Color_4
330
25
 90
        9
 62
     7
370
    25
331
14
  1
Color_7
330
27
 90
        9
 62
     7
370
    25
331
14
  1
Color_7
330
29
 90
        9
 62
     1
370
    35
331
20
  1
Color_1
330
2A
 90
        9
 62
     2
370
    25
331
471
  1
Color_2
330
2F
 90
        1
 62
     7
370
    -3
331
14
  1
Color_7
330
376
 90
        8
 62
     7
370
    25
331
14
  1
Color_7
330
472
 90
        1
 62
     9
370
    18
331
14
  1
Color_9
330
473
 90
        9
 62
     5
370
    -3
331
14
  1
Color_5
330
1861
 90
        9
 62
     2
370
    -3
331
1862
  1
Color_2
330
187E
 90
        9
 62
     5
370
    -3
331
14
  1
Color_5
330
18B2
 90
        9
 62
     2
370
    -3
331
351
  1
Color_2
  0
XRECORD
  5
1973
102
{ACAD_REACTORS
330
47C
102
}
330
47C
100
AcDbXrecord
280
     1
 91
     1023
301

290
     0
302
NOCUT
330
F
 90
        8
 62
     7
370
    -3
331
14
  1
Color_7
330
23
 90
        8
 62
     4
370
    50
331
14
  1
Color_4
330
24
 90
        9
 62
     4
370
    50
331
14
  1
Color_4
330
25
 90
        9
 62
     7
370
    25
331
14
  1
Color_7
330
27
 90
        9
 62
     7
370
    25
331
14
  1
Color_7
330
29
 90
        9
 62
     1
370
    35
331
20
  1
Color_1
330
2A
 90
        9
 62
     2
370
    25
331
471
  1
Color_2
330
2F
 90
        1
 62
     7
370
    -3
331
14
  1
Color_7
330
376
 90
        8
 62
     7
370
    25
331
14
  1
Color_7
330
472
 90
        1
 62
     9
370
    18
331
14
  1
Color_9
330
473
 90
        9
 62
     5
370
    -3
331
14
  1
Color_5
330
1861
 90
        9
 62
     2
370
    -3
331
1862
  1
Color_2
330
187E
 90
        9
 62
     5
370
    -3
331
14
  1
Color_5
330
18B2
 90
        9
 62
     2
370
    -3
331
351
  1
Color_2
  0
XRECORD
  5
1974
102
{ACAD_REACTORS
330
47C
102
}
330
47C
100
AcDbXrecord
280
     1
 91
     1023
301

290
     0
302
NOCUT
330
F
 90
        8
 62
     7
370
    -3
331
14
  1
Color_7
330
23
 90
        9
 62
     4
370
    50
331
14
  1
Color_4
330
24
 90
        9
 62
     4
370
    50
331
14
  1
Color_4
330
25
 90
        9
 62
     7
370
    25
331
14
  1
Color_7
330
27
 90
        9
 62
     7
370
    25
331
14
  1
Color_7
330
29
 90
        9
 62
     1
370
    35
331
20
  1
Color_1
330
2A
 90
        9
 62
     2
370
    25
331
471
  1
Color_2
330
2F
 90
        1
 62
     7
370
    -3
331
14
  1
Color_7
330
376
 90
        8
 62
     7
370
    25
331
14
  1
Color_7
330
472
 90
        1
 62
     9
370
    18
331
14
  1
Color_9
330
473
 90
        9
 62
     5
370
    -3
331
14
  1
Color_5
330
1861
 90
        9
 62
     2
370
    -3
331
1862
  1
Color_2
330
187E
 90
        9
 62
     5
370
    -3
331
14
  1
Color_5
330
18B2
 90
        9
 62
     2
370
    -3
331
351
  1
Color_2
  0
XRECORD
  5
1975
102
{ACAD_REACTORS
330
47C
102
}
330
47C
100
AcDbXrecord
280
     1
 91
     1023
301

290
     0
302
NOCUT
330
F
 90
        8
 62
     7
370
    -3
331
14
  1
Color_7
330
23
 90
        8
 62
     4
370
    50
331
14
  1
Color_4
330
24
 90
        9
 62
     4
370
    50
331
14
  1
Color_4
330
25
 90
        9
 62
     7
370
    25
331
14
  1
Color_7
330
27
 90
        9
 62
     7
370
    25
331
14
  1
Color_7
330
29
 90
        9
 62
     1
370
    35
331
20
  1
Color_1
330
2A
 90
        9
 62
     2
370
    25
331
471
  1
Color_2
330
2F
 90
        1
 62
     7
370
    -3
331
14
  1
Color_7
330
376
 90
        8
 62
     7
370
    25
331
14
  1
Color_7
330
472
 90
        1
 62
     9
370
    18
331
14
  1
Color_9
330
473
 90
        9
 62
     5
370
    -3
331
14
  1
Color_5
330
1861
 90
        9
 62
     2
370
    -3
331
1862
  1
Color_2
330
187E
 90
        9
 62
     5
370
    -3
331
14
  1
Color_5
330
18B2
 90
        9
 62
     2
370
    -3
331
351
  1
Color_2
  0
XRECORD
  5
1976
102
{ACAD_REACTORS
330
47C
102
}
330
47C
100
AcDbXrecord
280
     1
 91
     1023
301

290
     0
302
NOCUT
330
F
 90
        8
 62
     7
370
    -3
331
14
  1
Color_7
330
23
 90
        9
 62
     4
370
    50
331
14
  1
Color_4
330
24
 90
        9
 62
     4
370
    50
331
14
  1
Color_4
330
25
 90
        9
 62
     7
370
    25
331
14
  1
Color_7
330
27
 90
        9
 62
     7
370
    25
331
14
  1
Color_7
330
29
 90
        9
 62
     1
370
    35
331
20
  1
Color_1
330
2A
 90
        9
 62
     2
370
    25
331
471
  1
Color_2
330
2F
 90
        1
 62
     7
370
    -3
331
14
  1
Color_7
330
376
 90
        8
 62
     7
370
    25
331
14
  1
Color_7
330
472
 90
        1
 62
     9
370
    18
331
14
  1
Color_9
330
473
 90
        9
 62
     5
370
    -3
331
14
  1
Color_5
330
1861
 90
        9
 62
     2
370
    -3
331
1862
  1
Color_2
330
187E
 90
        9
 62
     5
370
    -3
331
14
  1
Color_5
330
18B2
 90
        9
 62
     2
370
    -3
331
351
  1
Color_2
  0
XRECORD
  5
194D
102
{ACAD_REACTORS
330
47C
102
}
330
47C
100
AcDbXrecord
280
     1
 91
     1023
301

290
     0
302
INFTOTAL
330
F
 90
        9
 62
     7
370
    -3
331
14
  1
Color_7
330
23
 90
        9
 62
     4
370
    50
331
14
  1
Color_4
330
24
 90
        8
 62
     4
370
    50
331
14
  1
Color_4
330
25
 90
        8
 62
     7
370
    25
331
14
  1
Color_7
330
27
 90
        8
 62
     7
370
    25
331
14
  1
Color_7
330
29
 90
        8
 62
     1
370
    35
331
20
  1
Color_1
330
2A
 90
        8
 62
     2
370
    25
331
471
  1
Color_2
330
2F
 90
        0
 62
     7
370
    -3
331
14
  1
Color_7
330
376
 90
        8
 62
     7
370
    25
331
14
  1
Color_7
330
472
 90
        0
 62
     9
370
    18
331
14
  1
Color_9
330
473
 90
        8
 62
     5
370
    -3
331
14
  1
Color_5
330
1861
 90
        8
 62
     2
370
    -3
331
1862
  1
Color_2
330
187E
 90
        8
 62
     5
370
    -3
331
14
  1
Color_5
330
18B2
 90
        8
 62
     2
370
    -3
331
351
  1
Color_2
  0
XRECORD
  5
1977
102
{ACAD_REACTORS
330
47C
102
}
330
47C
100
AcDbXrecord
280
     1
 91
     1023
301

290
     0
302
NOCUT
330
F
 90
        8
 62
     7
370
    -3
331
14
  1
Color_7
330
23
 90
        9
 62
     4
370
    50
331
14
  1
Color_4
330
24
 90
        9
 62
     4
370
    50
331
14
  1
Color_4
330
25
 90
        9
 62
     7
370
    25
331
14
  1
Color_7
330
27
 90
        9
 62
     7
370
    25
331
14
  1
Color_7
330
29
 90
        9
 62
     1
370
    35
331
20
  1
Color_1
330
2A
 90
        9
 62
     2
370
    25
331
471
  1
Color_2
330
2F
 90
        1
 62
     7
370
    -3
331
14
  1
Color_7
330
376
 90
        9
 62
     7
370
    25
331
14
  1
Color_7
330
472
 90
        1
 62
     9
370
    18
331
14
  1
Color_9
330
473
 90
        9
 62
     5
370
    -3
331
14
  1
Color_5
330
1861
 90
        9
 62
     2
370
    -3
331
1862
  1
Color_2
330
187E
 90
        9
 62
     5
370
    -3
331
14
  1
Color_5
330
18B2
 90
        9
 62
     2
370
    -3
331
351
  1
Color_2
  0
XRECORD
  5
1978
102
{ACAD_REACTORS
330
47C
102
}
330
47C
100
AcDbXrecord
280
     1
 91
     1023
301

290
     0
302
NOCUT
330
F
 90
        8
 62
     7
370
    -3
331
14
  1
Color_7
330
23
 90
        9
 62
     4
370
    50
331
14
  1
Color_4
330
24
 90
        9
 62
     4
370
    50
331
14
  1
Color_4
330
25
 90
        9
 62
     7
370
    25
331
14
  1
Color_7
330
27
 90
        9
 62
     7
370
    25
331
14
  1
Color_7
330
29
 90
        9
 62
     1
370
    35
331
20
  1
Color_1
330
2A
 90
        9
 62
     2
370
    25
331
471
  1
Color_2
330
2F
 90
        1
 62
     7
370
    -3
331
14
  1
Color_7
330
376
 90
        8
 62
     7
370
    25
331
14
  1
Color_7
330
472
 90
        1
 62
     9
370
    18
331
14
  1
Color_9
330
473
 90
        9
 62
     5
370
    -3
331
14
  1
Color_5
330
1861
 90
        9
 62
     2
370
    -3
331
1862
  1
Color_2
330
187E
 90
        9
 62
     5
370
    -3
331
14
  1
Color_5
330
18B2
 90
        9
 62
     2
370
    -3
331
351
  1
Color_2
  0
XRECORD
  5
1979
102
{ACAD_REACTORS
330
47C
102
}
330
47C
100
AcDbXrecord
280
     1
 91
     1023
301

290
     0
302
NOCUT
330
F
 90
        8
 62
     7
370
    -3
331
14
  1
Color_7
330
23
 90
        8
 62
     4
370
    50
331
14
  1
Color_4
330
24
 90
        9
 62
     4
370
    50
331
14
  1
Color_4
330
25
 90
        9
 62
     7
370
    25
331
14
  1
Color_7
330
27
 90
        9
 62
     7
370
    25
331
14
  1
Color_7
330
29
 90
        9
 62
     1
370
    35
331
20
  1
Color_1
330
2A
 90
        9
 62
     2
370
    25
331
471
  1
Color_2
330
2F
 90
        1
 62
     7
370
    -3
331
14
  1
Color_7
330
376
 90
        8
 62
     7
370
    25
331
14
  1
Color_7
330
472
 90
        1
 62
     9
370
    18
331
14
  1
Color_9
330
473
 90
        9
 62
     5
370
    -3
331
14
  1
Color_5
330
1861
 90
        9
 62
     2
370
    -3
331
1862
  1
Color_2
330
187E
 90
        9
 62
     5
370
    -3
331
14
  1
Color_5
330
18B2
 90
        9
 62
     2
370
    -3
331
351
  1
Color_2
  0
XRECORD
  5
197A
102
{ACAD_REACTORS
330
47C
102
}
330
47C
100
AcDbXrecord
280
     1
 91
     1023
301

290
     0
302
NOCUT
330
F
 90
        8
 62
     7
370
    -3
331
14
  1
Color_7
330
23
 90
       10
 62
     4
370
    50
331
14
  1
Color_4
330
24
 90
        9
 62
     4
370
    50
331
14
  1
Color_4
330
25
 90
        9
 62
     7
370
    25
331
14
  1
Color_7
330
27
 90
        9
 62
     7
370
    25
331
14
  1
Color_7
330
29
 90
        9
 62
     1
370
    35
331
20
  1
Color_1
330
2A
 90
        9
 62
     2
370
    25
331
471
  1
Color_2
330
2F
 90
        1
 62
     7
370
    -3
331
14
  1
Color_7
330
376
 90
        8
 62
     7
370
    25
331
14
  1
Color_7
330
472
 90
        1
 62
     9
370
    18
331
14
  1
Color_9
330
473
 90
        9
 62
     5
370
    -3
331
14
  1
Color_5
330
1861
 90
        9
 62
     2
370
    -3
331
1862
  1
Color_2
330
187E
 90
        9
 62
     5
370
    -3
331
14
  1
Color_5
330
18B2
 90
        9
 62
     2
370
    -3
331
351
  1
Color_2
  0
XRECORD
  5
197B
102
{ACAD_REACTORS
330
47C
102
}
330
47C
100
AcDbXrecord
280
     1
 91
     1023
301

290
     0
302
NOCUT
330
F
 90
        8
 62
     7
370
    -3
331
14
  1
Color_7
330
23
 90
        8
 62
     4
370
    50
331
14
  1
Color_4
330
24
 90
        9
 62
     4
370
    50
331
14
  1
Color_4
330
25
 90
        9
 62
     7
370
    25
331
14
  1
Color_7
330
27
 90
        9
 62
     7
370
    25
331
14
  1
Color_7
330
29
 90
        9
 62
     1
370
    35
331
20
  1
Color_1
330
2A
 90
        9
 62
     2
370
    25
331
471
  1
Color_2
330
2F
 90
        1
 62
     7
370
    -3
331
14
  1
Color_7
330
376
 90
        8
 62
     7
370
    25
331
14
  1
Color_7
330
472
 90
        1
 62
     9
370
    18
331
14
  1
Color_9
330
473
 90
        9
 62
     5
370
    -3
331
14
  1
Color_5
330
1861
 90
        9
 62
     2
370
    -3
331
1862
  1
Color_2
330
187E
 90
        9
 62
     5
370
    -3
331
14
  1
Color_5
330
18B2
 90
        9
 62
     2
370
    -3
331
351
  1
Color_2
  0
XRECORD
  5
197C
102
{ACAD_REACTORS
330
47C
102
}
330
47C
100
AcDbXrecord
280
     1
 91
     1023
301

290
     0
302
NOCUT
330
F
 90
        8
 62
     7
370
    -3
331
14
  1
Color_7
330
23
 90
        9
 62
     4
370
    50
331
14
  1
Color_4
330
24
 90
        9
 62
     4
370
    50
331
14
  1
Color_4
330
25
 90
        9
 62
     7
370
    25
331
14
  1
Color_7
330
27
 90
        9
 62
     7
370
    25
331
14
  1
Color_7
330
29
 90
        9
 62
     1
370
    35
331
20
  1
Color_1
330
2A
 90
        9
 62
     2
370
    25
331
471
  1
Color_2
330
2F
 90
        1
 62
     7
370
    -3
331
14
  1
Color_7
330
376
 90
        8
 62
     7
370
    25
331
14
  1
Color_7
330
472
 90
        1
 62
     9
370
    18
331
14
  1
Color_9
330
473
 90
        9
 62
     5
370
    -3
331
14
  1
Color_5
330
1861
 90
        9
 62
     2
370
    -3
331
1862
  1
Color_2
330
187E
 90
        9
 62
     5
370
    -3
331
14
  1
Color_5
330
18B2
 90
        9
 62
     2
370
    -3
331
351
  1
Color_2
  0
XRECORD
  5
197D
102
{ACAD_REACTORS
330
47C
102
}
330
47C
100
AcDbXrecord
280
     1
 91
     1023
301

290
     0
302
NOCUT
330
F
 90
        8
 62
     7
370
    -3
331
14
  1
Color_7
330
23
 90
        8
 62
     4
370
    50
331
14
  1
Color_4
330
24
 90
        9
 62
     4
370
    50
331
14
  1
Color_4
330
25
 90
        9
 62
     7
370
    25
331
14
  1
Color_7
330
27
 90
        9
 62
     7
370
    25
331
14
  1
Color_7
330
29
 90
        9
 62
     1
370
    35
331
20
  1
Color_1
330
2A
 90
        9
 62
     2
370
    25
331
471
  1
Color_2
330
2F
 90
        1
 62
     7
370
    -3
331
14
  1
Color_7
330
376
 90
        8
 62
     7
370
    25
331
14
  1
Color_7
330
472
 90
        1
 62
     9
370
    18
331
14
  1
Color_9
330
473
 90
        9
 62
     5
370
    -3
331
14
  1
Color_5
330
1861
 90
        9
 62
     2
370
    -3
331
1862
  1
Color_2
330
187E
 90
        9
 62
     5
370
    -3
331
14
  1
Color_5
330
18B2
 90
        9
 62
     2
370
    -3
331
351
  1
Color_2
  0
XRECORD
  5
197E
102
{ACAD_REACTORS
330
47C
102
}
330
47C
100
AcDbXrecord
280
     1
 91
     1023
301

290
     0
302
NOCUT
330
F
 90
        8
 62
     7
370
    -3
331
14
  1
Color_7
330
23
 90
        9
 62
     4
370
    50
331
14
  1
Color_4
330
24
 90
        9
 62
     4
370
    50
331
14
  1
Color_4
330
25
 90
        9
 62
     7
370
    25
331
14
  1
Color_7
330
27
 90
        9
 62
     7
370
    25
331
14
  1
Color_7
330
29
 90
        9
 62
     1
370
    35
331
20
  1
Color_1
330
2A
 90
        9
 62
     2
370
    25
331
471
  1
Color_2
330
2F
 90
        1
 62
     7
370
    -3
331
14
  1
Color_7
330
376
 90
        8
 62
     7
370
    25
331
14
  1
Color_7
330
472
 90
        1
 62
     9
370
    18
331
14
  1
Color_9
330
473
 90
        9
 62
     5
370
    -3
331
14
  1
Color_5
330
1861
 90
        9
 62
     2
370
    -3
331
1862
  1
Color_2
330
187E
 90
        9
 62
     5
370
    -3
331
14
  1
Color_5
330
18B2
 90
        9
 62
     2
370
    -3
331
351
  1
Color_2
  0
XRECORD
  5
197F
102
{ACAD_REACTORS
330
47C
102
}
330
47C
100
AcDbXrecord
280
     1
 91
     1023
301

290
     0
302
NOCUT
330
F
 90
        8
 62
     7
370
    -3
331
14
  1
Color_7
330
23
 90
        8
 62
     4
370
    50
331
14
  1
Color_4
330
24
 90
        9
 62
     4
370
    50
331
14
  1
Color_4
330
25
 90
        9
 62
     7
370
    25
331
14
  1
Color_7
330
27
 90
        9
 62
     7
370
    25
331
14
  1
Color_7
330
29
 90
        9
 62
     1
370
    35
331
20
  1
Color_1
330
2A
 90
        9
 62
     2
370
    25
331
471
  1
Color_2
330
2F
 90
        1
 62
     7
370
    -3
331
14
  1
Color_7
330
376
 90
        8
 62
     7
370
    25
331
14
  1
Color_7
330
472
 90
        1
 62
     9
370
    18
331
14
  1
Color_9
330
473
 90
        9
 62
     5
370
    -3
331
14
  1
Color_5
330
1861
 90
        9
 62
     2
370
    -3
331
1862
  1
Color_2
330
187E
 90
        9
 62
     5
370
    -3
331
14
  1
Color_5
330
18B2
 90
        9
 62
     2
370
    -3
331
351
  1
Color_2
  0
XRECORD
  5
1980
102
{ACAD_REACTORS
330
47C
102
}
330
47C
100
AcDbXrecord
280
     1
 91
     1023
301

290
     0
302
NOCUT
330
F
 90
        8
 62
     7
370
    -3
331
14
  1
Color_7
330
23
 90
        9
 62
     4
370
    50
331
14
  1
Color_4
330
24
 90
        9
 62
     4
370
    50
331
14
  1
Color_4
330
25
 90
        9
 62
     7
370
    25
331
14
  1
Color_7
330
27
 90
        9
 62
     7
370
    25
331
14
  1
Color_7
330
29
 90
        9
 62
     1
370
    35
331
20
  1
Color_1
330
2A
 90
        9
 62
     2
370
    25
331
471
  1
Color_2
330
2F
 90
        1
 62
     7
370
    -3
331
14
  1
Color_7
330
376
 90
        8
 62
     7
370
    25
331
14
  1
Color_7
330
472
 90
        1
 62
     9
370
    18
331
14
  1
Color_9
330
473
 90
        9
 62
     5
370
    -3
331
14
  1
Color_5
330
1861
 90
        9
 62
     2
370
    -3
331
1862
  1
Color_2
330
187E
 90
        9
 62
     5
370
    -3
331
14
  1
Color_5
330
18B2
 90
        9
 62
     2
370
    -3
331
351
  1
Color_2
  0
XRECORD
  5
194E
102
{ACAD_REACTORS
330
47C
102
}
330
47C
100
AcDbXrecord
280
     1
 91
     1023
301

290
     0
302
INFTOTAL
330
F
 90
        9
 62
     7
370
    -3
331
14
  1
Color_7
330
23
 90
        9
 62
     4
370
    50
331
14
  1
Color_4
330
24
 90
        8
 62
     4
370
    50
331
14
  1
Color_4
330
25
 90
        9
 62
     7
370
    25
331
14
  1
Color_7
330
27
 90
        8
 62
     7
370
    25
331
14
  1
Color_7
330
29
 90
        8
 62
     1
370
    35
331
20
  1
Color_1
330
2A
 90
        8
 62
     2
370
    25
331
471
  1
Color_2
330
2F
 90
        0
 62
     7
370
    -3
331
14
  1
Color_7
330
376
 90
        8
 62
     7
370
    25
331
14
  1
Color_7
330
472
 90
        0
 62
     9
370
    18
331
14
  1
Color_9
330
473
 90
        8
 62
     5
370
    -3
331
14
  1
Color_5
330
1861
 90
        8
 62
     2
370
    -3
331
1862
  1
Color_2
330
187E
 90
        8
 62
     5
370
    -3
331
14
  1
Color_5
330
18B2
 90
        8
 62
     2
370
    -3
331
351
  1
Color_2
  0
XRECORD
  5
1981
102
{ACAD_REACTORS
330
47C
102
}
330
47C
100
AcDbXrecord
280
     1
 91
     1023
301

290
     0
302
NOCUT
330
F
 90
        8
 62
     7
370
    -3
331
14
  1
Color_7
330
23
 90
        8
 62
     4
370
    50
331
14
  1
Color_4
330
24
 90
        9
 62
     4
370
    50
331
14
  1
Color_4
330
25
 90
        9
 62
     7
370
    25
331
14
  1
Color_7
330
27
 90
        9
 62
     7
370
    25
331
14
  1
Color_7
330
29
 90
        9
 62
     1
370
    35
331
20
  1
Color_1
330
2A
 90
        9
 62
     2
370
    25
331
471
  1
Color_2
330
2F
 90
        1
 62
     7
370
    -3
331
14
  1
Color_7
330
376
 90
        8
 62
     7
370
    25
331
14
  1
Color_7
330
472
 90
        1
 62
     9
370
    18
331
14
  1
Color_9
330
473
 90
        9
 62
     5
370
    -3
331
14
  1
Color_5
330
1861
 90
        9
 62
     2
370
    -3
331
1862
  1
Color_2
330
187E
 90
        9
 62
     5
370
    -3
331
14
  1
Color_5
330
18B2
 90
        9
 62
     2
370
    -3
331
351
  1
Color_2
  0
XRECORD
  5
1982
102
{ACAD_REACTORS
330
47C
102
}
330
47C
100
AcDbXrecord
280
     1
 91
     1023
301

290
     0
302
NOCUT
330
F
 90
        8
 62
     7
370
    -3
331
14
  1
Color_7
330
23
 90
        9
 62
     4
370
    50
331
14
  1
Color_4
330
24
 90
        9
 62
     4
370
    50
331
14
  1
Color_4
330
25
 90
        9
 62
     7
370
    25
331
14
  1
Color_7
330
27
 90
        9
 62
     7
370
    25
331
14
  1
Color_7
330
29
 90
        9
 62
     1
370
    35
331
20
  1
Color_1
330
2A
 90
        9
 62
     2
370
    25
331
471
  1
Color_2
330
2F
 90
        1
 62
     7
370
    -3
331
14
  1
Color_7
330
376
 90
        8
 62
     7
370
    25
331
14
  1
Color_7
330
472
 90
        1
 62
     9
370
    18
331
14
  1
Color_9
330
473
 90
        9
 62
     5
370
    -3
331
14
  1
Color_5
330
1861
 90
        9
 62
     2
370
    -3
331
1862
  1
Color_2
330
187E
 90
        9
 62
     5
370
    -3
331
14
  1
Color_5
330
18B2
 90
        9
 62
     2
370
    -3
331
351
  1
Color_2
  0
XRECORD
  5
1983
102
{ACAD_REACTORS
330
47C
102
}
330
47C
100
AcDbXrecord
280
     1
 91
     1023
301

290
     0
302
NOCUT
330
F
 90
        8
 62
     7
370
    -3
331
14
  1
Color_7
330
23
 90
        8
 62
     4
370
    50
331
14
  1
Color_4
330
24
 90
        9
 62
     4
370
    50
331
14
  1
Color_4
330
25
 90
        9
 62
     7
370
    25
331
14
  1
Color_7
330
27
 90
        9
 62
     7
370
    25
331
14
  1
Color_7
330
29
 90
        9
 62
     1
370
    35
331
20
  1
Color_1
330
2A
 90
        9
 62
     2
370
    25
331
471
  1
Color_2
330
2F
 90
        1
 62
     7
370
    -3
331
14
  1
Color_7
330
376
 90
        8
 62
     7
370
    25
331
14
  1
Color_7
330
472
 90
        1
 62
     9
370
    18
331
14
  1
Color_9
330
473
 90
        9
 62
     5
370
    -3
331
14
  1
Color_5
330
1861
 90
        9
 62
     2
370
    -3
331
1862
  1
Color_2
330
187E
 90
        9
 62
     5
370
    -3
331
14
  1
Color_5
330
18B2
 90
        9
 62
     2
370
    -3
331
351
  1
Color_2
  0
XRECORD
  5
1985
102
{ACAD_REACTORS
330
47C
102
}
330
47C
100
AcDbXrecord
280
     1
 91
     1023
301

290
     0
302
1
330
F
 90
        8
 62
     7
370
    -3
331
14
  1
Color_7
330
23
 90
        8
 62
     4
370
    50
331
14
  1
Color_4
330
24
 90
        9
 62
     4
370
    50
331
14
  1
Color_4
330
25
 90
        9
 62
     7
370
    25
331
14
  1
Color_7
330
27
 90
        9
 62
     7
370
    25
331
14
  1
Color_7
330
29
 90
        9
 62
     1
370
    35
331
20
  1
Color_1
330
2A
 90
        9
 62
     2
370
    25
331
471
  1
Color_2
330
2F
 90
        1
 62
     7
370
    -3
331
14
  1
Color_7
330
376
 90
        8
 62
     7
370
    25
331
14
  1
Color_7
330
472
 90
        1
 62
     9
370
    18
331
14
  1
Color_9
330
473
 90
        9
 62
     5
370
    -3
331
14
  1
Color_5
330
1861
 90
        9
 62
     2
370
    -3
331
1862
  1
Color_2
330
187E
 90
        9
 62
     5
370
    -3
331
14
  1
Color_5
330
18B2
 90
        9
 62
     2
370
    -3
331
351
  1
Color_2
  0
XRECORD
  5
1986
102
{ACAD_REACTORS
330
47C
102
}
330
47C
100
AcDbXrecord
280
     1
 91
     1023
301

290
     0
302
1
330
F
 90
        8
 62
     7
370
    -3
331
14
  1
Color_7
330
23
 90
        8
 62
     4
370
    50
331
14
  1
Color_4
330
24
 90
        9
 62
     4
370
    50
331
14
  1
Color_4
330
25
 90
        9
 62
     7
370
    25
331
14
  1
Color_7
330
27
 90
        9
 62
     7
370
    25
331
14
  1
Color_7
330
29
 90
        9
 62
     1
370
    35
331
20
  1
Color_1
330
2A
 90
        9
 62
     2
370
    25
331
471
  1
Color_2
330
2F
 90
        1
 62
     7
370
    -3
331
14
  1
Color_7
330
376
 90
        9
 62
     7
370
    25
331
14
  1
Color_7
330
472
 90
        1
 62
     9
370
    18
331
14
  1
Color_9
330
473
 90
        9
 62
     5
370
    -3
331
14
  1
Color_5
330
1861
 90
        9
 62
     2
370
    -3
331
1862
  1
Color_2
330
187E
 90
        9
 62
     5
370
    -3
331
14
  1
Color_5
330
18B2
 90
        9
 62
     2
370
    -3
331
351
  1
Color_2
  0
XRECORD
  5
1987
102
{ACAD_REACTORS
330
47C
102
}
330
47C
100
AcDbXrecord
280
     1
 91
     1023
301

290
     0
302
1
330
F
 90
        8
 62
     7
370
    -3
331
14
  1
Color_7
330
23
 90
        8
 62
     4
370
    50
331
14
  1
Color_4
330
24
 90
        9
 62
     4
370
    50
331
14
  1
Color_4
330
25
 90
        9
 62
     7
370
    25
331
14
  1
Color_7
330
27
 90
        9
 62
     7
370
    25
331
14
  1
Color_7
330
29
 90
        9
 62
     1
370
    35
331
20
  1
Color_1
330
2A
 90
        9
 62
     2
370
    25
331
471
  1
Color_2
330
2F
 90
        1
 62
     7
370
    -3
331
14
  1
Color_7
330
376
 90
        8
 62
     7
370
    25
331
14
  1
Color_7
330
472
 90
        1
 62
     9
370
    18
331
14
  1
Color_9
330
473
 90
        9
 62
     5
370
    -3
331
14
  1
Color_5
330
1861
 90
        9
 62
     2
370
    -3
331
1862
  1
Color_2
330
187E
 90
        9
 62
     5
370
    -3
331
14
  1
Color_5
330
18B2
 90
        9
 62
     2
370
    -3
331
351
  1
Color_2
  0
XRECORD
  5
1988
102
{ACAD_REACTORS
330
47C
102
}
330
47C
100
AcDbXrecord
280
     1
 91
     1023
301

290
     0
302
1
330
F
 90
        8
 62
     7
370
    -3
331
14
  1
Color_7
330
23
 90
        8
 62
     4
370
    50
331
14
  1
Color_4
330
24
 90
        9
 62
     4
370
    50
331
14
  1
Color_4
330
25
 90
        9
 62
     7
370
    25
331
14
  1
Color_7
330
27
 90
        9
 62
     7
370
    25
331
14
  1
Color_7
330
29
 90
        9
 62
     1
370
    35
331
20
  1
Color_1
330
2A
 90
        9
 62
     2
370
    25
331
471
  1
Color_2
330
2F
 90
        1
 62
     7
370
    -3
331
14
  1
Color_7
330
376
 90
        9
 62
     7
370
    25
331
14
  1
Color_7
330
472
 90
        1
 62
     9
370
    18
331
14
  1
Color_9
330
473
 90
        9
 62
     5
370
    -3
331
14
  1
Color_5
330
1861
 90
        9
 62
     2
370
    -3
331
1862
  1
Color_2
330
187E
 90
        9
 62
     5
370
    -3
331
14
  1
Color_5
330
18B2
 90
        9
 62
     2
370
    -3
331
351
  1
Color_2
  0
XRECORD
  5
1989
102
{ACAD_REACTORS
330
47C
102
}
330
47C
100
AcDbXrecord
280
     1
 91
     1023
301

290
     0
302
1
330
F
 90
        8
 62
     7
370
    -3
331
14
  1
Color_7
330
23
 90
        8
 62
     4
370
    50
331
14
  1
Color_4
330
24
 90
        9
 62
     4
370
    50
331
14
  1
Color_4
330
25
 90
        9
 62
     7
370
    25
331
14
  1
Color_7
330
27
 90
        9
 62
     7
370
    25
331
14
  1
Color_7
330
29
 90
        9
 62
     1
370
    35
331
20
  1
Color_1
330
2A
 90
        9
 62
     2
370
    25
331
471
  1
Color_2
330
2F
 90
        1
 62
     7
370
    -3
331
14
  1
Color_7
330
376
 90
        8
 62
     7
370
    25
331
14
  1
Color_7
330
472
 90
        1
 62
     9
370
    18
331
14
  1
Color_9
330
473
 90
        9
 62
     5
370
    -3
331
14
  1
Color_5
330
1861
 90
        9
 62
     2
370
    -3
331
1862
  1
Color_2
330
187E
 90
        9
 62
     5
370
    -3
331
14
  1
Color_5
330
18B2
 90
        9
 62
     2
370
    -3
331
351
  1
Color_2
  0
XRECORD
  5
198A
102
{ACAD_REACTORS
330
47C
102
}
330
47C
100
AcDbXrecord
280
     1
 91
     1023
301

290
     0
302
1
330
F
 90
        8
 62
     7
370
    -3
331
14
  1
Color_7
330
23
 90
        8
 62
     4
370
    50
331
14
  1
Color_4
330
24
 90
        9
 62
     4
370
    50
331
14
  1
Color_4
330
25
 90
        9
 62
     7
370
    25
331
14
  1
Color_7
330
27
 90
        9
 62
     7
370
    25
331
14
  1
Color_7
330
29
 90
        9
 62
     1
370
    35
331
20
  1
Color_1
330
2A
 90
        9
 62
     2
370
    25
331
471
  1
Color_2
330
2F
 90
        1
 62
     7
370
    -3
331
14
  1
Color_7
330
376
 90
        9
 62
     7
370
    25
331
14
  1
Color_7
330
472
 90
        1
 62
     9
370
    18
331
14
  1
Color_9
330
473
 90
        9
 62
     5
370
    -3
331
14
  1
Color_5
330
1861
 90
        9
 62
     2
370
    -3
331
1862
  1
Color_2
330
187E
 90
        9
 62
     5
370
    -3
331
14
  1
Color_5
330
18B2
 90
        9
 62
     2
370
    -3
331
351
  1
Color_2
  0
XRECORD
  5
198B
102
{ACAD_REACTORS
330
47C
102
}
330
47C
100
AcDbXrecord
280
     1
 91
     1023
301

290
     0
302
1
330
F
 90
        8
 62
     7
370
    -3
331
14
  1
Color_7
330
23
 90
        8
 62
     4
370
    50
331
14
  1
Color_4
330
24
 90
        9
 62
     4
370
    50
331
14
  1
Color_4
330
25
 90
        9
 62
     7
370
    25
331
14
  1
Color_7
330
27
 90
        9
 62
     7
370
    25
331
14
  1
Color_7
330
29
 90
        9
 62
     1
370
    35
331
20
  1
Color_1
330
2A
 90
        9
 62
     2
370
    25
331
471
  1
Color_2
330
2F
 90
        1
 62
     7
370
    -3
331
14
  1
Color_7
330
376
 90
        8
 62
     7
370
    25
331
14
  1
Color_7
330
472
 90
        1
 62
     9
370
    18
331
14
  1
Color_9
330
473
 90
        9
 62
     5
370
    -3
331
14
  1
Color_5
330
1861
 90
        9
 62
     2
370
    -3
331
1862
  1
Color_2
330
187E
 90
        9
 62
     5
370
    -3
331
14
  1
Color_5
330
18B2
 90
        9
 62
     2
370
    -3
331
351
  1
Color_2
  0
XRECORD
  5
194F
102
{ACAD_REACTORS
330
47C
102
}
330
47C
100
AcDbXrecord
280
     1
 91
     1023
301

290
     0
302
INFTOTAL
330
F
 90
        9
 62
     7
370
    -3
331
14
  1
Color_7
330
23
 90
        9
 62
     4
370
    50
331
14
  1
Color_4
330
24
 90
        8
 62
     4
370
    50
331
14
  1
Color_4
330
25
 90
        9
 62
     7
370
    25
331
14
  1
Color_7
330
27
 90
        8
 62
     7
370
    25
331
14
  1
Color_7
330
29
 90
        8
 62
     1
370
    35
331
20
  1
Color_1
330
2A
 90
        9
 62
     2
370
    25
331
471
  1
Color_2
330
2F
 90
        0
 62
     7
370
    -3
331
14
  1
Color_7
330
376
 90
        8
 62
     7
370
    25
331
14
  1
Color_7
330
472
 90
        0
 62
     9
370
    18
331
14
  1
Color_9
330
473
 90
        8
 62
     5
370
    -3
331
14
  1
Color_5
330
1861
 90
        8
 62
     2
370
    -3
331
1862
  1
Color_2
330
187E
 90
        8
 62
     5
370
    -3
331
14
  1
Color_5
330
18B2
 90
        8
 62
     2
370
    -3
331
351
  1
Color_2
  0
XRECORD
  5
198C
102
{ACAD_REACTORS
330
47C
102
}
330
47C
100
AcDbXrecord
280
     1
 91
     1023
301

290
     0
302
1
330
F
 90
        8
 62
     7
370
    -3
331
14
  1
Color_7
330
23
 90
        8
 62
     4
370
    50
331
14
  1
Color_4
330
24
 90
        9
 62
     4
370
    50
331
14
  1
Color_4
330
25
 90
        9
 62
     7
370
    25
331
14
  1
Color_7
330
27
 90
        9
 62
     7
370
    25
331
14
  1
Color_7
330
29
 90
        9
 62
     1
370
    35
331
20
  1
Color_1
330
2A
 90
        9
 62
     2
370
    25
331
471
  1
Color_2
330
2F
 90
        1
 62
     7
370
    -3
331
14
  1
Color_7
330
376
 90
        9
 62
     7
370
    25
331
14
  1
Color_7
330
472
 90
        1
 62
     9
370
    18
331
14
  1
Color_9
330
473
 90
        9
 62
     5
370
    -3
331
14
  1
Color_5
330
1861
 90
        9
 62
     2
370
    -3
331
1862
  1
Color_2
330
187E
 90
        9
 62
     5
370
    -3
331
14
  1
Color_5
330
18B2
 90
        9
 62
     2
370
    -3
331
351
  1
Color_2
  0
XRECORD
  5
198D
102
{ACAD_REACTORS
330
47C
102
}
330
47C
100
AcDbXrecord
280
     1
 91
     1023
301

290
     0
302
1
330
F
 90
        8
 62
     7
370
    -3
331
14
  1
Color_7
330
23
 90
        9
 62
     4
370
    50
331
14
  1
Color_4
330
24
 90
        9
 62
     4
370
    50
331
14
  1
Color_4
330
25
 90
        9
 62
     7
370
    25
331
14
  1
Color_7
330
27
 90
        9
 62
     7
370
    25
331
14
  1
Color_7
330
29
 90
        9
 62
     1
370
    35
331
20
  1
Color_1
330
2A
 90
        9
 62
     2
370
    25
331
471
  1
Color_2
330
2F
 90
        1
 62
     7
370
    -3
331
14
  1
Color_7
330
376
 90
        9
 62
     7
370
    25
331
14
  1
Color_7
330
472
 90
        1
 62
     9
370
    18
331
14
  1
Color_9
330
473
 90
        9
 62
     5
370
    -3
331
14
  1
Color_5
330
1861
 90
        9
 62
     2
370
    -3
331
1862
  1
Color_2
330
187E
 90
        9
 62
     5
370
    -3
331
14
  1
Color_5
330
18B2
 90
        9
 62
     2
370
    -3
331
351
  1
Color_2
  0
XRECORD
  5
198E
102
{ACAD_REACTORS
330
47C
102
}
330
47C
100
AcDbXrecord
280
     1
 91
     1023
301

290
     0
302
1
330
F
 90
        8
 62
     7
370
    -3
331
14
  1
Color_7
330
23
 90
        9
 62
     4
370
    50
331
14
  1
Color_4
330
24
 90
        9
 62
     4
370
    50
331
14
  1
Color_4
330
25
 90
        9
 62
     7
370
    25
331
14
  1
Color_7
330
27
 90
        9
 62
     7
370
    25
331
14
  1
Color_7
330
29
 90
        9
 62
     1
370
    35
331
20
  1
Color_1
330
2A
 90
        9
 62
     2
370
    25
331
471
  1
Color_2
330
2F
 90
        1
 62
     7
370
    -3
331
14
  1
Color_7
330
376
 90
        8
 62
     7
370
    25
331
14
  1
Color_7
330
472
 90
        1
 62
     9
370
    18
331
14
  1
Color_9
330
473
 90
        9
 62
     5
370
    -3
331
14
  1
Color_5
330
1861
 90
        9
 62
     2
370
    -3
331
1862
  1
Color_2
330
187E
 90
        9
 62
     5
370
    -3
331
14
  1
Color_5
330
18B2
 90
        9
 62
     2
370
    -3
331
351
  1
Color_2
  0
XRECORD
  5
198F
102
{ACAD_REACTORS
330
47C
102
}
330
47C
100
AcDbXrecord
280
     1
 91
     1023
301

290
     0
302
1
330
F
 90
        8
 62
     7
370
    -3
331
14
  1
Color_7
330
23
 90
        9
 62
     4
370
    50
331
14
  1
Color_4
330
24
 90
        9
 62
     4
370
    50
331
14
  1
Color_4
330
25
 90
        9
 62
     7
370
    25
331
14
  1
Color_7
330
27
 90
        9
 62
     7
370
    25
331
14
  1
Color_7
330
29
 90
        9
 62
     1
370
    35
331
20
  1
Color_1
330
2A
 90
        9
 62
     2
370
    25
331
471
  1
Color_2
330
2F
 90
        1
 62
     7
370
    -3
331
14
  1
Color_7
330
376
 90
        9
 62
     7
370
    25
331
14
  1
Color_7
330
472
 90
        1
 62
     9
370
    18
331
14
  1
Color_9
330
473
 90
        9
 62
     5
370
    -3
331
14
  1
Color_5
330
1861
 90
        9
 62
     2
370
    -3
331
1862
  1
Color_2
330
187E
 90
        9
 62
     5
370
    -3
331
14
  1
Color_5
330
18B2
 90
        9
 62
     2
370
    -3
331
351
  1
Color_2
  0
XRECORD
  5
1990
102
{ACAD_REACTORS
330
47C
102
}
330
47C
100
AcDbXrecord
280
     1
 91
     1023
301

290
     0
302
1
330
F
 90
        8
 62
     7
370
    -3
331
14
  1
Color_7
330
23
 90
        9
 62
     4
370
    50
331
14
  1
Color_4
330
24
 90
        9
 62
     4
370
    50
331
14
  1
Color_4
330
25
 90
        9
 62
     7
370
    25
331
14
  1
Color_7
330
27
 90
        9
 62
     7
370
    25
331
14
  1
Color_7
330
29
 90
        9
 62
     1
370
    35
331
20
  1
Color_1
330
2A
 90
        9
 62
     2
370
    25
331
471
  1
Color_2
330
2F
 90
        1
 62
     7
370
    -3
331
14
  1
Color_7
330
376
 90
        8
 62
     7
370
    25
331
14
  1
Color_7
330
472
 90
        1
 62
     9
370
    18
331
14
  1
Color_9
330
473
 90
        9
 62
     5
370
    -3
331
14
  1
Color_5
330
1861
 90
        9
 62
     2
370
    -3
331
1862
  1
Color_2
330
187E
 90
        9
 62
     5
370
    -3
331
14
  1
Color_5
330
18B2
 90
        9
 62
     2
370
    -3
331
351
  1
Color_2
  0
XRECORD
  5
1991
102
{ACAD_REACTORS
330
47C
102
}
330
47C
100
AcDbXrecord
280
     1
 91
     1023
301

290
     0
302
1
330
F
 90
        8
 62
     7
370
    -3
331
14
  1
Color_7
330
23
 90
        9
 62
     4
370
    50
331
14
  1
Color_4
330
24
 90
        9
 62
     4
370
    50
331
14
  1
Color_4
330
25
 90
        9
 62
     7
370
    25
331
14
  1
Color_7
330
27
 90
        9
 62
     7
370
    25
331
14
  1
Color_7
330
29
 90
        9
 62
     1
370
    35
331
20
  1
Color_1
330
2A
 90
        9
 62
     2
370
    25
331
471
  1
Color_2
330
2F
 90
        1
 62
     7
370
    -3
331
14
  1
Color_7
330
376
 90
        8
 62
     7
370
    25
331
14
  1
Color_7
330
472
 90
        0
 62
     9
370
    18
331
14
  1
Color_9
330
473
 90
        9
 62
     5
370
    -3
331
14
  1
Color_5
330
1861
 90
        9
 62
     2
370
    -3
331
1862
  1
Color_2
330
187E
 90
        9
 62
     5
370
    -3
331
14
  1
Color_5
330
18B2
 90
        9
 62
     2
370
    -3
331
351
  1
Color_2
  0
XRECORD
  5
1992
102
{ACAD_REACTORS
330
47C
102
}
330
47C
100
AcDbXrecord
280
     1
 91
     1023
301

290
     0
302
1
330
F
 90
        8
 62
     7
370
    -3
331
14
  1
Color_7
330
23
 90
        9
 62
     4
370
    50
331
14
  1
Color_4
330
24
 90
        9
 62
     4
370
    50
331
14
  1
Color_4
330
25
 90
        9
 62
     7
370
    25
331
14
  1
Color_7
330
27
 90
        9
 62
     7
370
    25
331
14
  1
Color_7
330
29
 90
        9
 62
     1
370
    35
331
20
  1
Color_1
330
2A
 90
        9
 62
     2
370
    25
331
471
  1
Color_2
330
2F
 90
        1
 62
     7
370
    -3
331
14
  1
Color_7
330
376
 90
        8
 62
     7
370
    25
331
14
  1
Color_7
330
472
 90
        0
 62
     9
370
    18
331
14
  1
Color_9
330
473
 90
        9
 62
     5
370
    -3
331
14
  1
Color_5
330
1861
 90
        9
 62
     2
370
    -3
331
1862
  1
Color_2
330
187E
 90
        9
 62
     5
370
    -3
331
14
  1
Color_5
330
18B2
 90
        8
 62
     2
370
    -3
331
351
  1
Color_2
  0
XRECORD
  5
1993
102
{ACAD_REACTORS
330
47C
102
}
330
47C
100
AcDbXrecord
280
     1
 91
     1023
301

290
     0
302
1
330
F
 90
        8
 62
     7
370
    -3
331
14
  1
Color_7
330
23
 90
        8
 62
     4
370
    50
331
14
  1
Color_4
330
24
 90
        9
 62
     4
370
    50
331
14
  1
Color_4
330
25
 90
        9
 62
     7
370
    25
331
14
  1
Color_7
330
27
 90
        9
 62
     7
370
    25
331
14
  1
Color_7
330
29
 90
        9
 62
     1
370
    35
331
20
  1
Color_1
330
2A
 90
        9
 62
     2
370
    25
331
471
  1
Color_2
330
2F
 90
        1
 62
     7
370
    -3
331
14
  1
Color_7
330
376
 90
        8
 62
     7
370
    25
331
14
  1
Color_7
330
472
 90
        0
 62
     9
370
    18
331
14
  1
Color_9
330
473
 90
        9
 62
     5
370
    -3
331
14
  1
Color_5
330
1861
 90
        9
 62
     2
370
    -3
331
1862
  1
Color_2
330
187E
 90
        9
 62
     5
370
    -3
331
14
  1
Color_5
330
18B2
 90
        8
 62
     2
370
    -3
331
351
  1
Color_2
  0
XRECORD
  5
1994
102
{ACAD_REACTORS
330
47C
102
}
330
47C
100
AcDbXrecord
280
     1
 91
     1023
301

290
     0
302
1
330
F
 90
        8
 62
     7
370
    -3
331
14
  1
Color_7
330
23
 90
        8
 62
     4
370
    50
331
14
  1
Color_4
330
24
 90
        9
 62
     4
370
    50
331
14
  1
Color_4
330
25
 90
        8
 62
     7
370
    25
331
14
  1
Color_7
330
27
 90
        9
 62
     7
370
    25
331
14
  1
Color_7
330
29
 90
        9
 62
     1
370
    35
331
20
  1
Color_1
330
2A
 90
        9
 62
     2
370
    25
331
471
  1
Color_2
330
2F
 90
        1
 62
     7
370
    -3
331
14
  1
Color_7
330
376
 90
        8
 62
     7
370
    25
331
14
  1
Color_7
330
472
 90
        0
 62
     9
370
    18
331
14
  1
Color_9
330
473
 90
        9
 62
     5
370
    -3
331
14
  1
Color_5
330
1861
 90
        9
 62
     2
370
    -3
331
1862
  1
Color_2
330
187E
 90
        9
 62
     5
370
    -3
331
14
  1
Color_5
330
18B2
 90
        8
 62
     2
370
    -3
331
351
  1
Color_2
  0
XRECORD
  5
1997
102
{ACAD_REACTORS
330
47C
102
}
330
47C
100
AcDbXrecord
280
     1
 91
     1023
301

290
     0
302
2
330
F
 90
        8
 62
     7
370
    -3
331
14
  1
Color_7
330
23
 90
        8
 62
     4
370
    50
331
14
  1
Color_4
330
24
 90
        9
 62
     4
370
    50
331
14
  1
Color_4
330
25
 90
        8
 62
     7
370
    25
331
14
  1
Color_7
330
27
 90
        9
 62
     7
370
    25
331
14
  1
Color_7
330
29
 90
        9
 62
     1
370
    35
331
20
  1
Color_1
330
2A
 90
        9
 62
     2
370
    25
331
471
  1
Color_2
330
2F
 90
        1
 62
     7
370
    -3
331
14
  1
Color_7
330
376
 90
        8
 62
     7
370
    25
331
14
  1
Color_7
330
472
 90
        0
 62
     9
370
    18
331
14
  1
Color_9
330
473
 90
        9
 62
     5
370
    -3
331
14
  1
Color_5
330
1861
 90
        9
 62
     2
370
    -3
331
1862
  1
Color_2
330
187E
 90
        9
 62
     5
370
    -3
331
14
  1
Color_5
330
18B2
 90
        8
 62
     2
370
    -3
331
351
  1
Color_2
  0
XRECORD
  5
1950
102
{ACAD_REACTORS
330
47C
102
}
330
47C
100
AcDbXrecord
280
     1
 91
     1023
301

290
     0
302
INFTOTAL
330
F
 90
        9
 62
     7
370
    -3
331
14
  1
Color_7
330
23
 90
        9
 62
     4
370
    50
331
14
  1
Color_4
330
24
 90
        8
 62
     4
370
    50
331
14
  1
Color_4
330
25
 90
        9
 62
     7
370
    25
331
14
  1
Color_7
330
27
 90
        8
 62
     7
370
    25
331
14
  1
Color_7
330
29
 90
        8
 62
     1
370
    35
331
20
  1
Color_1
330
2A
 90
        9
 62
     2
370
    25
331
471
  1
Color_2
330
2F
 90
        1
 62
     7
370
    -3
331
14
  1
Color_7
330
376
 90
        8
 62
     7
370
    25
331
14
  1
Color_7
330
472
 90
        0
 62
     9
370
    18
331
14
  1
Color_9
330
473
 90
        8
 62
     5
370
    -3
331
14
  1
Color_5
330
1861
 90
        8
 62
     2
370
    -3
331
1862
  1
Color_2
330
187E
 90
        8
 62
     5
370
    -3
331
14
  1
Color_5
330
18B2
 90
        8
 62
     2
370
    -3
331
351
  1
Color_2
  0
XRECORD
  5
1998
102
{ACAD_REACTORS
330
47C
102
}
330
47C
100
AcDbXrecord
280
     1
 91
     1023
301

290
     0
302
2
330
F
 90
        9
 62
     7
370
    -3
331
14
  1
Color_7
330
23
 90
        8
 62
     4
370
    50
331
14
  1
Color_4
330
24
 90
        9
 62
     4
370
    50
331
14
  1
Color_4
330
25
 90
        8
 62
     7
370
    25
331
14
  1
Color_7
330
27
 90
        9
 62
     7
370
    25
331
14
  1
Color_7
330
29
 90
        9
 62
     1
370
    35
331
20
  1
Color_1
330
2A
 90
        9
 62
     2
370
    25
331
471
  1
Color_2
330
2F
 90
        1
 62
     7
370
    -3
331
14
  1
Color_7
330
376
 90
        8
 62
     7
370
    25
331
14
  1
Color_7
330
472
 90
        0
 62
     9
370
    18
331
14
  1
Color_9
330
473
 90
        9
 62
     5
370
    -3
331
14
  1
Color_5
330
1861
 90
        9
 62
     2
370
    -3
331
1862
  1
Color_2
330
187E
 90
        9
 62
     5
370
    -3
331
14
  1
Color_5
330
18B2
 90
        8
 62
     2
370
    -3
331
351
  1
Color_2
  0
XRECORD
  5
1999
102
{ACAD_REACTORS
330
47C
102
}
330
47C
100
AcDbXrecord
280
     1
 91
     1023
301

290
     0
302
2
330
F
 90
        8
 62
     7
370
    -3
331
14
  1
Color_7
330
23
 90
        8
 62
     4
370
    50
331
14
  1
Color_4
330
24
 90
        9
 62
     4
370
    50
331
14
  1
Color_4
330
25
 90
        8
 62
     7
370
    25
331
14
  1
Color_7
330
27
 90
        9
 62
     7
370
    25
331
14
  1
Color_7
330
29
 90
        9
 62
     1
370
    35
331
20
  1
Color_1
330
2A
 90
        9
 62
     2
370
    25
331
471
  1
Color_2
330
2F
 90
        1
 62
     7
370
    -3
331
14
  1
Color_7
330
376
 90
        8
 62
     7
370
    25
331
14
  1
Color_7
330
472
 90
        0
 62
     9
370
    18
331
14
  1
Color_9
330
473
 90
        9
 62
     5
370
    -3
331
14
  1
Color_5
330
1861
 90
        9
 62
     2
370
    -3
331
1862
  1
Color_2
330
187E
 90
        9
 62
     5
370
    -3
331
14
  1
Color_5
330
18B2
 90
        8
 62
     2
370
    -3
331
351
  1
Color_2
  0
XRECORD
  5
199A
102
{ACAD_REACTORS
330
47C
102
}
330
47C
100
AcDbXrecord
280
     1
 91
     1023
301

290
     0
302
2
330
F
 90
        9
 62
     7
370
    -3
331
14
  1
Color_7
330
23
 90
        8
 62
     4
370
    50
331
14
  1
Color_4
330
24
 90
        9
 62
     4
370
    50
331
14
  1
Color_4
330
25
 90
        8
 62
     7
370
    25
331
14
  1
Color_7
330
27
 90
        9
 62
     7
370
    25
331
14
  1
Color_7
330
29
 90
        9
 62
     1
370
    35
331
20
  1
Color_1
330
2A
 90
        9
 62
     2
370
    25
331
471
  1
Color_2
330
2F
 90
        1
 62
     7
370
    -3
331
14
  1
Color_7
330
376
 90
        8
 62
     7
370
    25
331
14
  1
Color_7
330
472
 90
        0
 62
     9
370
    18
331
14
  1
Color_9
330
473
 90
        9
 62
     5
370
    -3
331
14
  1
Color_5
330
1861
 90
        9
 62
     2
370
    -3
331
1862
  1
Color_2
330
187E
 90
        9
 62
     5
370
    -3
331
14
  1
Color_5
330
18B2
 90
        8
 62
     2
370
    -3
331
351
  1
Color_2
  0
XRECORD
  5
199B
102
{ACAD_REACTORS
330
47C
102
}
330
47C
100
AcDbXrecord
280
     1
 91
     1023
301

290
     0
302
2
330
F
 90
        8
 62
     7
370
    -3
331
14
  1
Color_7
330
23
 90
        8
 62
     4
370
    50
331
14
  1
Color_4
330
24
 90
        9
 62
     4
370
    50
331
14
  1
Color_4
330
25
 90
        8
 62
     7
370
    25
331
14
  1
Color_7
330
27
 90
        9
 62
     7
370
    25
331
14
  1
Color_7
330
29
 90
        9
 62
     1
370
    35
331
20
  1
Color_1
330
2A
 90
        9
 62
     2
370
    25
331
471
  1
Color_2
330
2F
 90
        1
 62
     7
370
    -3
331
14
  1
Color_7
330
376
 90
        8
 62
     7
370
    25
331
14
  1
Color_7
330
472
 90
        0
 62
     9
370
    18
331
14
  1
Color_9
330
473
 90
        9
 62
     5
370
    -3
331
14
  1
Color_5
330
1861
 90
        9
 62
     2
370
    -3
331
1862
  1
Color_2
330
187E
 90
        9
 62
     5
370
    -3
331
14
  1
Color_5
330
18B2
 90
        8
 62
     2
370
    -3
331
351
  1
Color_2
  0
XRECORD
  5
199C
102
{ACAD_REACTORS
330
47C
102
}
330
47C
100
AcDbXrecord
280
     1
 91
     1023
301

290
     0
302
2
330
F
 90
        8
 62
     7
370
    -3
331
14
  1
Color_7
330
23
 90
        8
 62
     4
370
    50
331
14
  1
Color_4
330
24
 90
        9
 62
     4
370
    50
331
14
  1
Color_4
330
25
 90
        9
 62
     7
370
    25
331
14
  1
Color_7
330
27
 90
        9
 62
     7
370
    25
331
14
  1
Color_7
330
29
 90
        9
 62
     1
370
    35
331
20
  1
Color_1
330
2A
 90
        9
 62
     2
370
    25
331
471
  1
Color_2
330
2F
 90
        1
 62
     7
370
    -3
331
14
  1
Color_7
330
376
 90
        8
 62
     7
370
    25
331
14
  1
Color_7
330
472
 90
        0
 62
     9
370
    18
331
14
  1
Color_9
330
473
 90
        9
 62
     5
370
    -3
331
14
  1
Color_5
330
1861
 90
        9
 62
     2
370
    -3
331
1862
  1
Color_2
330
187E
 90
        9
 62
     5
370
    -3
331
14
  1
Color_5
330
18B2
 90
        8
 62
     2
370
    -3
331
351
  1
Color_2
  0
XRECORD
  5
199D
102
{ACAD_REACTORS
330
47C
102
}
330
47C
100
AcDbXrecord
280
     1
 91
     1023
301

290
     0
302
2
330
F
 90
        8
 62
     7
370
    -3
331
14
  1
Color_7
330
23
 90
        8
 62
     4
370
    50
331
14
  1
Color_4
330
24
 90
        9
 62
     4
370
    50
331
14
  1
Color_4
330
25
 90
        8
 62
     7
370
    25
331
14
  1
Color_7
330
27
 90
        9
 62
     7
370
    25
331
14
  1
Color_7
330
29
 90
        9
 62
     1
370
    35
331
20
  1
Color_1
330
2A
 90
        9
 62
     2
370
    25
331
471
  1
Color_2
330
2F
 90
        1
 62
     7
370
    -3
331
14
  1
Color_7
330
376
 90
        8
 62
     7
370
    25
331
14
  1
Color_7
330
472
 90
        0
 62
     9
370
    18
331
14
  1
Color_9
330
473
 90
        9
 62
     5
370
    -3
331
14
  1
Color_5
330
1861
 90
        9
 62
     2
370
    -3
331
1862
  1
Color_2
330
187E
 90
        9
 62
     5
370
    -3
331
14
  1
Color_5
330
18B2
 90
        8
 62
     2
370
    -3
331
351
  1
Color_2
  0
XRECORD
  5
199E
102
{ACAD_REACTORS
330
47C
102
}
330
47C
100
AcDbXrecord
280
     1
 91
     1023
301

290
     0
302
2
330
F
 90
        8
 62
     7
370
    -3
331
14
  1
Color_7
330
23
 90
        8
 62
     4
370
    50
331
14
  1
Color_4
330
24
 90
        9
 62
     4
370
    50
331
14
  1
Color_4
330
25
 90
        8
 62
     7
370
    25
331
14
  1
Color_7
330
27
 90
        9
 62
     7
370
    25
331
14
  1
Color_7
330
29
 90
        9
 62
     1
370
    35
331
20
  1
Color_1
330
2A
 90
        8
 62
     2
370
    25
331
471
  1
Color_2
330
2F
 90
        1
 62
     7
370
    -3
331
14
  1
Color_7
330
376
 90
        8
 62
     7
370
    25
331
14
  1
Color_7
330
472
 90
        0
 62
     9
370
    18
331
14
  1
Color_9
330
473
 90
        9
 62
     5
370
    -3
331
14
  1
Color_5
330
1861
 90
        9
 62
     2
370
    -3
331
1862
  1
Color_2
330
187E
 90
        9
 62
     5
370
    -3
331
14
  1
Color_5
330
18B2
 90
        8
 62
     2
370
    -3
331
351
  1
Color_2
  0
XRECORD
  5
199F
102
{ACAD_REACTORS
330
47C
102
}
330
47C
100
AcDbXrecord
280
     1
 91
     1023
301

290
     0
302
2
330
F
 90
        8
 62
     7
370
    -3
331
14
  1
Color_7
330
23
 90
        8
 62
     4
370
    50
331
14
  1
Color_4
330
24
 90
        9
 62
     4
370
    50
331
14
  1
Color_4
330
25
 90
        8
 62
     7
370
    25
331
14
  1
Color_7
330
27
 90
        9
 62
     7
370
    25
331
14
  1
Color_7
330
29
 90
        9
 62
     1
370
    35
331
20
  1
Color_1
330
2A
 90
        9
 62
     2
370
    25
331
471
  1
Color_2
330
2F
 90
        1
 62
     7
370
    -3
331
14
  1
Color_7
330
376
 90
        8
 62
     7
370
    25
331
14
  1
Color_7
330
472
 90
        0
 62
     9
370
    18
331
14
  1
Color_9
330
473
 90
        9
 62
     5
370
    -3
331
14
  1
Color_5
330
1861
 90
        9
 62
     2
370
    -3
331
1862
  1
Color_2
330
187E
 90
        9
 62
     5
370
    -3
331
14
  1
Color_5
330
18B2
 90
        8
 62
     2
370
    -3
331
351
  1
Color_2
  0
XRECORD
  5
19A0
102
{ACAD_REACTORS
330
47C
102
}
330
47C
100
AcDbXrecord
280
     1
 91
     1023
301

290
     0
302
2
330
F
 90
        8
 62
     7
370
    -3
331
14
  1
Color_7
330
23
 90
        8
 62
     4
370
    50
331
14
  1
Color_4
330
24
 90
        9
 62
     4
370
    50
331
14
  1
Color_4
330
25
 90
        8
 62
     7
370
    25
331
14
  1
Color_7
330
27
 90
        9
 62
     7
370
    25
331
14
  1
Color_7
330
29
 90
        9
 62
     1
370
    35
331
20
  1
Color_1
330
2A
 90
        8
 62
     2
370
    25
331
471
  1
Color_2
330
2F
 90
        1
 62
     7
370
    -3
331
14
  1
Color_7
330
376
 90
        8
 62
     7
370
    25
331
14
  1
Color_7
330
472
 90
        0
 62
     9
370
    18
331
14
  1
Color_9
330
473
 90
        9
 62
     5
370
    -3
331
14
  1
Color_5
330
1861
 90
        9
 62
     2
370
    -3
331
1862
  1
Color_2
330
187E
 90
        9
 62
     5
370
    -3
331
14
  1
Color_5
330
18B2
 90
        8
 62
     2
370
    -3
331
351
  1
Color_2
  0
XRECORD
  5
19A1
102
{ACAD_REACTORS
330
47C
102
}
330
47C
100
AcDbXrecord
280
     1
 91
     1023
301

290
     0
302
2
330
F
 90
        8
 62
     7
370
    -3
331
14
  1
Color_7
330
23
 90
        8
 62
     4
370
    50
331
14
  1
Color_4
330
24
 90
        9
 62
     4
370
    50
331
14
  1
Color_4
330
25
 90
        8
 62
     7
370
    25
331
14
  1
Color_7
330
27
 90
        9
 62
     7
370
    25
331
14
  1
Color_7
330
29
 90
        9
 62
     1
370
    35
331
20
  1
Color_1
330
2A
 90
        9
 62
     2
370
    25
331
471
  1
Color_2
330
2F
 90
        1
 62
     7
370
    -3
331
14
  1
Color_7
330
376
 90
        8
 62
     7
370
    25
331
14
  1
Color_7
330
472
 90
        0
 62
     9
370
    18
331
14
  1
Color_9
330
473
 90
        9
 62
     5
370
    -3
331
14
  1
Color_5
330
1861
 90
        9
 62
     2
370
    -3
331
1862
  1
Color_2
330
187E
 90
        9
 62
     5
370
    -3
331
14
  1
Color_5
330
18B2
 90
        8
 62
     2
370
    -3
331
351
  1
Color_2
  0
XRECORD
  5
1951
102
{ACAD_REACTORS
330
47C
102
}
330
47C
100
AcDbXrecord
280
     1
 91
     1023
301

290
     0
302
INFTOTAL
330
F
 90
        9
 62
     7
370
    -3
331
14
  1
Color_7
330
23
 90
        9
 62
     4
370
    50
331
14
  1
Color_4
330
24
 90
        8
 62
     4
370
    50
331
14
  1
Color_4
330
25
 90
        9
 62
     7
370
    25
331
14
  1
Color_7
330
27
 90
        8
 62
     7
370
    25
331
14
  1
Color_7
330
29
 90
        8
 62
     1
370
    35
331
20
  1
Color_1
330
2A
 90
        9
 62
     2
370
    25
331
471
  1
Color_2
330
2F
 90
        1
 62
     7
370
    -3
331
14
  1
Color_7
330
376
 90
        8
 62
     7
370
    25
331
14
  1
Color_7
330
472
 90
        0
 62
     9
370
    18
331
14
  1
Color_9
330
473
 90
        9
 62
     5
370
    -3
331
14
  1
Color_5
330
1861
 90
        8
 62
     2
370
    -3
331
1862
  1
Color_2
330
187E
 90
        8
 62
     5
370
    -3
331
14
  1
Color_5
330
18B2
 90
        8
 62
     2
370
    -3
331
351
  1
Color_2
  0
XRECORD
  5
19A2
102
{ACAD_REACTORS
330
47C
102
}
330
47C
100
AcDbXrecord
280
     1
 91
     1023
301

290
     0
302
2
330
F
 90
        8
 62
     7
370
    -3
331
14
  1
Color_7
330
23
 90
        8
 62
     4
370
    50
331
14
  1
Color_4
330
24
 90
        9
 62
     4
370
    50
331
14
  1
Color_4
330
25
 90
        8
 62
     7
370
    25
331
14
  1
Color_7
330
27
 90
        9
 62
     7
370
    25
331
14
  1
Color_7
330
29
 90
        9
 62
     1
370
    35
331
20
  1
Color_1
330
2A
 90
        8
 62
     2
370
    25
331
471
  1
Color_2
330
2F
 90
        1
 62
     7
370
    -3
331
14
  1
Color_7
330
376
 90
        8
 62
     7
370
    25
331
14
  1
Color_7
330
472
 90
        0
 62
     9
370
    18
331
14
  1
Color_9
330
473
 90
        9
 62
     5
370
    -3
331
14
  1
Color_5
330
1861
 90
        9
 62
     2
370
    -3
331
1862
  1
Color_2
330
187E
 90
        9
 62
     5
370
    -3
331
14
  1
Color_5
330
18B2
 90
        8
 62
     2
370
    -3
331
351
  1
Color_2
  0
XRECORD
  5
19A3
102
{ACAD_REACTORS
330
47C
102
}
330
47C
100
AcDbXrecord
280
     1
 91
     1023
301

290
     0
302
2
330
F
 90
        8
 62
     7
370
    -3
331
14
  1
Color_7
330
23
 90
        8
 62
     4
370
    50
331
14
  1
Color_4
330
24
 90
        9
 62
     4
370
    50
331
14
  1
Color_4
330
25
 90
        8
 62
     7
370
    25
331
14
  1
Color_7
330
27
 90
        9
 62
     7
370
    25
331
14
  1
Color_7
330
29
 90
        9
 62
     1
370
    35
331
20
  1
Color_1
330
2A
 90
        9
 62
     2
370
    25
331
471
  1
Color_2
330
2F
 90
        1
 62
     7
370
    -3
331
14
  1
Color_7
330
376
 90
        8
 62
     7
370
    25
331
14
  1
Color_7
330
472
 90
        0
 62
     9
370
    18
331
14
  1
Color_9
330
473
 90
        9
 62
     5
370
    -3
331
14
  1
Color_5
330
1861
 90
        9
 62
     2
370
    -3
331
1862
  1
Color_2
330
187E
 90
        9
 62
     5
370
    -3
331
14
  1
Color_5
330
18B2
 90
        8
 62
     2
370
    -3
331
351
  1
Color_2
  0
XRECORD
  5
19A4
102
{ACAD_REACTORS
330
47C
102
}
330
47C
100
AcDbXrecord
280
     1
 91
     1023
301

290
     0
302
2
330
F
 90
        8
 62
     7
370
    -3
331
14
  1
Color_7
330
23
 90
        8
 62
     4
370
    50
331
14
  1
Color_4
330
24
 90
        9
 62
     4
370
    50
331
14
  1
Color_4
330
25
 90
        8
 62
     7
370
    25
331
14
  1
Color_7
330
27
 90
        9
 62
     7
370
    25
331
14
  1
Color_7
330
29
 90
        9
 62
     1
370
    35
331
20
  1
Color_1
330
2A
 90
        8
 62
     2
370
    25
331
471
  1
Color_2
330
2F
 90
        1
 62
     7
370
    -3
331
14
  1
Color_7
330
376
 90
        8
 62
     7
370
    25
331
14
  1
Color_7
330
472
 90
        0
 62
     9
370
    18
331
14
  1
Color_9
330
473
 90
        9
 62
     5
370
    -3
331
14
  1
Color_5
330
1861
 90
        9
 62
     2
370
    -3
331
1862
  1
Color_2
330
187E
 90
        9
 62
     5
370
    -3
331
14
  1
Color_5
330
18B2
 90
        8
 62
     2
370
    -3
331
351
  1
Color_2
  0
XRECORD
  5
19A5
102
{ACAD_REACTORS
330
47C
102
}
330
47C
100
AcDbXrecord
280
     1
 91
     1023
301

290
     0
302
2
330
F
 90
        8
 62
     7
370
    -3
331
14
  1
Color_7
330
23
 90
        8
 62
     4
370
    50
331
14
  1
Color_4
330
24
 90
        9
 62
     4
370
    50
331
14
  1
Color_4
330
25
 90
        8
 62
     7
370
    25
331
14
  1
Color_7
330
27
 90
        9
 62
     7
370
    25
331
14
  1
Color_7
330
29
 90
        9
 62
     1
370
    35
331
20
  1
Color_1
330
2A
 90
        9
 62
     2
370
    25
331
471
  1
Color_2
330
2F
 90
        1
 62
     7
370
    -3
331
14
  1
Color_7
330
376
 90
        8
 62
     7
370
    25
331
14
  1
Color_7
330
472
 90
        0
 62
     9
370
    18
331
14
  1
Color_9
330
473
 90
        9
 62
     5
370
    -3
331
14
  1
Color_5
330
1861
 90
        9
 62
     2
370
    -3
331
1862
  1
Color_2
330
187E
 90
        9
 62
     5
370
    -3
331
14
  1
Color_5
330
18B2
 90
        8
 62
     2
370
    -3
331
351
  1
Color_2
  0
XRECORD
  5
19A6
102
{ACAD_REACTORS
330
47C
102
}
330
47C
100
AcDbXrecord
280
     1
 91
     1023
301

290
     0
302
2
330
F
 90
        8
 62
     7
370
    -3
331
14
  1
Color_7
330
23
 90
        8
 62
     4
370
    50
331
14
  1
Color_4
330
24
 90
        9
 62
     4
370
    50
331
14
  1
Color_4
330
25
 90
        8
 62
     7
370
    25
331
14
  1
Color_7
330
27
 90
        9
 62
     7
370
    25
331
14
  1
Color_7
330
29
 90
        9
 62
     1
370
    35
331
20
  1
Color_1
330
2A
 90
        8
 62
     2
370
    25
331
471
  1
Color_2
330
2F
 90
        1
 62
     7
370
    -3
331
14
  1
Color_7
330
376
 90
        8
 62
     7
370
    25
331
14
  1
Color_7
330
472
 90
        0
 62
     9
370
    18
331
14
  1
Color_9
330
473
 90
        9
 62
     5
370
    -3
331
14
  1
Color_5
330
1861
 90
        9
 62
     2
370
    -3
331
1862
  1
Color_2
330
187E
 90
        9
 62
     5
370
    -3
331
14
  1
Color_5
330
18B2
 90
        8
 62
     2
370
    -3
331
351
  1
Color_2
  0
XRECORD
  5
19A7
102
{ACAD_REACTORS
330
47C
102
}
330
47C
100
AcDbXrecord
280
     1
 91
     1023
301

290
     0
302
2
330
F
 90
        8
 62
     7
370
    -3
331
14
  1
Color_7
330
23
 90
        8
 62
     4
370
    50
331
14
  1
Color_4
330
24
 90
        9
 62
     4
370
    50
331
14
  1
Color_4
330
25
 90
        8
 62
     7
370
    25
331
14
  1
Color_7
330
27
 90
        9
 62
     7
370
    25
331
14
  1
Color_7
330
29
 90
        9
 62
     1
370
    35
331
20
  1
Color_1
330
2A
 90
        8
 62
     2
370
    25
331
471
  1
Color_2
330
2F
 90
        0
 62
     7
370
    -3
331
14
  1
Color_7
330
376
 90
        8
 62
     7
370
    25
331
14
  1
Color_7
330
472
 90
        0
 62
     9
370
    18
331
14
  1
Color_9
330
473
 90
        9
 62
     5
370
    -3
331
14
  1
Color_5
330
1861
 90
        9
 62
     2
370
    -3
331
1862
  1
Color_2
330
187E
 90
        9
 62
     5
370
    -3
331
14
  1
Color_5
330
18B2
 90
        8
 62
     2
370
    -3
331
351
  1
Color_2
  0
XRECORD
  5
19A8
102
{ACAD_REACTORS
330
47C
102
}
330
47C
100
AcDbXrecord
280
     1
 91
     1023
301

290
     0
302
2
330
F
 90
        8
 62
     7
370
    -3
331
14
  1
Color_7
330
23
 90
        8
 62
     4
370
    50
331
14
  1
Color_4
330
24
 90
        9
 62
     4
370
    50
331
14
  1
Color_4
330
25
 90
        8
 62
     7
370
    25
331
14
  1
Color_7
330
27
 90
        9
 62
     7
370
    25
331
14
  1
Color_7
330
29
 90
        9
 62
     1
370
    35
331
20
  1
Color_1
330
2A
 90
        8
 62
     2
370
    25
331
471
  1
Color_2
330
2F
 90
        1
 62
     7
370
    -3
331
14
  1
Color_7
330
376
 90
        8
 62
     7
370
    25
331
14
  1
Color_7
330
472
 90
        0
 62
     9
370
    18
331
14
  1
Color_9
330
473
 90
        9
 62
     5
370
    -3
331
14
  1
Color_5
330
1861
 90
        9
 62
     2
370
    -3
331
1862
  1
Color_2
330
187E
 90
        9
 62
     5
370
    -3
331
14
  1
Color_5
330
18B2
 90
        8
 62
     2
370
    -3
331
351
  1
Color_2
  0
XRECORD
  5
19A9
102
{ACAD_REACTORS
330
47C
102
}
330
47C
100
AcDbXrecord
280
     1
 91
     1023
301

290
     0
302
2
330
F
 90
        8
 62
     7
370
    -3
331
14
  1
Color_7
330
23
 90
        8
 62
     4
370
    50
331
14
  1
Color_4
330
24
 90
        9
 62
     4
370
    50
331
14
  1
Color_4
330
25
 90
        8
 62
     7
370
    25
331
14
  1
Color_7
330
27
 90
        9
 62
     7
370
    25
331
14
  1
Color_7
330
29
 90
        9
 62
     1
370
    35
331
20
  1
Color_1
330
2A
 90
        8
 62
     2
370
    25
331
471
  1
Color_2
330
2F
 90
        0
 62
     7
370
    -3
331
14
  1
Color_7
330
376
 90
        8
 62
     7
370
    25
331
14
  1
Color_7
330
472
 90
        0
 62
     9
370
    18
331
14
  1
Color_9
330
473
 90
        9
 62
     5
370
    -3
331
14
  1
Color_5
330
1861
 90
        9
 62
     2
370
    -3
331
1862
  1
Color_2
330
187E
 90
        9
 62
     5
370
    -3
331
14
  1
Color_5
330
18B2
 90
        8
 62
     2
370
    -3
331
351
  1
Color_2
  0
XRECORD
  5
19AA
102
{ACAD_REACTORS
330
47C
102
}
330
47C
100
AcDbXrecord
280
     1
 91
     1023
301

290
     0
302
2
330
F
 90
        8
 62
     7
370
    -3
331
14
  1
Color_7
330
23
 90
        8
 62
     4
370
    50
331
14
  1
Color_4
330
24
 90
        9
 62
     4
370
    50
331
14
  1
Color_4
330
25
 90
        8
 62
     7
370
    25
331
14
  1
Color_7
330
27
 90
        9
 62
     7
370
    25
331
14
  1
Color_7
330
29
 90
        9
 62
     1
370
    35
331
20
  1
Color_1
330
2A
 90
        8
 62
     2
370
    25
331
471
  1
Color_2
330
2F
 90
        1
 62
     7
370
    -3
331
14
  1
Color_7
330
376
 90
        8
 62
     7
370
    25
331
14
  1
Color_7
330
472
 90
        0
 62
     9
370
    18
331
14
  1
Color_9
330
473
 90
        9
 62
     5
370
    -3
331
14
  1
Color_5
330
1861
 90
        9
 62
     2
370
    -3
331
1862
  1
Color_2
330
187E
 90
        9
 62
     5
370
    -3
331
14
  1
Color_5
330
18B2
 90
        8
 62
     2
370
    -3
331
351
  1
Color_2
  0
XRECORD
  5
19AB
102
{ACAD_REACTORS
330
47C
102
}
330
47C
100
AcDbXrecord
280
     1
 91
     1023
301

290
     0
302
2
330
F
 90
        8
 62
     7
370
    -3
331
14
  1
Color_7
330
23
 90
        8
 62
     4
370
    50
331
14
  1
Color_4
330
24
 90
        9
 62
     4
370
    50
331
14
  1
Color_4
330
25
 90
        8
 62
     7
370
    25
331
14
  1
Color_7
330
27
 90
        9
 62
     7
370
    25
331
14
  1
Color_7
330
29
 90
        9
 62
     1
370
    35
331
20
  1
Color_1
330
2A
 90
        8
 62
     2
370
    25
331
471
  1
Color_2
330
2F
 90
        1
 62
     7
370
    -3
331
14
  1
Color_7
330
376
 90
        8
 62
     7
370
    25
331
14
  1
Color_7
330
472
 90
        0
 62
     9
370
    18
331
14
  1
Color_9
330
473
 90
        8
 62
     5
370
    -3
331
14
  1
Color_5
330
1861
 90
        9
 62
     2
370
    -3
331
1862
  1
Color_2
330
187E
 90
        9
 62
     5
370
    -3
331
14
  1
Color_5
330
18B2
 90
        8
 62
     2
370
    -3
331
351
  1
Color_2
  0
XRECORD
  5
1952
102
{ACAD_REACTORS
330
47C
102
}
330
47C
100
AcDbXrecord
280
     1
 91
     1023
301

290
     0
302
INFTOTAL
330
F
 90
        9
 62
     7
370
    -3
331
14
  1
Color_7
330
23
 90
        9
 62
     4
370
    50
331
14
  1
Color_4
330
24
 90
        8
 62
     4
370
    50
331
14
  1
Color_4
330
25
 90
        9
 62
     7
370
    25
331
14
  1
Color_7
330
27
 90
        8
 62
     7
370
    25
331
14
  1
Color_7
330
29
 90
        8
 62
     1
370
    35
331
20
  1
Color_1
330
2A
 90
        9
 62
     2
370
    25
331
471
  1
Color_2
330
2F
 90
        1
 62
     7
370
    -3
331
14
  1
Color_7
330
376
 90
        8
 62
     7
370
    25
331
14
  1
Color_7
330
472
 90
        1
 62
     9
370
    18
331
14
  1
Color_9
330
473
 90
        9
 62
     5
370
    -3
331
14
  1
Color_5
330
1861
 90
        8
 62
     2
370
    -3
331
1862
  1
Color_2
330
187E
 90
        8
 62
     5
370
    -3
331
14
  1
Color_5
330
18B2
 90
        8
 62
     2
370
    -3
331
351
  1
Color_2
  0
XRECORD
  5
19AC
102
{ACAD_REACTORS
330
47C
102
}
330
47C
100
AcDbXrecord
280
     1
 91
     1023
301

290
     0
302
2
330
F
 90
        8
 62
     7
370
    -3
331
14
  1
Color_7
330
23
 90
        8
 62
     4
370
    50
331
14
  1
Color_4
330
24
 90
        9
 62
     4
370
    50
331
14
  1
Color_4
330
25
 90
        8
 62
     7
370
    25
331
14
  1
Color_7
330
27
 90
        9
 62
     7
370
    25
331
14
  1
Color_7
330
29
 90
        9
 62
     1
370
    35
331
20
  1
Color_1
330
2A
 90
        8
 62
     2
370
    25
331
471
  1
Color_2
330
2F
 90
        1
 62
     7
370
    -3
331
14
  1
Color_7
330
376
 90
        8
 62
     7
370
    25
331
14
  1
Color_7
330
472
 90
        0
 62
     9
370
    18
331
14
  1
Color_9
330
473
 90
        9
 62
     5
370
    -3
331
14
  1
Color_5
330
1861
 90
        9
 62
     2
370
    -3
331
1862
  1
Color_2
330
187E
 90
        9
 62
     5
370
    -3
331
14
  1
Color_5
330
18B2
 90
        8
 62
     2
370
    -3
331
351
  1
Color_2
  0
XRECORD
  5
19AD
102
{ACAD_REACTORS
330
47C
102
}
330
47C
100
AcDbXrecord
280
     1
 91
     1023
301

290
     0
302
2
330
F
 90
        8
 62
     7
370
    -3
331
14
  1
Color_7
330
23
 90
        8
 62
     4
370
    50
331
14
  1
Color_4
330
24
 90
        9
 62
     4
370
    50
331
14
  1
Color_4
330
25
 90
        8
 62
     7
370
    25
331
14
  1
Color_7
330
27
 90
        9
 62
     7
370
    25
331
14
  1
Color_7
330
29
 90
        9
 62
     1
370
    35
331
20
  1
Color_1
330
2A
 90
        8
 62
     2
370
    25
331
471
  1
Color_2
330
2F
 90
        1
 62
     7
370
    -3
331
14
  1
Color_7
330
376
 90
        8
 62
     7
370
    25
331
14
  1
Color_7
330
472
 90
        0
 62
     9
370
    18
331
14
  1
Color_9
330
473
 90
        8
 62
     5
370
    -3
331
14
  1
Color_5
330
1861
 90
        9
 62
     2
370
    -3
331
1862
  1
Color_2
330
187E
 90
        9
 62
     5
370
    -3
331
14
  1
Color_5
330
18B2
 90
        8
 62
     2
370
    -3
331
351
  1
Color_2
  0
XRECORD
  5
19AE
102
{ACAD_REACTORS
330
47C
102
}
330
47C
100
AcDbXrecord
280
     1
 91
     1023
301

290
     0
302
2
330
F
 90
        8
 62
     7
370
    -3
331
14
  1
Color_7
330
23
 90
        8
 62
     4
370
    50
331
14
  1
Color_4
330
24
 90
        9
 62
     4
370
    50
331
14
  1
Color_4
330
25
 90
        8
 62
     7
370
    25
331
14
  1
Color_7
330
27
 90
        9
 62
     7
370
    25
331
14
  1
Color_7
330
29
 90
        9
 62
     1
370
    35
331
20
  1
Color_1
330
2A
 90
        8
 62
     2
370
    25
331
471
  1
Color_2
330
2F
 90
        1
 62
     7
370
    -3
331
14
  1
Color_7
330
376
 90
        8
 62
     7
370
    25
331
14
  1
Color_7
330
472
 90
        0
 62
     9
370
    18
331
14
  1
Color_9
330
473
 90
        9
 62
     5
370
    -3
331
14
  1
Color_5
330
1861
 90
        9
 62
     2
370
    -3
331
1862
  1
Color_2
330
187E
 90
        9
 62
     5
370
    -3
331
14
  1
Color_5
330
18B2
 90
        8
 62
     2
370
    -3
331
351
  1
Color_2
  0
XRECORD
  5
19AF
102
{ACAD_REACTORS
330
47C
102
}
330
47C
100
AcDbXrecord
280
     1
 91
     1023
301

290
     0
302
2
330
F
 90
        8
 62
     7
370
    -3
331
14
  1
Color_7
330
23
 90
        8
 62
     4
370
    50
331
14
  1
Color_4
330
24
 90
        9
 62
     4
370
    50
331
14
  1
Color_4
330
25
 90
        8
 62
     7
370
    25
331
14
  1
Color_7
330
27
 90
        9
 62
     7
370
    25
331
14
  1
Color_7
330
29
 90
        9
 62
     1
370
    35
331
20
  1
Color_1
330
2A
 90
        8
 62
     2
370
    25
331
471
  1
Color_2
330
2F
 90
        1
 62
     7
370
    -3
331
14
  1
Color_7
330
376
 90
        8
 62
     7
370
    25
331
14
  1
Color_7
330
472
 90
        0
 62
     9
370
    18
331
14
  1
Color_9
330
473
 90
        8
 62
     5
370
    -3
331
14
  1
Color_5
330
1861
 90
        9
 62
     2
370
    -3
331
1862
  1
Color_2
330
187E
 90
        9
 62
     5
370
    -3
331
14
  1
Color_5
330
18B2
 90
        8
 62
     2
370
    -3
331
351
  1
Color_2
  0
XRECORD
  5
19B0
102
{ACAD_REACTORS
330
47C
102
}
330
47C
100
AcDbXrecord
280
     1
 91
     1023
301

290
     0
302
2
330
F
 90
        8
 62
     7
370
    -3
331
14
  1
Color_7
330
23
 90
        8
 62
     4
370
    50
331
14
  1
Color_4
330
24
 90
        9
 62
     4
370
    50
331
14
  1
Color_4
330
25
 90
        8
 62
     7
370
    25
331
14
  1
Color_7
330
27
 90
        9
 62
     7
370
    25
331
14
  1
Color_7
330
29
 90
        9
 62
     1
370
    35
331
20
  1
Color_1
330
2A
 90
        8
 62
     2
370
    25
331
471
  1
Color_2
330
2F
 90
        1
 62
     7
370
    -3
331
14
  1
Color_7
330
376
 90
        8
 62
     7
370
    25
331
14
  1
Color_7
330
472
 90
        0
 62
     9
370
    18
331
14
  1
Color_9
330
473
 90
        9
 62
     5
370
    -3
331
14
  1
Color_5
330
1861
 90
        9
 62
     2
370
    -3
331
1862
  1
Color_2
330
187E
 90
        9
 62
     5
370
    -3
331
14
  1
Color_5
330
18B2
 90
        8
 62
     2
370
    -3
331
351
  1
Color_2
  0
XRECORD
  5
19B7
102
{ACAD_REACTORS
330
47C
102
}
330
47C
100
AcDbXrecord
280
     1
 91
     1023
301

290
     0
302
2
330
F
 90
        8
 62
     7
370
    -3
331
14
  1
Color_7
330
23
 90
        8
 62
     4
370
    50
331
14
  1
Color_4
330
24
 90
        9
 62
     4
370
    50
331
14
  1
Color_4
330
25
 90
        8
 62
     7
370
    25
331
14
  1
Color_7
330
27
 90
        9
 62
     7
370
    25
331
14
  1
Color_7
330
29
 90
        9
 62
     1
370
    35
331
20
  1
Color_1
330
2A
 90
        8
 62
     2
370
    25
331
471
  1
Color_2
330
2F
 90
        1
 62
     7
370
    -3
331
14
  1
Color_7
330
376
 90
        8
 62
     7
370
    25
331
14
  1
Color_7
330
472
 90
        0
 62
     9
370
    18
331
14
  1
Color_9
330
473
 90
        8
 62
     5
370
    -3
331
14
  1
Color_5
330
1861
 90
        9
 62
     2
370
    -3
331
1862
  1
Color_2
330
187E
 90
        9
 62
     5
370
    -3
331
14
  1
Color_5
330
18B2
 90
        8
 62
     2
370
    -3
331
351
  1
Color_2
  0
XRECORD
  5
19B8
102
{ACAD_REACTORS
330
47C
102
}
330
47C
100
AcDbXrecord
280
     1
 91
     1023
301

290
     0
302
2
330
F
 90
        8
 62
     7
370
    -3
331
14
  1
Color_7
330
23
 90
        8
 62
     4
370
    50
331
14
  1
Color_4
330
24
 90
        8
 62
     4
370
    50
331
14
  1
Color_4
330
25
 90
        8
 62
     7
370
    25
331
14
  1
Color_7
330
27
 90
        9
 62
     7
370
    25
331
14
  1
Color_7
330
29
 90
        9
 62
     1
370
    35
331
20
  1
Color_1
330
2A
 90
        8
 62
     2
370
    25
331
471
  1
Color_2
330
2F
 90
        1
 62
     7
370
    -3
331
14
  1
Color_7
330
376
 90
        8
 62
     7
370
    25
331
14
  1
Color_7
330
472
 90
        0
 62
     9
370
    18
331
14
  1
Color_9
330
473
 90
        8
 62
     5
370
    -3
331
14
  1
Color_5
330
1861
 90
        9
 62
     2
370
    -3
331
1862
  1
Color_2
330
187E
 90
        9
 62
     5
370
    -3
331
14
  1
Color_5
330
18B2
 90
        8
 62
     2
370
    -3
331
351
  1
Color_2
  0
XRECORD
  5
19B9
102
{ACAD_REACTORS
330
47C
102
}
330
47C
100
AcDbXrecord
280
     1
 91
     1023
301

290
     0
302
2
330
F
 90
        8
 62
     7
370
    -3
331
14
  1
Color_7
330
23
 90
        8
 62
     4
370
    50
331
14
  1
Color_4
330
24
 90
        9
 62
     4
370
    50
331
14
  1
Color_4
330
25
 90
        8
 62
     7
370
    25
331
14
  1
Color_7
330
27
 90
        9
 62
     7
370
    25
331
14
  1
Color_7
330
29
 90
        9
 62
     1
370
    35
331
20
  1
Color_1
330
2A
 90
        8
 62
     2
370
    25
331
471
  1
Color_2
330
2F
 90
        1
 62
     7
370
    -3
331
14
  1
Color_7
330
376
 90
        8
 62
     7
370
    25
331
14
  1
Color_7
330
472
 90
        0
 62
     9
370
    18
331
14
  1
Color_9
330
473
 90
        8
 62
     5
370
    -3
331
14
  1
Color_5
330
1861
 90
        9
 62
     2
370
    -3
331
1862
  1
Color_2
330
187E
 90
        9
 62
     5
370
    -3
331
14
  1
Color_5
330
18B2
 90
        8
 62
     2
370
    -3
331
351
  1
Color_2
  0
XRECORD
  5
19BA
102
{ACAD_REACTORS
330
47C
102
}
330
47C
100
AcDbXrecord
280
     1
 91
     1023
301

290
     0
302
2
330
F
 90
        8
 62
     7
370
    -3
331
14
  1
Color_7
330
23
 90
        8
 62
     4
370
    50
331
14
  1
Color_4
330
24
 90
        8
 62
     4
370
    50
331
14
  1
Color_4
330
25
 90
        8
 62
     7
370
    25
331
14
  1
Color_7
330
27
 90
        9
 62
     7
370
    25
331
14
  1
Color_7
330
29
 90
        9
 62
     1
370
    35
331
20
  1
Color_1
330
2A
 90
        8
 62
     2
370
    25
331
471
  1
Color_2
330
2F
 90
        1
 62
     7
370
    -3
331
14
  1
Color_7
330
376
 90
        8
 62
     7
370
    25
331
14
  1
Color_7
330
472
 90
        0
 62
     9
370
    18
331
14
  1
Color_9
330
473
 90
        8
 62
     5
370
    -3
331
14
  1
Color_5
330
1861
 90
        9
 62
     2
370
    -3
331
1862
  1
Color_2
330
187E
 90
        9
 62
     5
370
    -3
331
14
  1
Color_5
330
18B2
 90
        8
 62
     2
370
    -3
331
351
  1
Color_2
  0
XRECORD
  5
19BB
102
{ACAD_REACTORS
330
47C
102
}
330
47C
100
AcDbXrecord
280
     1
 91
     1023
301

290
     0
302
2
330
F
 90
        8
 62
     7
370
    -3
331
14
  1
Color_7
330
23
 90
        8
 62
     4
370
    50
331
14
  1
Color_4
330
24
 90
        9
 62
     4
370
    50
331
14
  1
Color_4
330
25
 90
        8
 62
     7
370
    25
331
14
  1
Color_7
330
27
 90
        9
 62
     7
370
    25
331
14
  1
Color_7
330
29
 90
        9
 62
     1
370
    35
331
20
  1
Color_1
330
2A
 90
        8
 62
     2
370
    25
331
471
  1
Color_2
330
2F
 90
        1
 62
     7
370
    -3
331
14
  1
Color_7
330
376
 90
        8
 62
     7
370
    25
331
14
  1
Color_7
330
472
 90
        0
 62
     9
370
    18
331
14
  1
Color_9
330
473
 90
        8
 62
     5
370
    -3
331
14
  1
Color_5
330
1861
 90
        9
 62
     2
370
    -3
331
1862
  1
Color_2
330
187E
 90
        9
 62
     5
370
    -3
331
14
  1
Color_5
330
18B2
 90
        8
 62
     2
370
    -3
331
351
  1
Color_2
  0
XRECORD
  5
1953
102
{ACAD_REACTORS
330
47C
102
}
330
47C
100
AcDbXrecord
280
     1
 91
     1023
301

290
     0
302
INFTOTAL
330
F
 90
        9
 62
     7
370
    -3
331
14
  1
Color_7
330
23
 90
        9
 62
     4
370
    50
331
14
  1
Color_4
330
24
 90
        8
 62
     4
370
    50
331
14
  1
Color_4
330
25
 90
        9
 62
     7
370
    25
331
14
  1
Color_7
330
27
 90
        8
 62
     7
370
    25
331
14
  1
Color_7
330
29
 90
        8
 62
     1
370
    35
331
20
  1
Color_1
330
2A
 90
        9
 62
     2
370
    25
331
471
  1
Color_2
330
2F
 90
        1
 62
     7
370
    -3
331
14
  1
Color_7
330
376
 90
        8
 62
     7
370
    25
331
14
  1
Color_7
330
472
 90
        1
 62
     9
370
    18
331
14
  1
Color_9
330
473
 90
        9
 62
     5
370
    -3
331
14
  1
Color_5
330
1861
 90
        8
 62
     2
370
    -3
331
1862
  1
Color_2
330
187E
 90
        8
 62
     5
370
    -3
331
14
  1
Color_5
330
18B2
 90
        9
 62
     2
370
    -3
331
351
  1
Color_2
  0
XRECORD
  5
19BC
102
{ACAD_REACTORS
330
47C
102
}
330
47C
100
AcDbXrecord
280
     1
 91
     1023
301

290
     0
302
2
330
F
 90
        8
 62
     7
370
    -3
331
14
  1
Color_7
330
23
 90
        8
 62
     4
370
    50
331
14
  1
Color_4
330
24
 90
        8
 62
     4
370
    50
331
14
  1
Color_4
330
25
 90
        8
 62
     7
370
    25
331
14
  1
Color_7
330
27
 90
        9
 62
     7
370
    25
331
14
  1
Color_7
330
29
 90
        9
 62
     1
370
    35
331
20
  1
Color_1
330
2A
 90
        8
 62
     2
370
    25
331
471
  1
Color_2
330
2F
 90
        1
 62
     7
370
    -3
331
14
  1
Color_7
330
376
 90
        8
 62
     7
370
    25
331
14
  1
Color_7
330
472
 90
        0
 62
     9
370
    18
331
14
  1
Color_9
330
473
 90
        8
 62
     5
370
    -3
331
14
  1
Color_5
330
1861
 90
        9
 62
     2
370
    -3
331
1862
  1
Color_2
330
187E
 90
        9
 62
     5
370
    -3
331
14
  1
Color_5
330
18B2
 90
        8
 62
     2
370
    -3
331
351
  1
Color_2
  0
XRECORD
  5
19BD
102
{ACAD_REACTORS
330
47C
102
}
330
47C
100
AcDbXrecord
280
     1
 91
     1023
301

290
     0
302
2
330
F
 90
        8
 62
     7
370
    -3
331
14
  1
Color_7
330
23
 90
        8
 62
     4
370
    50
331
14
  1
Color_4
330
24
 90
        9
 62
     4
370
    50
331
14
  1
Color_4
330
25
 90
        8
 62
     7
370
    25
331
14
  1
Color_7
330
27
 90
        9
 62
     7
370
    25
331
14
  1
Color_7
330
29
 90
        9
 62
     1
370
    35
331
20
  1
Color_1
330
2A
 90
        8
 62
     2
370
    25
331
471
  1
Color_2
330
2F
 90
        1
 62
     7
370
    -3
331
14
  1
Color_7
330
376
 90
        8
 62
     7
370
    25
331
14
  1
Color_7
330
472
 90
        0
 62
     9
370
    18
331
14
  1
Color_9
330
473
 90
        8
 62
     5
370
    -3
331
14
  1
Color_5
330
1861
 90
        9
 62
     2
370
    -3
331
1862
  1
Color_2
330
187E
 90
        9
 62
     5
370
    -3
331
14
  1
Color_5
330
18B2
 90
        8
 62
     2
370
    -3
331
351
  1
Color_2
  0
XRECORD
  5
19BE
102
{ACAD_REACTORS
330
47C
102
}
330
47C
100
AcDbXrecord
280
     1
 91
     1023
301

290
     0
302
2
330
F
 90
        8
 62
     7
370
    -3
331
14
  1
Color_7
330
23
 90
        8
 62
     4
370
    50
331
14
  1
Color_4
330
24
 90
        8
 62
     4
370
    50
331
14
  1
Color_4
330
25
 90
        8
 62
     7
370
    25
331
14
  1
Color_7
330
27
 90
        9
 62
     7
370
    25
331
14
  1
Color_7
330
29
 90
        9
 62
     1
370
    35
331
20
  1
Color_1
330
2A
 90
        8
 62
     2
370
    25
331
471
  1
Color_2
330
2F
 90
        1
 62
     7
370
    -3
331
14
  1
Color_7
330
376
 90
        8
 62
     7
370
    25
331
14
  1
Color_7
330
472
 90
        0
 62
     9
370
    18
331
14
  1
Color_9
330
473
 90
        8
 62
     5
370
    -3
331
14
  1
Color_5
330
1861
 90
        9
 62
     2
370
    -3
331
1862
  1
Color_2
330
187E
 90
        9
 62
     5
370
    -3
331
14
  1
Color_5
330
18B2
 90
        8
 62
     2
370
    -3
331
351
  1
Color_2
  0
XRECORD
  5
19BF
102
{ACAD_REACTORS
330
47C
102
}
330
47C
100
AcDbXrecord
280
     1
 91
     1023
301

290
     0
302
2
330
F
 90
        8
 62
     7
370
    -3
331
14
  1
Color_7
330
23
 90
        8
 62
     4
370
    50
331
14
  1
Color_4
330
24
 90
        8
 62
     4
370
    50
331
14
  1
Color_4
330
25
 90
        8
 62
     7
370
    25
331
14
  1
Color_7
330
27
 90
        8
 62
     7
370
    25
331
14
  1
Color_7
330
29
 90
        9
 62
     1
370
    35
331
20
  1
Color_1
330
2A
 90
        8
 62
     2
370
    25
331
471
  1
Color_2
330
2F
 90
        1
 62
     7
370
    -3
331
14
  1
Color_7
330
376
 90
        8
 62
     7
370
    25
331
14
  1
Color_7
330
472
 90
        0
 62
     9
370
    18
331
14
  1
Color_9
330
473
 90
        8
 62
     5
370
    -3
331
14
  1
Color_5
330
1861
 90
        9
 62
     2
370
    -3
331
1862
  1
Color_2
330
187E
 90
        9
 62
     5
370
    -3
331
14
  1
Color_5
330
18B2
 90
        8
 62
     2
370
    -3
331
351
  1
Color_2
  0
XRECORD
  5
19C0
102
{ACAD_REACTORS
330
47C
102
}
330
47C
100
AcDbXrecord
280
     1
 91
     1023
301

290
     0
302
2
330
F
 90
        8
 62
     7
370
    -3
331
14
  1
Color_7
330
23
 90
        8
 62
     4
370
    50
331
14
  1
Color_4
330
24
 90
        8
 62
     4
370
    50
331
14
  1
Color_4
330
25
 90
        8
 62
     7
370
    25
331
14
  1
Color_7
330
27
 90
        9
 62
     7
370
    25
331
14
  1
Color_7
330
29
 90
        9
 62
     1
370
    35
331
20
  1
Color_1
330
2A
 90
        8
 62
     2
370
    25
331
471
  1
Color_2
330
2F
 90
        1
 62
     7
370
    -3
331
14
  1
Color_7
330
376
 90
        8
 62
     7
370
    25
331
14
  1
Color_7
330
472
 90
        0
 62
     9
370
    18
331
14
  1
Color_9
330
473
 90
        8
 62
     5
370
    -3
331
14
  1
Color_5
330
1861
 90
        9
 62
     2
370
    -3
331
1862
  1
Color_2
330
187E
 90
        9
 62
     5
370
    -3
331
14
  1
Color_5
330
18B2
 90
        8
 62
     2
370
    -3
331
351
  1
Color_2
  0
XRECORD
  5
19C1
102
{ACAD_REACTORS
330
47C
102
}
330
47C
100
AcDbXrecord
280
     1
 91
     1023
301

290
     0
302
2
330
F
 90
        8
 62
     7
370
    -3
331
14
  1
Color_7
330
23
 90
        8
 62
     4
370
    50
331
14
  1
Color_4
330
24
 90
        8
 62
     4
370
    50
331
14
  1
Color_4
330
25
 90
        8
 62
     7
370
    25
331
14
  1
Color_7
330
27
 90
        8
 62
     7
370
    25
331
14
  1
Color_7
330
29
 90
        9
 62
     1
370
    35
331
20
  1
Color_1
330
2A
 90
        8
 62
     2
370
    25
331
471
  1
Color_2
330
2F
 90
        1
 62
     7
370
    -3
331
14
  1
Color_7
330
376
 90
        8
 62
     7
370
    25
331
14
  1
Color_7
330
472
 90
        0
 62
     9
370
    18
331
14
  1
Color_9
330
473
 90
        8
 62
     5
370
    -3
331
14
  1
Color_5
330
1861
 90
        9
 62
     2
370
    -3
331
1862
  1
Color_2
330
187E
 90
        9
 62
     5
370
    -3
331
14
  1
Color_5
330
18B2
 90
        8
 62
     2
370
    -3
331
351
  1
Color_2
  0
XRECORD
  5
19C2
102
{ACAD_REACTORS
330
47C
102
}
330
47C
100
AcDbXrecord
280
     1
 91
     1023
301

290
     0
302
2
330
F
 90
        8
 62
     7
370
    -3
331
14
  1
Color_7
330
23
 90
        8
 62
     4
370
    50
331
14
  1
Color_4
330
24
 90
        8
 62
     4
370
    50
331
14
  1
Color_4
330
25
 90
        8
 62
     7
370
    25
331
14
  1
Color_7
330
27
 90
        9
 62
     7
370
    25
331
14
  1
Color_7
330
29
 90
        9
 62
     1
370
    35
331
20
  1
Color_1
330
2A
 90
        8
 62
     2
370
    25
331
471
  1
Color_2
330
2F
 90
        1
 62
     7
370
    -3
331
14
  1
Color_7
330
376
 90
        8
 62
     7
370
    25
331
14
  1
Color_7
330
472
 90
        0
 62
     9
370
    18
331
14
  1
Color_9
330
473
 90
        8
 62
     5
370
    -3
331
14
  1
Color_5
330
1861
 90
        9
 62
     2
370
    -3
331
1862
  1
Color_2
330
187E
 90
        9
 62
     5
370
    -3
331
14
  1
Color_5
330
18B2
 90
        8
 62
     2
370
    -3
331
351
  1
Color_2
  0
XRECORD
  5
19C3
102
{ACAD_REACTORS
330
47C
102
}
330
47C
100
AcDbXrecord
280
     1
 91
     1023
301

290
     0
302
2
330
F
 90
        8
 62
     7
370
    -3
331
14
  1
Color_7
330
23
 90
        8
 62
     4
370
    50
331
14
  1
Color_4
330
24
 90
        8
 62
     4
370
    50
331
14
  1
Color_4
330
25
 90
        8
 62
     7
370
    25
331
14
  1
Color_7
330
27
 90
        8
 62
     7
370
    25
331
14
  1
Color_7
330
29
 90
        9
 62
     1
370
    35
331
20
  1
Color_1
330
2A
 90
        8
 62
     2
370
    25
331
471
  1
Color_2
330
2F
 90
        1
 62
     7
370
    -3
331
14
  1
Color_7
330
376
 90
        8
 62
     7
370
    25
331
14
  1
Color_7
330
472
 90
        0
 62
     9
370
    18
331
14
  1
Color_9
330
473
 90
        8
 62
     5
370
    -3
331
14
  1
Color_5
330
1861
 90
        9
 62
     2
370
    -3
331
1862
  1
Color_2
330
187E
 90
        9
 62
     5
370
    -3
331
14
  1
Color_5
330
18B2
 90
        8
 62
     2
370
    -3
331
351
  1
Color_2
  0
XRECORD
  5
19C4
102
{ACAD_REACTORS
330
47C
102
}
330
47C
100
AcDbXrecord
280
     1
 91
     1023
301

290
     0
302
2
330
F
 90
        8
 62
     7
370
    -3
331
14
  1
Color_7
330
23
 90
        8
 62
     4
370
    50
331
14
  1
Color_4
330
24
 90
        8
 62
     4
370
    50
331
14
  1
Color_4
330
25
 90
        8
 62
     7
370
    25
331
14
  1
Color_7
330
27
 90
        9
 62
     7
370
    25
331
14
  1
Color_7
330
29
 90
        9
 62
     1
370
    35
331
20
  1
Color_1
330
2A
 90
        8
 62
     2
370
    25
331
471
  1
Color_2
330
2F
 90
        1
 62
     7
370
    -3
331
14
  1
Color_7
330
376
 90
        8
 62
     7
370
    25
331
14
  1
Color_7
330
472
 90
        0
 62
     9
370
    18
331
14
  1
Color_9
330
473
 90
        8
 62
     5
370
    -3
331
14
  1
Color_5
330
1861
 90
        9
 62
     2
370
    -3
331
1862
  1
Color_2
330
187E
 90
        9
 62
     5
370
    -3
331
14
  1
Color_5
330
18B2
 90
        8
 62
     2
370
    -3
331
351
  1
Color_2
  0
XRECORD
  5
19C5
102
{ACAD_REACTORS
330
47C
102
}
330
47C
100
AcDbXrecord
280
     1
 91
     1023
301

290
     0
302
2
330
F
 90
        8
 62
     7
370
    -3
331
14
  1
Color_7
330
23
 90
        8
 62
     4
370
    50
331
14
  1
Color_4
330
24
 90
        8
 62
     4
370
    50
331
14
  1
Color_4
330
25
 90
        8
 62
     7
370
    25
331
14
  1
Color_7
330
27
 90
        8
 62
     7
370
    25
331
14
  1
Color_7
330
29
 90
        9
 62
     1
370
    35
331
20
  1
Color_1
330
2A
 90
        8
 62
     2
370
    25
331
471
  1
Color_2
330
2F
 90
        1
 62
     7
370
    -3
331
14
  1
Color_7
330
376
 90
        8
 62
     7
370
    25
331
14
  1
Color_7
330
472
 90
        0
 62
     9
370
    18
331
14
  1
Color_9
330
473
 90
        8
 62
     5
370
    -3
331
14
  1
Color_5
330
1861
 90
        9
 62
     2
370
    -3
331
1862
  1
Color_2
330
187E
 90
        9
 62
     5
370
    -3
331
14
  1
Color_5
330
18B2
 90
        8
 62
     2
370
    -3
331
351
  1
Color_2
  0
ENDSEC
  0
EOF
