  0
SECTION
  2
HEADER
  9
$ACADVER
  1
AC1015
  9
$ACADMAINTVER
 70
     6
  9
$DWGCODEPAGE
  3
DOS850
  9
$INSBASE
 10
0.000118
 20
0.001
 30
0.0
  9
$EXTMIN
 10
-63.966207
 20
-150.130373
 30
0.0
  9
$EXTMAX
 10
356.033793
 20
146.869627
 30
0.0
  9
$LIMMIN
 10
-63.966207
 20
-150.130373
  9
$LIMMAX
 10
356.033793
 20
146.869627
  9
$ORTHOMODE
 70
     1
  9
$REGENMODE
 70
     1
  9
$FILLMODE
 70
     1
  9
$QTEXTMODE
 70
     0
  9
$MIRRTEXT
 70
     1
  9
$LTSCALE
 40
1.0
  9
$ATTMODE
 70
     1
  9
$TEXTSIZE
 40
0.0
  9
$TRACEWID
 40
0.05
  9
$TEXTSTYLE
  7
Standard
  9
$CLAYER
  8
NOCUT
  9
$CELTYPE
  6
ByLayer
  9
$CECOLOR
 62
   256
  9
$CELTSCALE
 40
1.0
  9
$DISPSILH
 70
     0
  9
$DIMSCALE
 40
1.0
  9
$DIMASZ
 40
3.5
  9
$DIMEXO
 40
0.0625
  9
$DIMDLI
 40
0.38
  9
$DIMRND
 40
0.0
  9
$DIMDLE
 40
0.0
  9
$DIMEXE
 40
0.18
  9
$DIMTP
 40
0.0
  9
$DIMTM
 40
0.0
  9
$DIMTXT
 40
3.5
  9
$DIMCEN
 40
0.09
  9
$DIMTSZ
 40
0.0
  9
$DIMTOL
 70
     0
  9
$DIMLIM
 70
     0
  9
$DIMTIH
 70
     1
  9
$DIMTOH
 70
     1
  9
$DIMSE1
 70
     0
  9
$DIMSE2
 70
     0
  9
$DIMTAD
 70
     1
  9
$DIMZIN
 70
     0
  9
$DIMBLK
  1

  9
$DIMASO
 70
     1
  9
$DIMSHO
 70
     1
  9
$DIMPOST
  1

  9
$DIMAPOST
  1

  9
$DIMALT
 70
     0
  9
$DIMALTD
 70
     2
  9
$DIMALTF
 40
25.4
  9
$DIMLFAC
 40
1.0
  9
$DIMTOFL
 70
     0
  9
$DIMTVP
 40
0.0
  9
$DIMTIX
 70
     0
  9
$DIMSOXD
 70
     0
  9
$DIMSAH
 70
     0
  9
$DIMBLK1
  1

  9
$DIMBLK2
  1

  9
$DIMSTYLE
  2
Standard
  9
$DIMCLRD
 70
     0
  9
$DIMCLRE
 70
     0
  9
$DIMCLRT
 70
     0
  9
$DIMTFAC
 40
1.0
  9
$DIMGAP
 40
0.09
  9
$DIMJUST
 70
     0
  9
$DIMSD1
 70
     0
  9
$DIMSD2
 70
     0
  9
$DIMTOLJ
 70
     1
  9
$DIMTZIN
 70
     0
  9
$DIMALTZ
 70
     0
  9
$DIMALTTZ
 70
     0
  9
$DIMUPT
 70
     0
  9
$DIMDEC
 70
     4
  9
$DIMTDEC
 70
     4
  9
$DIMALTU
 70
     2
  9
$DIMALTTD
 70
     2
  9
$DIMTXSTY
  7
Standard
  9
$DIMAUNIT
 70
     0
  9
$DIMADEC
 70
     0
  9
$DIMALTRND
 40
0.0
  9
$DIMAZIN
 70
     0
  9
$DIMDSEP
 70
    46
  9
$DIMATFIT
 70
     3
  9
$DIMFRAC
 70
     0
  9
$DIMLDRBLK
  1

  9
$DIMLUNIT
 70
     2
  9
$DIMLWD
 70
     0
  9
$DIMLWE
 70
     0
  9
$DIMTMOVE
 70
     0
  9
$LUNITS
 70
     2
  9
$LUPREC
 70
     2
  9
$SKETCHINC
 40
0.1
  9
$FILLETRAD
 40
0.0
  9
$AUNITS
 70
     0
  9
$AUPREC
 70
     0
  9
$MENU
  1
acad
  9
$ELEVATION
 40
0.0
  9
$PELEVATION
 40
0.0
  9
$THICKNESS
 40
0.0
  9
$LIMCHECK
 70
     0
  9
$CHAMFERA
 40
0.0
  9
$CHAMFERB
 40
0.0
  9
$CHAMFERC
 40
0.0
  9
$CHAMFERD
 40
0.0
  9
$SKPOLY
 70
     0
  9
$TDCREATE
 40
2447893.041666667
  9
$TDUCREATE
 40
0.0
  9
$TDUPDATE
 40
2456646.547078901
  9
$TDUUPDATE
 40
2456646.505412234
  9
$TDINDWG
 40
0.0
  9
$TDUSRTIMER
 40
2456646.505190324
  9
$USRTIMER
 70
     1
  9
$ANGBASE
 50
0.0
  9
$ANGDIR
 70
     0
  9
$PDMODE
 70
     0
  9
$PDSIZE
 40
0.0
  9
$PLINEWID
 40
0.0
  9
$SPLFRAME
 70
     0
  9
$SPLINETYPE
 70
     6
  9
$SPLINESEGS
 70
     8
  9
$HANDSEED
  5
9A7
  9
$SURFTAB1
 70
     6
  9
$SURFTAB2
 70
     6
  9
$SURFTYPE
 70
     6
  9
$SURFU
 70
     6
  9
$SURFV
 70
     6
  9
$UCSBASE
  2

  9
$UCSNAME
  2

  9
$UCSORG
 10
0.0
 20
0.0
 30
0.0
  9
$UCSXDIR
 10
1.0
 20
0.0
 30
0.0
  9
$UCSYDIR
 10
0.0
 20
1.0
 30
0.0
  9
$UCSORTHOREF
  2

  9
$UCSORTHOVIEW
 70
     0
  9
$UCSORGTOP
 10
0.0
 20
0.0
 30
0.0
  9
$UCSORGBOTTOM
 10
0.0
 20
0.0
 30
0.0
  9
$UCSORGLEFT
 10
0.0
 20
0.0
 30
0.0
  9
$UCSORGRIGHT
 10
0.0
 20
0.0
 30
0.0
  9
$UCSORGFRONT
 10
0.0
 20
0.0
 30
0.0
  9
$UCSORGBACK
 10
0.0
 20
0.0
 30
0.0
  9
$PUCSBASE
  2

  9
$PUCSNAME
  2

  9
$PUCSORG
 10
0.0
 20
0.0
 30
0.0
  9
$PUCSXDIR
 10
1.0
 20
0.0
 30
0.0
  9
$PUCSYDIR
 10
0.0
 20
1.0
 30
0.0
  9
$PUCSORTHOREF
  2

  9
$PUCSORTHOVIEW
 70
     0
  9
$PUCSORGTOP
 10
0.0
 20
0.0
 30
0.0
  9
$PUCSORGBOTTOM
 10
0.0
 20
0.0
 30
0.0
  9
$PUCSORGLEFT
 10
0.0
 20
0.0
 30
0.0
  9
$PUCSORGRIGHT
 10
0.0
 20
0.0
 30
0.0
  9
$PUCSORGFRONT
 10
0.0
 20
0.0
 30
0.0
  9
$PUCSORGBACK
 10
0.0
 20
0.0
 30
0.0
  9
$USERI1
 70
     0
  9
$USERI2
 70
     0
  9
$USERI3
 70
     0
  9
$USERI4
 70
     0
  9
$USERI5
 70
     0
  9
$USERR1
 40
0.0
  9
$USERR2
 40
0.0
  9
$USERR3
 40
0.0
  9
$USERR4
 40
0.0
  9
$USERR5
 40
0.0
  9
$WORLDVIEW
 70
     1
  9
$SHADEDGE
 70
     3
  9
$SHADEDIF
 70
    70
  9
$TILEMODE
 70
     1
  9
$MAXACTVP
 70
    16
  9
$PINSBASE
 10
0.0
 20
0.0
 30
0.0
  9
$PLIMCHECK
 70
     0
  9
$PEXTMIN
 10
1.000000000000000E+20
 20
1.000000000000000E+20
 30
1.000000000000000E+20
  9
$PEXTMAX
 10
-1.000000000000000E+20
 20
-1.000000000000000E+20
 30
-1.000000000000000E+20
  9
$PLIMMIN
 10
0.0
 20
0.0
  9
$PLIMMAX
 10
0.0
 20
0.0
  9
$UNITMODE
 70
     0
  9
$VISRETAIN
 70
     0
  9
$PLINEGEN
 70
     1
  9
$PSLTSCALE
 70
     0
  9
$TREEDEPTH
 70
  3020
  9
$CMLSTYLE
  2
Standard
  9
$CMLJUST
 70
     0
  9
$CMLSCALE
 40
1.0
  9
$PROXYGRAPHICS
 70
     0
  9
$MEASUREMENT
 70
     0
  9
$CELWEIGHT
370
     0
  9
$ENDCAPS
280
     0
  9
$JOINSTYLE
280
     0
  9
$LWDISPLAY
290
     0
  9
$INSUNITS
 70
     0
  9
$HYPERLINKBASE
  1

  9
$STYLESHEET
  1

  9
$XEDIT
290
     1
  9
$CEPSNTYPE
380
     0
  9
$PSTYLEMODE
290
     1
  9
$FINGERPRINTGUID
  2

  9
$VERSIONGUID
  2

  9
$EXTNAMES
290
     1
  9
$PSVPSCALE
 40
0.0
  9
$OLESTARTUP
290
     0
  0
ENDSEC
  0
SECTION
  2
CLASSES
  0
CLASS
  1
LWPOLYLINE
  2
AcDbPolyline
  3
AutoCAD 2000
 90
        0
280
     0
281
     1
  0
CLASS
  1
IMAGE
  2
AcDbRasterImage
  3
ISM
 90
      127
280
     0
281
     1
  0
CLASS
  1
OLE2FRAME
  2
AcDbOle2Frame
  3
AutoCAD 2000
 90
        0
280
     0
281
     1
  0
CLASS
  1
HATCH
  2
AcDbHatch
  3
AutoCAD 2000
 90
        0
280
     0
281
     1
  0
CLASS
  1
DICTIONARYVAR
  2
AcDbDictionaryVar
  3
ObjectDBX Classes
 90
        0
280
     0
281
     0
  0
CLASS
  1
RASTERVARIABLES
  2
AcDbRasterVariables
  3
ISM
 90
        0
280
     0
281
     0
  0
CLASS
  1
IMAGEDEF
  2
AcDbRasterImageDef
  3
ISM
 90
        0
280
     0
281
     0
  0
CLASS
  1
IMAGEDEF_REACTOR
  2
AcDbRasterImageDefReactor
  3
ISM
 90
        1
280
     0
281
     0
  0
CLASS
  1
IDBUFFER
  2
AcDbIdBuffer
  3
ObjectDBX Classes
 90
        0
280
     0
281
     0
  0
CLASS
  1
SPATIAL_FILTER
  2
AcDbSpatialFilter
  3
ObjectDBX Classes
 90
        0
280
     0
281
     0
  0
CLASS
  1
XRECORD
  2
AcDbXrecord
  3
AutoCAD 2000
 90
        0
280
     0
281
     0
  0
CLASS
  1
SORTENTSTABLE
  2
AcDbSortentsTable
  3
ObjectDBX Classes
 90
        0
280
     0
281
     0
  0
CLASS
  1
LAYER_INDEX
  2
AcDbLayerIndex
  3
ObjectDBX Classes
 90
        0
280
     0
281
     0
  0
CLASS
  1
SPATIAL_INDEX
  2
AcDbSpatialIndex
  3
AutoCAD 2000
 90
        0
280
     0
281
     0
  0
CLASS
  1
OBJECT_PTR
  2
CAseDLPNTableRecord
  3
ASE-LPNTableRecord
 90
        1
280
     0
281
     0
  0
CLASS
  1
LAYOUT
  2
AcDbLayout
  3
ObjectDBX Classes
 90
        0
280
     0
281
     0
  0
CLASS
  1
PLOTSETTINGS
  2
AcDbPlotSettings
  3
ObjectDBX Classes
 90
        0
280
     0
281
     0
  0
CLASS
  1
ACDBDICTIONARYWDFLT
  2
AcDbDictionaryWithDefault
  3
ObjectDBX Classes
 90
        0
280
     0
281
     0
  0
CLASS
  1
ACDBPLACEHOLDER
  2
AcDbPlaceHolder
  3
ObjectDBX Classes
 90
        0
280
     0
281
     0
  0
CLASS
  1
SCALE
  2
AcDbScale
  3
ObjectDBX Classes
 90
     1153
280
     0
281
     0
  0
CLASS
  1
MATERIAL
  2
AcDbMaterial
  3
ObjectDBX Classes
 90
     1153
280
     0
281
     0
  0
CLASS
  1
VISUALSTYLE
  2
AcDbVisualStyle
  3
ObjectDBX Classes
 90
     4095
280
     0
281
     0
  0
CLASS
  1
TABLESTYLE
  2
AcDbTableStyle
  3
ObjectDBX Classes
 90
     4095
280
     0
281
     0
  0
CLASS
  1
DIMASSOC
  2
AcDbDimAssoc
  3
"AcDbDimAssoc|Product Desc:     AcDim ARX App For Dimension|Company:          Autodesk, Inc.|WEB Address:      www.autodesk.com"
 90
        0
280
     0
281
     0
  0
ENDSEC
  0
SECTION
  2
TABLES
  0
TABLE
  2
VPORT
  5
7
330
0
100
AcDbSymbolTable
 70
     1
  0
VPORT
  5
15
330
7
100
AcDbSymbolTableRecord
100
AcDbViewportTableRecord
  2
*ACTIVE
 70
     0
 10
0.0
 20
0.0
 11
1.0
 21
1.0
 12
164.4754118025321
 22
163.6423973518557
 13
0.0
 23
0.0
 14
1.0
 24
1.0
 15
0.0
 25
0.0
 16
0.0
 26
0.0
 36
1.0
 17
-63.96620699999983
 27
-150.1303729999999
 37
0.0
 40
166.1424693254697
 41
1.9984
 42
50.0
 43
0.0
 44
0.0
 50
0.0
 51
0.0
 71
    16
 72
   100
 73
     1
 74
     1
 75
     0
 76
     0
 77
     0
 78
     0
281
     0
 65
     0
110
0.0
120
0.0
130
0.0
111
1.0
121
0.0
131
0.0
112
0.0
122
1.0
132
0.0
 79
     0
146
0.0
  0
ENDTAB
  0
TABLE
  2
LTYPE
  5
4
330
0
100
AcDbSymbolTable
 70
     6
  0
LTYPE
  5
11
330
4
100
AcDbSymbolTableRecord
100
AcDbLinetypeTableRecord
  2
ByBlock
 70
     0
  3

 72
    65
 73
     0
 40
0.0
  0
LTYPE
  5
12
330
4
100
AcDbSymbolTableRecord
100
AcDbLinetypeTableRecord
  2
ByLayer
 70
     0
  3

 72
    65
 73
     0
 40
0.0
  0
LTYPE
  5
13
330
4
100
AcDbSymbolTableRecord
100
AcDbLinetypeTableRecord
  2
Continuous
 70
     0
  3
Solid line
 72
    65
 73
     0
 40
0.0
  0
LTYPE
  5
53
330
4
100
AcDbSymbolTableRecord
100
AcDbLinetypeTableRecord
  2
SK-CENTER
 70
     0
  3
Solid line
 72
    65
 73
     0
 40
0.0
  0
LTYPE
  5
55
330
4
100
AcDbSymbolTableRecord
100
AcDbLinetypeTableRecord
  2
CENTER
 70
     0
  3
__ . __ . __ . __ . __
 72
    65
 73
     4
 40
4.0
 49
2.0
 74
     0
 49
-0.9
 74
     0
 49
0.2
 74
     0
 49
-0.9
 74
     0
  0
LTYPE
  5
7D
330
4
100
AcDbSymbolTableRecord
100
AcDbLinetypeTableRecord
  2
DASHED
 70
     0
  3
__ __ __ __ __
 72
    65
 73
     2
 40
4.0
 49
2.0
 74
     0
 49
-2.0
 74
     0
  0
LTYPE
  5
B1
330
4
100
AcDbSymbolTableRecord
100
AcDbLinetypeTableRecord
  2
DASHDOT
 70
     0
  3
__ . __ . __ . __ . __
 72
    65
 73
     4
 40
4.0
 49
2.0
 74
     0
 49
-0.9
 74
     0
 49
0.2
 74
     0
 49
-0.9
 74
     0
  0
LTYPE
  5
34C
330
4
100
AcDbSymbolTableRecord
100
AcDbLinetypeTableRecord
  2
AM_DIN_G_W050x2
 70
     0
  3
__ . __ . __ . __ . __ . __
 72
    65
 73
     4
 40
6.875
 49
4.75
 74
     0
 49
-0.875
 74
     0
 49
0.375
 74
     0
 49
-0.875
 74
     0
  0
ENDTAB
  0
TABLE
  2
LAYER
  5
2
102
{ACAD_XDICTIONARY
360
26B
102
}
330
0
100
AcDbSymbolTable
 70
    15
  0
LAYER
  5
14
330
2
100
AcDbSymbolTableRecord
100
AcDbLayerTableRecord
  2
0
 70
     0
 62
     7
  6
Continuous
370
    -3
390
1D
  0
LAYER
  5
29
330
2
100
AcDbSymbolTableRecord
100
AcDbLayerTableRecord
  2
LC-INFO-1-1-mm-A3-0
 70
     1
 62
    -1
  6
Continuous
370
    -3
390
1F
  0
LAYER
  5
34
330
2
100
AcDbSymbolTableRecord
100
AcDbLayerTableRecord
  2
SK1
 70
     0
 62
     4
  6
Continuous
370
    -3
390
1F
  0
LAYER
  5
36
330
2
100
AcDbSymbolTableRecord
100
AcDbLayerTableRecord
  2
1
 70
     0
 62
     4
  6
Continuous
370
    -3
390
1F
  0
LAYER
  5
54
330
2
100
AcDbSymbolTableRecord
100
AcDbLayerTableRecord
  2
SK4
 70
     0
 62
     2
  6
AM_DIN_G_W050x2
370
    -3
390
1F
  0
LAYER
  5
7E
330
2
100
AcDbSymbolTableRecord
100
AcDbLayerTableRecord
  2
SK3
 70
     0
 62
     1
  6
DASHED
370
    -3
390
1F
  0
LAYER
  5
93
330
2
100
AcDbSymbolTableRecord
100
AcDbLayerTableRecord
  2
SK2
 70
     0
 62
     7
  6
Continuous
370
    -3
390
1F
  0
LAYER
  5
B2
330
2
100
AcDbSymbolTableRecord
100
AcDbLayerTableRecord
  2
LC-011-006-MLN-0
 70
     0
 62
     2
  6
CENTER
370
    -3
390
1F
  0
LAYER
  5
EE
330
2
100
AcDbSymbolTableRecord
100
AcDbLayerTableRecord
  2
2
 70
     0
 62
     7
  6
Continuous
370
    -3
390
1F
  0
LAYER
  5
1D5
330
2
100
AcDbSymbolTableRecord
100
AcDbLayerTableRecord
  2
LC-000
 70
     0
 62
     7
  6
Continuous
370
    -3
390
1F
  0
LAYER
  5
223
330
2
100
AcDbSymbolTableRecord
100
AcDbLayerTableRecord
  2
INFTOTAL
 70
     0
 62
     9
  6
Continuous
290
     0
370
    18
390
1D
1001
AcAecLayerStandard
1000

1000

  0
LAYER
  5
24B
330
2
100
AcDbSymbolTableRecord
100
AcDbLayerTableRecord
  2
NOCUT
 70
     0
 62
     7
  6
Continuous
370
    25
390
1D
  0
LAYER
  5
27D
330
2
100
AcDbSymbolTableRecord
100
AcDbLayerTableRecord
  2
Defpoints
 70
     0
 62
     7
  6
Continuous
290
     0
370
    -3
390
1D
  0
LAYER
  5
2DD
330
2
100
AcDbSymbolTableRecord
100
AcDbLayerTableRecord
  2
INFTEXT63
 70
     0
 62
     5
  6
Continuous
370
    -3
390
1D
1001
AcAecLayerStandard
1000

1000

  0
LAYER
  5
5D7
330
2
100
AcDbSymbolTableRecord
100
AcDbLayerTableRecord
  2
SK6
 70
     0
 62
     5
  6
Continuous
370
    -3
390
1F
  0
ENDTAB
  0
TABLE
  2
STYLE
  5
3
330
0
100
AcDbSymbolTable
 70
     8
  0
STYLE
  5
17
330
3
100
AcDbSymbolTableRecord
100
AcDbTextStyleTableRecord
  2
Standard
 70
     0
 40
0.0
 41
1.0
 50
0.0
 71
     0
 42
0.0
  3
txt
  4

  0
STYLE
  5
26
330
3
100
AcDbSymbolTableRecord
100
AcDbTextStyleTableRecord
  2
LC-TXTSTYLE-150-400-0-0-DIN-Schrift
 70
     0
 40
0.0
 41
1.0
 50
15.0
 71
     0
 42
3.5
  3
MONOTXT
  4

  0
STYLE
  5
28
330
3
100
AcDbSymbolTableRecord
100
AcDbTextStyleTableRecord
  2
LC-TXTSTYLE-150-400-0-0-Normschrift nach DIN 6776
 70
     0
 40
0.0
 41
1.0
 50
15.0
 71
     0
 42
3.5
  3
MONOTXT
  4

  0
STYLE
  5
2A
330
3
100
AcDbSymbolTableRecord
100
AcDbTextStyleTableRecord
  2
LC-STANDARD
 70
     0
 40
0.0
 41
1.0
 50
0.0
 71
     0
 42
3.5
  3
MONOTXT
  4

  0
STYLE
  5
2B
330
3
100
AcDbSymbolTableRecord
100
AcDbTextStyleTableRecord
  2
LC-TXTSTYLE-0-400-0-0-DIN-Schrift
 70
     0
 40
0.0
 41
1.0
 50
0.0
 71
     0
 42
3.5
  3
MONOTXT
  4

  0
STYLE
  5
2C
330
3
100
AcDbSymbolTableRecord
100
AcDbTextStyleTableRecord
  2
LC-TXTSTYLE-0-400-0-0-Normschrift nach DIN 6776
 70
     0
 40
0.0
 41
1.0
 50
0.0
 71
     0
 42
3.5
  3
MONOTXT
  4

  0
STYLE
  5
226
330
3
100
AcDbSymbolTableRecord
100
AcDbTextStyleTableRecord
  2
SIMPLEX
 70
     0
 40
0.0
 41
1.0
 50
0.0
 71
     0
 42
3.5
  3
simplex
  4

  0
STYLE
  5
329
330
3
100
AcDbSymbolTableRecord
100
AcDbTextStyleTableRecord
  2
BMG_Text
 70
     0
 40
3.5
 41
1.0
 50
0.0
 71
     0
 42
0.2
  3
monos.ttf
  4

1001
ACAD
1000
Monospac821 BT
1071
       49
  0
ENDTAB
  0
TABLE
  2
VIEW
  5
5
330
0
100
AcDbSymbolTable
 70
     0
  0
ENDTAB
  0
TABLE
  2
UCS
  5
6
330
0
100
AcDbSymbolTable
 70
     0
  0
ENDTAB
  0
TABLE
  2
APPID
  5
8
330
0
100
AcDbSymbolTable
 70
     5
  0
APPID
  5
16
330
8
100
AcDbSymbolTableRecord
100
AcDbRegAppTableRecord
  2
ACAD
 70
     0
  0
APPID
  5
224
330
8
100
AcDbSymbolTableRecord
100
AcDbRegAppTableRecord
  2
AcAecLayerStandard
 70
     0
  0
APPID
  5
227
330
8
100
AcDbSymbolTableRecord
100
AcDbRegAppTableRecord
  2
ACAD_PSEXT
 70
     0
  0
APPID
  5
7DB
330
8
100
AcDbSymbolTableRecord
100
AcDbRegAppTableRecord
  2
ACAD_DSTYLE_DIMFLIPARROW_SYMBOL
 70
     0
  0
APPID
  5
7DC
330
8
100
AcDbSymbolTableRecord
100
AcDbRegAppTableRecord
  2
ACAD_DSTYLE_DIMFLIPARROW_WHICH_SYMBOL
 70
     0
  0
ENDTAB
  0
TABLE
  2
DIMSTYLE
  5
9
330
0
100
AcDbSymbolTable
 70
     5
100
AcDbDimStyleTable
  0
DIMSTYLE
105
18
330
9
100
AcDbSymbolTableRecord
100
AcDbDimStyleTableRecord
  2
Standard
 70
     0
178
     0
340
17
  0
DIMSTYLE
105
24
330
9
100
AcDbSymbolTableRecord
100
AcDbDimStyleTableRecord
  2
LC-STANDARD
 70
     0
 41
3.5
 42
0.0
 43
7.5
 44
1.8
 73
     0
 74
     0
 77
     1
 78
     8
140
3.5
141
0.0
146
0.71
147
1.5
172
     1
178
     3
340
0
  0
DIMSTYLE
105
25
102
{ACAD_REACTORS
102
}
330
9
100
AcDbSymbolTableRecord
100
AcDbDimStyleTableRecord
  2
LC-DIM-L-0035-03-02
 70
     0
 41
3.5
 42
0.0
 43
7.5
 44
1.8
 73
     0
 74
     0
 77
     1
 78
     8
140
3.5
141
0.0
146
0.71
147
1.5
176
     2
177
     2
271
     3
178
     3
271
     3
340
26
  0
DIMSTYLE
105
27
102
{ACAD_REACTORS
102
}
330
9
100
AcDbSymbolTableRecord
100
AcDbDimStyleTableRecord
  2
LC-DIM-L-0035-02-02
 70
     0
 41
3.5
 42
0.0
 43
7.5
 44
1.8
 73
     0
 74
     0
 77
     1
 78
     8
140
3.5
141
0.0
146
0.71
147
1.5
176
     2
177
     2
271
     2
178
     3
271
     2
340
28
  0
DIMSTYLE
105
289
102
{ACAD_REACTORS
330
892
330
89F
330
8AC
330
8B9
330
8C6
330
8D3
330
8E0
330
8ED
330
8FA
330
97B
330
97C
330
97D
330
97E
330
97F
330
980
330
981
330
982
330
983
102
}
330
9
100
AcDbSymbolTableRecord
100
AcDbDimStyleTableRecord
  2
BMG
 70
     0
 41
4.57
 42
0.0
 43
2.379999999999999
 44
5.0
 47
0.3
 48
0.3
 73
     0
 74
     0
 78
     9
 79
     2
140
3.5
141
0.0
147
1.0
271
     2
178
     7
271
     2
272
     2
284
     8
340
17
341
28B
342
28B
  0
ENDTAB
  0
TABLE
  2
BLOCK_RECORD
  5
1
330
0
100
AcDbSymbolTable
 70
    67
  0
BLOCK_RECORD
  5
A
330
1
100
AcDbSymbolTableRecord
100
AcDbBlockTableRecord
  2
*MODEL_SPACE
340
20
  0
BLOCK_RECORD
  5
B
330
1
100
AcDbSymbolTableRecord
100
AcDbBlockTableRecord
  2
*PAPER_SPACE
340
21
  0
BLOCK_RECORD
  5
2D
330
1
100
AcDbSymbolTableRecord
100
AcDbBlockTableRecord
  2
BLK1
340
0
102
{BLKREFS
331
30
102
}
  0
BLOCK_RECORD
  5
31
330
1
100
AcDbSymbolTableRecord
100
AcDbBlockTableRecord
  2
BLK2
340
0
102
{BLKREFS
331
35
102
}
  0
BLOCK_RECORD
  5
4F
330
1
100
AcDbSymbolTableRecord
100
AcDbBlockTableRecord
  2
BLK3
340
0
102
{BLKREFS
331
52
102
}
  0
BLOCK_RECORD
  5
70
330
1
100
AcDbSymbolTableRecord
100
AcDbBlockTableRecord
  2
BLK4
340
0
102
{BLKREFS
331
73
102
}
  0
BLOCK_RECORD
  5
79
330
1
100
AcDbSymbolTableRecord
100
AcDbBlockTableRecord
  2
BLK5
340
0
102
{BLKREFS
331
7C
102
}
  0
BLOCK_RECORD
  5
8D
330
1
100
AcDbSymbolTableRecord
100
AcDbBlockTableRecord
  2
BLK6
340
0
102
{BLKREFS
331
90
102
}
  0
BLOCK_RECORD
  5
91
330
1
100
AcDbSymbolTableRecord
100
AcDbBlockTableRecord
  2
*D6
340
0
  0
BLOCK_RECORD
  5
AD
330
1
100
AcDbSymbolTableRecord
100
AcDbBlockTableRecord
  2
BLK7
340
0
102
{BLKREFS
331
B0
102
}
  0
BLOCK_RECORD
  5
B4
330
1
100
AcDbSymbolTableRecord
100
AcDbBlockTableRecord
  2
*D8
340
0
  0
BLOCK_RECORD
  5
CE
330
1
100
AcDbSymbolTableRecord
100
AcDbBlockTableRecord
  2
*D9
340
0
  0
BLOCK_RECORD
  5
E8
330
1
100
AcDbSymbolTableRecord
100
AcDbBlockTableRecord
  2
BLK8
340
0
102
{BLKREFS
331
EB
102
}
  0
BLOCK_RECORD
  5
EC
330
1
100
AcDbSymbolTableRecord
100
AcDbBlockTableRecord
  2
*D11
340
0
  0
BLOCK_RECORD
  5
108
330
1
100
AcDbSymbolTableRecord
100
AcDbBlockTableRecord
  2
BLK9
340
0
102
{BLKREFS
331
10B
102
}
  0
BLOCK_RECORD
  5
10C
330
1
100
AcDbSymbolTableRecord
100
AcDbBlockTableRecord
  2
BLK10
340
0
102
{BLKREFS
331
10F
102
}
  0
BLOCK_RECORD
  5
120
330
1
100
AcDbSymbolTableRecord
100
AcDbBlockTableRecord
  2
BLK11
340
0
102
{BLKREFS
331
123
102
}
  0
BLOCK_RECORD
  5
127
330
1
100
AcDbSymbolTableRecord
100
AcDbBlockTableRecord
  2
BLK12
340
0
102
{BLKREFS
331
12A
102
}
  0
BLOCK_RECORD
  5
12B
330
1
100
AcDbSymbolTableRecord
100
AcDbBlockTableRecord
  2
*D16
340
0
  0
BLOCK_RECORD
  5
145
330
1
100
AcDbSymbolTableRecord
100
AcDbBlockTableRecord
  2
*D17
340
0
  0
BLOCK_RECORD
  5
15F
330
1
100
AcDbSymbolTableRecord
100
AcDbBlockTableRecord
  2
*D18
340
0
  0
BLOCK_RECORD
  5
179
330
1
100
AcDbSymbolTableRecord
100
AcDbBlockTableRecord
  2
BLK13
340
0
102
{BLKREFS
331
17C
331
7AA
102
}
  0
BLOCK_RECORD
  5
17D
330
1
100
AcDbSymbolTableRecord
100
AcDbBlockTableRecord
  2
*D20
340
0
  0
BLOCK_RECORD
  5
19A
330
1
100
AcDbSymbolTableRecord
100
AcDbBlockTableRecord
  2
*D21
340
0
  0
BLOCK_RECORD
  5
1B4
330
1
100
AcDbSymbolTableRecord
100
AcDbBlockTableRecord
  2
*D22
340
0
  0
BLOCK_RECORD
  5
28B
330
1
100
AcDbSymbolTableRecord
100
AcDbBlockTableRecord
  2
_ARROW_FILLED
340
0
102
{BLKREFS
331
F3
331
F4
331
131
331
132
331
14B
331
14C
331
165
331
166
331
183
331
184
331
1A0
331
1A1
331
1BA
331
1BB
331
2AC
331
2AD
331
2C0
331
2C1
331
2CF
331
2D0
331
388
331
389
331
39B
331
39C
331
3AD
331
3AE
331
3BE
331
3BF
331
3CD
331
3CE
331
3DE
331
3DF
331
3EE
331
3EF
331
3FF
331
400
331
40F
331
410
331
420
331
421
331
4E5
331
4E6
331
4F2
331
4F3
331
4FF
331
500
331
50C
331
50D
331
519
331
51A
331
526
331
527
331
533
331
534
331
540
331
541
331
54D
331
54E
331
647
331
648
331
656
331
657
331
663
331
664
331
67D
331
67E
331
6AE
331
6AF
331
6E0
331
6E1
331
709
331
70A
331
730
331
731
102
}
  0
BLOCK_RECORD
  5
2A6
330
1
100
AcDbSymbolTableRecord
100
AcDbBlockTableRecord
  2
*D24
340
0
  0
BLOCK_RECORD
  5
2BB
330
1
100
AcDbSymbolTableRecord
100
AcDbBlockTableRecord
  2
*D25
340
0
  0
BLOCK_RECORD
  5
2CA
330
1
100
AcDbSymbolTableRecord
100
AcDbBlockTableRecord
  2
*D26
340
0
  0
BLOCK_RECORD
  5
384
330
1
100
AcDbSymbolTableRecord
100
AcDbBlockTableRecord
  2
*D27
340
0
  0
BLOCK_RECORD
  5
397
330
1
100
AcDbSymbolTableRecord
100
AcDbBlockTableRecord
  2
*D28
340
0
  0
BLOCK_RECORD
  5
3A9
330
1
100
AcDbSymbolTableRecord
100
AcDbBlockTableRecord
  2
*D29
340
0
  0
BLOCK_RECORD
  5
3BA
330
1
100
AcDbSymbolTableRecord
100
AcDbBlockTableRecord
  2
*D30
340
0
  0
BLOCK_RECORD
  5
3C9
330
1
100
AcDbSymbolTableRecord
100
AcDbBlockTableRecord
  2
*D31
340
0
  0
BLOCK_RECORD
  5
3DA
330
1
100
AcDbSymbolTableRecord
100
AcDbBlockTableRecord
  2
*D32
340
0
  0
BLOCK_RECORD
  5
3EA
330
1
100
AcDbSymbolTableRecord
100
AcDbBlockTableRecord
  2
*D33
340
0
  0
BLOCK_RECORD
  5
3FB
330
1
100
AcDbSymbolTableRecord
100
AcDbBlockTableRecord
  2
*D34
340
0
  0
BLOCK_RECORD
  5
40B
330
1
100
AcDbSymbolTableRecord
100
AcDbBlockTableRecord
  2
*D35
340
0
  0
BLOCK_RECORD
  5
41C
330
1
100
AcDbSymbolTableRecord
100
AcDbBlockTableRecord
  2
*D36
340
0
  0
BLOCK_RECORD
  5
4E0
330
1
100
AcDbSymbolTableRecord
100
AcDbBlockTableRecord
  2
*D37
340
0
  0
BLOCK_RECORD
  5
4ED
330
1
100
AcDbSymbolTableRecord
100
AcDbBlockTableRecord
  2
*D38
340
0
  0
BLOCK_RECORD
  5
4FA
330
1
100
AcDbSymbolTableRecord
100
AcDbBlockTableRecord
  2
*D39
340
0
  0
BLOCK_RECORD
  5
507
330
1
100
AcDbSymbolTableRecord
100
AcDbBlockTableRecord
  2
*D40
340
0
  0
BLOCK_RECORD
  5
514
330
1
100
AcDbSymbolTableRecord
100
AcDbBlockTableRecord
  2
*D41
340
0
  0
BLOCK_RECORD
  5
521
330
1
100
AcDbSymbolTableRecord
100
AcDbBlockTableRecord
  2
*D42
340
0
  0
BLOCK_RECORD
  5
52E
330
1
100
AcDbSymbolTableRecord
100
AcDbBlockTableRecord
  2
*D43
340
0
  0
BLOCK_RECORD
  5
53B
330
1
100
AcDbSymbolTableRecord
100
AcDbBlockTableRecord
  2
*D44
340
0
  0
BLOCK_RECORD
  5
548
330
1
100
AcDbSymbolTableRecord
100
AcDbBlockTableRecord
  2
*D45
340
0
  0
BLOCK_RECORD
  5
641
330
1
100
AcDbSymbolTableRecord
100
AcDbBlockTableRecord
  2
*D46
340
0
  0
BLOCK_RECORD
  5
650
330
1
100
AcDbSymbolTableRecord
100
AcDbBlockTableRecord
  2
*D47
340
0
  0
BLOCK_RECORD
  5
65D
330
1
100
AcDbSymbolTableRecord
100
AcDbBlockTableRecord
  2
*D48
340
0
  0
BLOCK_RECORD
  5
677
330
1
100
AcDbSymbolTableRecord
100
AcDbBlockTableRecord
  2
*D49
340
0
  0
BLOCK_RECORD
  5
6A6
330
1
100
AcDbSymbolTableRecord
100
AcDbBlockTableRecord
  2
*D50
340
0
  0
BLOCK_RECORD
  5
6C0
330
1
100
AcDbSymbolTableRecord
100
AcDbBlockTableRecord
  2
*D51
340
0
  0
BLOCK_RECORD
  5
6DA
330
1
100
AcDbSymbolTableRecord
100
AcDbBlockTableRecord
  2
*D52
340
0
  0
BLOCK_RECORD
  5
6FF
330
1
100
AcDbSymbolTableRecord
100
AcDbBlockTableRecord
  2
BLK14
340
0
102
{BLKREFS
331
7B0
102
}
  0
BLOCK_RECORD
  5
703
330
1
100
AcDbSymbolTableRecord
100
AcDbBlockTableRecord
  2
*D54
340
0
  0
BLOCK_RECORD
  5
72A
330
1
100
AcDbSymbolTableRecord
100
AcDbBlockTableRecord
  2
*D55
340
0
  0
BLOCK_RECORD
  5
893
330
1
100
AcDbSymbolTableRecord
100
AcDbBlockTableRecord
  2
*D57
340
0
  0
BLOCK_RECORD
  5
8A0
330
1
100
AcDbSymbolTableRecord
100
AcDbBlockTableRecord
  2
*D58
340
0
  0
BLOCK_RECORD
  5
8AD
330
1
100
AcDbSymbolTableRecord
100
AcDbBlockTableRecord
  2
*D59
340
0
  0
BLOCK_RECORD
  5
8BA
330
1
100
AcDbSymbolTableRecord
100
AcDbBlockTableRecord
  2
*D60
340
0
  0
BLOCK_RECORD
  5
8C7
330
1
100
AcDbSymbolTableRecord
100
AcDbBlockTableRecord
  2
*D61
340
0
  0
BLOCK_RECORD
  5
8D4
330
1
100
AcDbSymbolTableRecord
100
AcDbBlockTableRecord
  2
*D62
340
0
  0
BLOCK_RECORD
  5
8E1
330
1
100
AcDbSymbolTableRecord
100
AcDbBlockTableRecord
  2
*D63
340
0
  0
BLOCK_RECORD
  5
8EE
330
1
100
AcDbSymbolTableRecord
100
AcDbBlockTableRecord
  2
*D64
340
0
  0
BLOCK_RECORD
  5
8FB
330
1
100
AcDbSymbolTableRecord
100
AcDbBlockTableRecord
  2
*D65
340
0
  0
ENDTAB
  0
ENDSEC
  0
SECTION
  2
BLOCKS
  0
BLOCK
  5
D
330
A
100
AcDbEntity
  8
0
100
AcDbBlockBegin
  2
*MODEL_SPACE
 70
     0
 10
0.0
 20
0.0
 30
0.0
  3
*MODEL_SPACE
  1

  0
ENDBLK
  5
E
330
A
100
AcDbEntity
  8
0
100
AcDbBlockEnd
  0
BLOCK
  5
F
330
B
100
AcDbEntity
 67
     1
  8
0
100
AcDbBlockBegin
  2
*PAPER_SPACE
 70
     0
 10
0.0
 20
0.0
 30
0.0
  3
*PAPER_SPACE
  1

  0
ENDBLK
  5
10
330
B
100
AcDbEntity
 67
     1
  8
0
100
AcDbBlockEnd
  0
BLOCK
  5
2E
330
2D
100
AcDbEntity
  8
0
100
AcDbBlockBegin
  2
BLK1
 70
     0
 10
0.0
 20
0.0
 30
0.0
  3
BLK1
  1

  0
ENDBLK
  5
2F
330
2D
100
AcDbEntity
  8
0
100
AcDbBlockEnd
  0
BLOCK
  5
32
330
31
100
AcDbEntity
  8
0
100
AcDbBlockBegin
  2
BLK2
 70
     0
 10
0.0
 20
0.0
 30
0.0
  3
BLK2
  1

  0
ENDBLK
  5
33
330
31
100
AcDbEntity
  8
0
100
AcDbBlockEnd
  0
BLOCK
  5
50
330
4F
100
AcDbEntity
  8
0
100
AcDbBlockBegin
  2
BLK3
 70
     0
 10
0.0
 20
0.0
 30
0.0
  3
BLK3
  1

  0
ENDBLK
  5
51
330
4F
100
AcDbEntity
  8
0
100
AcDbBlockEnd
  0
BLOCK
  5
71
330
70
100
AcDbEntity
  8
0
100
AcDbBlockBegin
  2
BLK4
 70
     0
 10
0.0
 20
0.0
 30
0.0
  3
BLK4
  1

  0
ENDBLK
  5
72
330
70
100
AcDbEntity
  8
0
100
AcDbBlockEnd
  0
BLOCK
  5
7A
330
79
100
AcDbEntity
  8
0
100
AcDbBlockBegin
  2
BLK5
 70
     0
 10
0.0
 20
0.0
 30
0.0
  3
BLK5
  1

  0
ENDBLK
  5
7B
330
79
100
AcDbEntity
  8
0
100
AcDbBlockEnd
  0
BLOCK
  5
8E
330
8D
100
AcDbEntity
  8
0
100
AcDbBlockBegin
  2
BLK6
 70
     0
 10
0.0
 20
0.0
 30
0.0
  3
BLK6
  1

  0
ENDBLK
  5
8F
330
8D
100
AcDbEntity
  8
0
100
AcDbBlockEnd
  0
BLOCK
  5
92
330
91
100
AcDbEntity
  8
0
100
AcDbBlockBegin
  2
*D6
 70
     1
 10
0.0
 20
0.0
 30
0.0
  3
*D6
  1

  0
LINE
  5
94
330
91
100
AcDbEntity
  8
SK2
  6
Continuous
 62
     0
370
    -2
100
AcDbLine
 10
-0.062382
 20
-31.499
 30
0.0
 11
-46.41350200000001
 21
-31.499
 31
0.0
  0
LINE
  5
95
330
91
100
AcDbEntity
  8
SK2
  6
Continuous
 62
     0
370
    -2
100
AcDbLine
 10
-0.062382
 20
31.501
 30
0.0
 11
-46.413502
 21
31.501
 31
0.0
  0
LINE
  5
96
330
91
100
AcDbEntity
  8
SK2
  6
Continuous
 62
     0
370
    -2
100
AcDbLine
 10
-46.23350200000001
 20
-31.319
 30
0.0
 11
-46.23350200000001
 21
-0.1789999999999949
 31
0.0
  0
LINE
  5
97
330
91
100
AcDbEntity
  8
SK2
  6
Continuous
 62
     0
370
    -2
100
AcDbLine
 10
-46.233502
 20
31.32100000000001
 30
0.0
 11
-46.233502
 21
0.181000000000008
 31
0.0
  0
SOLID
  5
98
330
91
100
AcDbEntity
  8
SK2
 62
     0
100
AcDbTrace
 10
-46.26350200000001
 20
-31.319
 30
0.0
 11
-46.20350200000001
 21
-31.319
 31
0.0
 12
-46.23350200000001
 22
-31.499
 32
0.0
 13
-46.23350200000001
 23
-31.499
 33
0.0
  0
SOLID
  5
99
330
91
100
AcDbEntity
  8
SK2
 62
     0
100
AcDbTrace
 10
-46.203502
 20
31.32100000000001
 30
0.0
 11
-46.263502
 21
31.32100000000001
 31
0.0
 12
-46.233502
 22
31.501
 32
0.0
 13
-46.233502
 23
31.501
 33
0.0
  0
MTEXT
  5
9A
330
91
100
AcDbEntity
  8
SK2
 62
     0
100
AcDbMText
 10
-46.233502
 20
0.0010000000000048
 30
0.0
 40
0.18
 41
0.0
 71
     5
 72
     1
  1
\A1;%%c63.0000
 73
     1
 44
1.0
  0
POINT
  5
9B
330
91
100
AcDbEntity
  8
Defpoints
 62
     0
100
AcDbPoint
 10
0.000118
 20
-31.499
 30
0.0
  0
POINT
  5
9C
330
91
100
AcDbEntity
  8
Defpoints
 62
     0
100
AcDbPoint
 10
0.000118
 20
31.501
 30
0.0
  0
POINT
  5
9D
330
91
100
AcDbEntity
  8
Defpoints
 62
     0
100
AcDbPoint
 10
-46.233502
 20
31.501
 30
0.0
  0
ENDBLK
  5
AA
330
91
100
AcDbEntity
  8
0
100
AcDbBlockEnd
  0
BLOCK
  5
AE
330
AD
100
AcDbEntity
  8
0
100
AcDbBlockBegin
  2
BLK7
 70
     0
 10
0.0
 20
0.0
 30
0.0
  3
BLK7
  1

  0
ENDBLK
  5
AF
330
AD
100
AcDbEntity
  8
0
100
AcDbBlockEnd
  0
BLOCK
  5
B5
330
B4
100
AcDbEntity
  8
0
100
AcDbBlockBegin
  2
*D8
 70
     1
 10
0.0
 20
0.0
 30
0.0
  3
*D8
  1

  0
LINE
  5
B6
330
B4
100
AcDbEntity
  8
SK2
  6
Continuous
 62
     0
370
    -2
100
AcDbLine
 10
-31.999882
 20
21.637001
 30
0.0
 11
-31.999882
 21
42.15
 31
0.0
  0
LINE
  5
B7
330
B4
100
AcDbEntity
  8
SK2
  6
Continuous
 62
     0
370
    -2
100
AcDbLine
 10
0.000118
 20
31.5635
 30
0.0
 11
0.000118
 21
42.15
 31
0.0
  0
LINE
  5
B8
330
B4
100
AcDbEntity
  8
SK2
  6
Continuous
 62
     0
370
    -2
100
AcDbLine
 10
-31.819882
 20
41.97
 30
0.0
 11
-16.569882
 21
41.97
 31
0.0
  0
LINE
  5
B9
330
B4
100
AcDbEntity
  8
SK2
  6
Continuous
 62
     0
370
    -2
100
AcDbLine
 10
-0.179882
 20
41.97
 30
0.0
 11
-15.429882
 21
41.97
 31
0.0
  0
SOLID
  5
BA
330
B4
100
AcDbEntity
  8
SK2
 62
     0
100
AcDbTrace
 10
-31.819882
 20
42.0
 30
0.0
 11
-31.819882
 21
41.94
 31
0.0
 12
-31.999882
 22
41.97
 32
0.0
 13
-31.999882
 23
41.97
 33
0.0
  0
SOLID
  5
BB
330
B4
100
AcDbEntity
  8
SK2
 62
     0
100
AcDbTrace
 10
-0.179882
 20
41.94
 30
0.0
 11
-0.179882
 21
42.0
 31
0.0
 12
0.000118
 22
41.97
 32
0.0
 13
0.000118
 23
41.97
 33
0.0
  0
MTEXT
  5
BC
330
B4
100
AcDbEntity
  8
SK2
 62
     0
100
AcDbMText
 10
-15.999882
 20
41.97
 30
0.0
 40
0.18
 41
0.0
 71
     5
 72
     1
  1
\A1;32.0000
 73
     1
 44
1.0
  0
POINT
  5
BD
330
B4
100
AcDbEntity
  8
Defpoints
 62
     0
100
AcDbPoint
 10
-31.999882
 20
21.574501
 30
0.0
  0
POINT
  5
BE
330
B4
100
AcDbEntity
  8
Defpoints
 62
     0
100
AcDbPoint
 10
0.000118
 20
31.501
 30
0.0
  0
POINT
  5
BF
330
B4
100
AcDbEntity
  8
Defpoints
 62
     0
100
AcDbPoint
 10
0.000118
 20
41.97
 30
0.0
  0
ENDBLK
  5
CC
330
B4
100
AcDbEntity
  8
0
100
AcDbBlockEnd
  0
BLOCK
  5
CF
330
CE
100
AcDbEntity
  8
0
100
AcDbBlockBegin
  2
*D9
 70
     1
 10
0.0
 20
0.0
 30
0.0
  3
*D9
  1

  0
LINE
  5
D0
330
CE
100
AcDbEntity
  8
SK2
  6
Continuous
 62
     0
370
    -2
100
AcDbLine
 10
-31.999882
 20
21.637001
 30
0.0
 11
-31.99988200000001
 21
56.15
 31
0.0
  0
LINE
  5
D1
330
CE
100
AcDbEntity
  8
SK2
  6
Continuous
 62
     0
370
    -2
100
AcDbLine
 10
200.000118
 20
16.0635
 30
0.0
 11
200.000118
 21
56.15
 31
0.0
  0
LINE
  5
D2
330
CE
100
AcDbEntity
  8
SK2
  6
Continuous
 62
     0
370
    -2
100
AcDbLine
 10
-31.81988200000001
 20
55.97
 30
0.0
 11
83.34011799999999
 21
55.97
 31
0.0
  0
LINE
  5
D3
330
CE
100
AcDbEntity
  8
SK2
  6
Continuous
 62
     0
370
    -2
100
AcDbLine
 10
199.820118
 20
55.97
 30
0.0
 11
84.66011799999998
 21
55.97
 31
0.0
  0
SOLID
  5
D4
330
CE
100
AcDbEntity
  8
SK2
 62
     0
100
AcDbTrace
 10
-31.81988200000001
 20
56.0
 30
0.0
 11
-31.81988200000001
 21
55.94
 31
0.0
 12
-31.99988200000001
 22
55.97
 32
0.0
 13
-31.99988200000001
 23
55.97
 33
0.0
  0
SOLID
  5
D5
330
CE
100
AcDbEntity
  8
SK2
 62
     0
100
AcDbTrace
 10
199.820118
 20
55.94
 30
0.0
 11
199.820118
 21
56.0
 31
0.0
 12
200.000118
 22
55.97
 32
0.0
 13
200.000118
 23
55.97
 33
0.0
  0
MTEXT
  5
D6
330
CE
100
AcDbEntity
  8
SK2
 62
     0
100
AcDbMText
 10
84.00011799999999
 20
55.97
 30
0.0
 40
0.18
 41
0.0
 71
     5
 72
     1
  1
\A1;232.0000
 73
     1
 44
1.0
  0
POINT
  5
D7
330
CE
100
AcDbEntity
  8
Defpoints
 62
     0
100
AcDbPoint
 10
-31.999882
 20
21.574501
 30
0.0
  0
POINT
  5
D8
330
CE
100
AcDbEntity
  8
Defpoints
 62
     0
100
AcDbPoint
 10
200.000118
 20
16.001
 30
0.0
  0
POINT
  5
D9
330
CE
100
AcDbEntity
  8
Defpoints
 62
     0
100
AcDbPoint
 10
200.000118
 20
55.97
 30
0.0
  0
ENDBLK
  5
E6
330
CE
100
AcDbEntity
  8
0
100
AcDbBlockEnd
  0
BLOCK
  5
E9
330
E8
100
AcDbEntity
  8
0
100
AcDbBlockBegin
  2
BLK8
 70
     0
 10
0.0
 20
0.0
 30
0.0
  3
BLK8
  1

  0
ENDBLK
  5
EA
330
E8
100
AcDbEntity
  8
0
100
AcDbBlockEnd
  0
BLOCK
  5
ED
330
EC
100
AcDbEntity
  8
0
100
AcDbBlockBegin
  2
*D11
 70
     1
 10
0.0
 20
0.0
 30
0.0
  3
*D11
  1

  0
LINE
  5
EF
330
EC
100
AcDbEntity
  8
2
  6
Continuous
 62
     0
370
    -2
100
AcDbLine
 10
200.000118
 20
-15.999
 30
0.0
 11
200.000118
 21
-59.999
 31
0.0
  0
LINE
  5
F0
330
EC
100
AcDbEntity
  8
2
  6
Continuous
 62
     0
370
    -2
100
AcDbLine
 10
0.000118
 20
-31.499
 30
0.0
 11
0.000118
 21
-59.999
 31
0.0
  0
LINE
  5
F1
330
EC
100
AcDbEntity
  8
2
  6
Continuous
 62
     0
370
    -2
100
AcDbLine
 10
195.430118
 20
-54.999
 30
0.0
 11
105.0834513333333
 21
-54.999
 31
0.0
  0
LINE
  5
F2
330
EC
100
AcDbEntity
  8
2
  6
Continuous
 62
     0
370
    -2
100
AcDbLine
 10
4.570118
 20
-54.999
 30
0.0
 11
94.91678466666666
 21
-54.999
 31
0.0
  0
INSERT
  5
F3
330
EC
100
AcDbEntity
  8
2
 62
     0
370
    -2
100
AcDbBlockReference
  2
_ARROW_FILLED
 10
200.000118
 20
-54.999
 30
0.0
 41
4.57
 42
4.57
 43
4.57
  0
INSERT
  5
F4
330
EC
100
AcDbEntity
  8
2
 62
     0
370
    -2
100
AcDbBlockReference
  2
_ARROW_FILLED
 10
0.000118
 20
-54.999
 30
0.0
 41
4.57
 42
4.57
 43
4.57
 50
180.0
  0
MTEXT
  5
F5
330
EC
100
AcDbEntity
  8
2
 62
     7
100
AcDbMText
 10
100.000118
 20
-54.999
 30
0.0
 40
3.5
 41
0.0
 71
     5
 72
     1
  1
\A1;200
 73
     1
 44
1.0
  0
POINT
  5
F6
330
EC
100
AcDbEntity
  8
Defpoints
 62
     0
100
AcDbPoint
 10
200.000118
 20
-15.999
 30
0.0
  0
POINT
  5
F7
330
EC
100
AcDbEntity
  8
Defpoints
 62
     0
100
AcDbPoint
 10
0.000118
 20
-31.499
 30
0.0
  0
POINT
  5
F8
330
EC
100
AcDbEntity
  8
Defpoints
 62
     0
100
AcDbPoint
 10
0.000118
 20
-54.999
 30
0.0
  0
ENDBLK
  5
105
330
EC
100
AcDbEntity
  8
0
100
AcDbBlockEnd
  0
BLOCK
  5
109
330
108
100
AcDbEntity
  8
0
100
AcDbBlockBegin
  2
BLK9
 70
     0
 10
0.0
 20
0.0
 30
0.0
  3
BLK9
  1

  0
ENDBLK
  5
10A
330
108
100
AcDbEntity
  8
0
100
AcDbBlockEnd
  0
BLOCK
  5
10D
330
10C
100
AcDbEntity
  8
0
100
AcDbBlockBegin
  2
BLK10
 70
     0
 10
0.0
 20
0.0
 30
0.0
  3
BLK10
  1

  0
ENDBLK
  5
10E
330
10C
100
AcDbEntity
  8
0
100
AcDbBlockEnd
  0
BLOCK
  5
121
330
120
100
AcDbEntity
  8
0
100
AcDbBlockBegin
  2
BLK11
 70
     0
 10
0.0
 20
0.0
 30
0.0
  3
BLK11
  1

  0
ENDBLK
  5
122
330
120
100
AcDbEntity
  8
0
100
AcDbBlockEnd
  0
BLOCK
  5
128
330
127
100
AcDbEntity
  8
0
100
AcDbBlockBegin
  2
BLK12
 70
     0
 10
0.0
 20
0.0
 30
0.0
  3
BLK12
  1

  0
ENDBLK
  5
129
330
127
100
AcDbEntity
  8
0
100
AcDbBlockEnd
  0
BLOCK
  5
12C
330
12B
100
AcDbEntity
  8
0
100
AcDbBlockBegin
  2
*D16
 70
     1
 10
0.0
 20
0.0
 30
0.0
  3
*D16
  1

  0
LINE
  5
12D
330
12B
100
AcDbEntity
  8
2
  6
Continuous
 62
     0
370
    -2
100
AcDbLine
 10
200.000118
 20
-9.999
 30
0.0
 11
219.000118
 21
-9.999
 31
0.0
  0
LINE
  5
12E
330
12B
100
AcDbEntity
  8
2
  6
Continuous
 62
     0
370
    -2
100
AcDbLine
 10
200.000118
 20
10.001
 30
0.0
 11
219.000118
 21
10.001
 31
0.0
  0
LINE
  5
12F
330
12B
100
AcDbEntity
  8
2
  6
Continuous
 62
     0
370
    -2
100
AcDbLine
 10
214.000118
 20
10.001
 30
0.0
 11
214.000118
 21
14.571
 31
0.0
  0
LINE
  5
130
330
12B
100
AcDbEntity
  8
2
  6
Continuous
 62
     0
370
    -2
100
AcDbLine
 10
214.000118
 20
-5.429
 30
0.0
 11
214.000118
 21
5.430999999999999
 31
0.0
  0
INSERT
  5
131
330
12B
100
AcDbEntity
  8
2
 62
     0
370
    -2
100
AcDbBlockReference
  2
_ARROW_FILLED
 10
214.000118
 20
-9.999
 30
0.0
 41
4.57
 42
4.57
 43
4.57
 50
270.0
  0
INSERT
  5
132
330
12B
100
AcDbEntity
  8
2
 62
     0
370
    -2
100
AcDbBlockReference
  2
_ARROW_FILLED
 10
214.000118
 20
10.001
 30
0.0
 41
4.57
 42
4.57
 43
4.57
 50
90.0
  0
MTEXT
  5
133
330
12B
100
AcDbEntity
  8
2
 62
     7
100
AcDbMText
 10
214.000118
 20
19.946
 30
0.0
 40
3.5
 41
0.0
 71
     5
 72
     1
  1
\A1;%%c20
 11
0.0
 21
1.0
 31
0.0
 73
     1
 44
1.0
  0
POINT
  5
134
330
12B
100
AcDbEntity
  8
Defpoints
 62
     0
100
AcDbPoint
 10
200.000118
 20
-9.999
 30
0.0
  0
POINT
  5
135
330
12B
100
AcDbEntity
  8
Defpoints
 62
     0
100
AcDbPoint
 10
200.000118
 20
10.001
 30
0.0
  0
POINT
  5
136
330
12B
100
AcDbEntity
  8
Defpoints
 62
     0
100
AcDbPoint
 10
214.000118
 20
10.001
 30
0.0
  0
ENDBLK
  5
143
330
12B
100
AcDbEntity
  8
0
100
AcDbBlockEnd
  0
BLOCK
  5
146
330
145
100
AcDbEntity
  8
0
100
AcDbBlockBegin
  2
*D17
 70
     1
 10
0.0
 20
0.0
 30
0.0
  3
*D17
  1

  0
LINE
  5
147
330
145
100
AcDbEntity
  8
2
  6
Continuous
 62
     0
370
    -2
100
AcDbLine
 10
199.000118
 20
-16.999
 30
0.0
 11
233.000118
 21
-16.999
 31
0.0
  0
LINE
  5
148
330
145
100
AcDbEntity
  8
2
  6
Continuous
 62
     0
370
    -2
100
AcDbLine
 10
199.000118
 20
17.001
 30
0.0
 11
233.000118
 21
17.001
 31
0.0
  0
LINE
  5
149
330
145
100
AcDbEntity
  8
2
  6
Continuous
 62
     0
370
    -2
100
AcDbLine
 10
228.000118
 20
-12.429
 30
0.0
 11
228.000118
 21
-5.665666666666652
 31
0.0
  0
LINE
  5
14A
330
145
100
AcDbEntity
  8
2
  6
Continuous
 62
     0
370
    -2
100
AcDbLine
 10
228.000118
 20
12.431
 30
0.0
 11
228.000118
 21
5.667666666666662
 31
0.0
  0
INSERT
  5
14B
330
145
100
AcDbEntity
  8
2
 62
     0
370
    -2
100
AcDbBlockReference
  2
_ARROW_FILLED
 10
228.000118
 20
-16.999
 30
0.0
 41
4.57
 42
4.57
 43
4.57
 50
270.0
  0
INSERT
  5
14C
330
145
100
AcDbEntity
  8
2
 62
     0
370
    -2
100
AcDbBlockReference
  2
_ARROW_FILLED
 10
228.000118
 20
17.001
 30
0.0
 41
4.57
 42
4.57
 43
4.57
 50
90.0
  0
MTEXT
  5
14D
330
145
100
AcDbEntity
  8
2
 62
     7
100
AcDbMText
 10
228.000118
 20
0.0010000000000012
 30
0.0
 40
3.5
 41
0.0
 71
     5
 72
     1
  1
\A1;%%c34
 11
0.0
 21
1.0
 31
0.0
 73
     1
 44
1.0
  0
POINT
  5
14E
330
145
100
AcDbEntity
  8
Defpoints
 62
     0
100
AcDbPoint
 10
199.000118
 20
-16.999
 30
0.0
  0
POINT
  5
14F
330
145
100
AcDbEntity
  8
Defpoints
 62
     0
100
AcDbPoint
 10
199.000118
 20
17.001
 30
0.0
  0
POINT
  5
150
330
145
100
AcDbEntity
  8
Defpoints
 62
     0
100
AcDbPoint
 10
228.000118
 20
17.001
 30
0.0
  0
ENDBLK
  5
15D
330
145
100
AcDbEntity
  8
0
100
AcDbBlockEnd
  0
BLOCK
  5
160
330
15F
100
AcDbEntity
  8
0
100
AcDbBlockBegin
  2
*D18
 70
     1
 10
0.0
 20
0.0
 30
0.0
  3
*D18
  1

  0
LINE
  5
161
330
15F
100
AcDbEntity
  8
2
  6
Continuous
 62
     0
370
    -2
100
AcDbLine
 10
146.000118
 20
-10.999
 30
0.0
 11
146.000118
 21
-45.999
 31
0.0
  0
LINE
  5
162
330
15F
100
AcDbEntity
  8
2
  6
Continuous
 62
     0
370
    -2
100
AcDbLine
 10
200.000118
 20
-15.999
 30
0.0
 11
200.000118
 21
-45.999
 31
0.0
  0
LINE
  5
163
330
15F
100
AcDbEntity
  8
2
  6
Continuous
 62
     0
370
    -2
100
AcDbLine
 10
150.570118
 20
-40.999
 30
0.0
 11
169.0834513333333
 21
-40.999
 31
0.0
  0
LINE
  5
164
330
15F
100
AcDbEntity
  8
2
  6
Continuous
 62
     0
370
    -2
100
AcDbLine
 10
195.430118
 20
-40.999
 30
0.0
 11
176.9167846666666
 21
-40.999
 31
0.0
  0
INSERT
  5
165
330
15F
100
AcDbEntity
  8
2
 62
     0
370
    -2
100
AcDbBlockReference
  2
_ARROW_FILLED
 10
146.000118
 20
-40.999
 30
0.0
 41
4.57
 42
4.57
 43
4.57
 50
180.0
  0
INSERT
  5
166
330
15F
100
AcDbEntity
  8
2
 62
     0
370
    -2
100
AcDbBlockReference
  2
_ARROW_FILLED
 10
200.000118
 20
-40.999
 30
0.0
 41
4.57
 42
4.57
 43
4.57
  0
MTEXT
  5
167
330
15F
100
AcDbEntity
  8
2
 62
     7
100
AcDbMText
 10
173.000118
 20
-40.999
 30
0.0
 40
3.5
 41
0.0
 71
     5
 72
     1
  1
\A1;54
 73
     1
 44
1.0
  0
POINT
  5
168
330
15F
100
AcDbEntity
  8
Defpoints
 62
     0
100
AcDbPoint
 10
146.000118
 20
-10.999
 30
0.0
  0
POINT
  5
169
330
15F
100
AcDbEntity
  8
Defpoints
 62
     0
100
AcDbPoint
 10
200.000118
 20
-15.999
 30
0.0
  0
POINT
  5
16A
330
15F
100
AcDbEntity
  8
Defpoints
 62
     0
100
AcDbPoint
 10
200.000118
 20
-40.999
 30
0.0
  0
ENDBLK
  5
177
330
15F
100
AcDbEntity
  8
0
100
AcDbBlockEnd
  0
BLOCK
  5
17A
330
179
100
AcDbEntity
  8
0
100
AcDbBlockBegin
  2
BLK13
 70
     0
 10
0.0
 20
0.0
 30
0.0
  3
BLK13
  1

  0
ENDBLK
  5
17B
330
179
100
AcDbEntity
  8
0
100
AcDbBlockEnd
  0
BLOCK
  5
17E
330
17D
100
AcDbEntity
  8
0
100
AcDbBlockBegin
  2
*D20
 70
     1
 10
0.0
 20
0.0
 30
0.0
  3
*D20
  1

  0
LINE
  5
17F
330
17D
100
AcDbEntity
  8
SK2
  6
Continuous
 62
     0
370
    -2
100
AcDbLine
 10
26.000118
 20
31.501
 30
0.0
 11
26.00011799999998
 21
53.92704773359495
 31
0.0
  0
LINE
  5
180
330
17D
100
AcDbEntity
  8
SK2
  6
Continuous
 62
     0
370
    -2
100
AcDbLine
 10
200.000118
 20
16.001
 30
0.0
 11
200.000118
 21
53.92704773359495
 31
0.0
  0
LINE
  5
181
330
17D
100
AcDbEntity
  8
SK2
  6
Continuous
 62
     0
370
    -2
100
AcDbLine
 10
30.57011799999999
 20
48.92704773359495
 30
0.0
 11
107.6418114977953
 21
48.92704773359495
 31
0.0
  0
LINE
  5
182
330
17D
100
AcDbEntity
  8
SK2
  6
Continuous
 62
     0
370
    -2
100
AcDbLine
 10
195.430118
 20
48.92704773359495
 30
0.0
 11
117.808478164462
 21
48.92704773359495
 31
0.0
  0
INSERT
  5
183
330
17D
100
AcDbEntity
  8
SK2
 62
     0
370
    -2
100
AcDbBlockReference
  2
_ARROW_FILLED
 10
26.00011799999999
 20
48.92704773359495
 30
0.0
 41
4.57
 42
4.57
 43
4.57
 50
180.0
  0
INSERT
  5
184
330
17D
100
AcDbEntity
  8
SK2
 62
     0
370
    -2
100
AcDbBlockReference
  2
_ARROW_FILLED
 10
200.000118
 20
48.92704773359495
 30
0.0
 41
4.57
 42
4.57
 43
4.57
  0
MTEXT
  5
185
330
17D
100
AcDbEntity
  8
SK2
 62
     7
100
AcDbMText
 10
112.7251448311286
 20
48.92704773359495
 30
0.0
 40
3.5
 41
0.0
 71
     5
 72
     1
  1
\A1;174
 73
     1
 44
1.0
  0
POINT
  5
186
330
17D
100
AcDbEntity
  8
Defpoints
 62
     0
100
AcDbPoint
 10
26.000118
 20
31.501
 30
0.0
  0
POINT
  5
187
330
17D
100
AcDbEntity
  8
Defpoints
 62
     0
100
AcDbPoint
 10
200.000118
 20
16.001
 30
0.0
  0
POINT
  5
188
330
17D
100
AcDbEntity
  8
Defpoints
 62
     0
100
AcDbPoint
 10
200.000118
 20
48.92704773359495
 30
0.0
  0
ENDBLK
  5
195
330
17D
100
AcDbEntity
  8
0
100
AcDbBlockEnd
  0
BLOCK
  5
19B
330
19A
100
AcDbEntity
  8
0
100
AcDbBlockBegin
  2
*D21
 70
     1
 10
0.0
 20
0.0
 30
0.0
  3
*D21
  1

  0
LINE
  5
19C
330
19A
100
AcDbEntity
  8
2
 62
     0
370
    -2
100
AcDbLine
 10
26.000118
 20
-25.499
 30
0.0
 11
47.0
 21
-25.499
 31
0.0
  0
LINE
  5
19D
330
19A
100
AcDbEntity
  8
2
 62
     0
370
    -2
100
AcDbLine
 10
26.000118
 20
25.501
 30
0.0
 11
47.0
 21
25.501
 31
0.0
  0
LINE
  5
19E
330
19A
100
AcDbEntity
  8
2
 62
     0
370
    -2
100
AcDbLine
 10
42.0
 20
-20.929
 30
0.0
 11
42.0
 21
-5.082333333333331
 31
0.0
  0
LINE
  5
19F
330
19A
100
AcDbEntity
  8
2
 62
     0
370
    -2
100
AcDbLine
 10
42.0
 20
20.931
 30
0.0
 11
42.0
 21
5.08433333333334
 31
0.0
  0
INSERT
  5
1A0
330
19A
100
AcDbEntity
  8
2
 62
     0
370
    -2
100
AcDbBlockReference
  2
_ARROW_FILLED
 10
42.0
 20
-25.499
 30
0.0
 41
4.57
 42
4.57
 43
4.57
 50
270.0
  0
INSERT
  5
1A1
330
19A
100
AcDbEntity
  8
2
 62
     0
370
    -2
100
AcDbBlockReference
  2
_ARROW_FILLED
 10
42.0
 20
25.501
 30
0.0
 41
4.57
 42
4.57
 43
4.57
 50
90.0
  0
MTEXT
  5
1A2
330
19A
100
AcDbEntity
  8
2
 62
     7
370
    -2
100
AcDbMText
 10
42.0
 20
0.0010000000000012
 30
0.0
 40
3.5
 41
0.0
 71
     5
 72
     1
  1
\A1;%%c51
 11
0.0
 21
1.0
 31
0.0
 73
     1
 44
1.0
  0
POINT
  5
1A3
330
19A
100
AcDbEntity
  8
Defpoints
 62
     0
100
AcDbPoint
 10
26.000118
 20
-25.499
 30
0.0
  0
POINT
  5
1A4
330
19A
100
AcDbEntity
  8
Defpoints
 62
     0
100
AcDbPoint
 10
26.000118
 20
25.501
 30
0.0
  0
POINT
  5
1A5
330
19A
100
AcDbEntity
  8
Defpoints
 62
     0
100
AcDbPoint
 10
42.0
 20
25.501
 30
0.0
  0
ENDBLK
  5
1B2
330
19A
100
AcDbEntity
  8
0
100
AcDbBlockEnd
  0
BLOCK
  5
1B5
330
1B4
100
AcDbEntity
  8
0
100
AcDbBlockBegin
  2
*D22
 70
     1
 10
0.0
 20
0.0
 30
0.0
  3
*D22
  1

  0
LINE
  5
1B6
330
1B4
100
AcDbEntity
  8
SK2
  6
Continuous
 62
     0
370
    -2
100
AcDbLine
 10
164.000118
 20
17.001
 30
0.0
 11
164.000118
 21
32.97
 31
0.0
  0
LINE
  5
1B7
330
1B4
100
AcDbEntity
  8
SK2
  6
Continuous
 62
     0
370
    -2
100
AcDbLine
 10
200.000118
 20
16.001
 30
0.0
 11
200.000118
 21
32.97
 31
0.0
  0
LINE
  5
1B8
330
1B4
100
AcDbEntity
  8
SK2
  6
Continuous
 62
     0
370
    -2
100
AcDbLine
 10
168.570118
 20
27.97
 30
0.0
 11
178.0834513333333
 21
27.97
 31
0.0
  0
LINE
  5
1B9
330
1B4
100
AcDbEntity
  8
SK2
  6
Continuous
 62
     0
370
    -2
100
AcDbLine
 10
195.430118
 20
27.97
 30
0.0
 11
185.9167846666666
 21
27.97
 31
0.0
  0
INSERT
  5
1BA
330
1B4
100
AcDbEntity
  8
SK2
 62
     0
370
    -2
100
AcDbBlockReference
  2
_ARROW_FILLED
 10
164.000118
 20
27.97
 30
0.0
 41
4.57
 42
4.57
 43
4.57
 50
180.0
  0
INSERT
  5
1BB
330
1B4
100
AcDbEntity
  8
SK2
 62
     0
370
    -2
100
AcDbBlockReference
  2
_ARROW_FILLED
 10
200.000118
 20
27.97
 30
0.0
 41
4.57
 42
4.57
 43
4.57
  0
MTEXT
  5
1BC
330
1B4
100
AcDbEntity
  8
SK2
 62
     7
100
AcDbMText
 10
182.000118
 20
27.97
 30
0.0
 40
3.5
 41
0.0
 71
     5
 72
     1
  1
\A1;36
 73
     1
 44
1.0
  0
POINT
  5
1BD
330
1B4
100
AcDbEntity
  8
Defpoints
 62
     0
100
AcDbPoint
 10
164.000118
 20
17.001
 30
0.0
  0
POINT
  5
1BE
330
1B4
100
AcDbEntity
  8
Defpoints
 62
     0
100
AcDbPoint
 10
200.000118
 20
16.001
 30
0.0
  0
POINT
  5
1BF
330
1B4
100
AcDbEntity
  8
Defpoints
 62
     0
100
AcDbPoint
 10
200.000118
 20
27.97
 30
0.0
  0
ENDBLK
  5
1CC
330
1B4
100
AcDbEntity
  8
0
100
AcDbBlockEnd
  0
BLOCK
  5
28C
330
28B
100
AcDbEntity
  8
0
100
AcDbBlockBegin
  2
_ARROW_FILLED
 70
     0
 10
0.0
 20
0.0
 30
0.0
  3
_ARROW_FILLED
  1

  0
SOLID
  5
28D
330
28B
100
AcDbEntity
  8
0
  6
ByBlock
 62
     0
100
AcDbTrace
 10
0.0
 20
0.0
 30
0.0
 11
-1.0
 21
0.1428571429
 31
0.0
 12
-1.0
 22
-0.1428571429
 32
0.0
 13
-1.0
 23
-0.1428571429
 33
0.0
  0
ENDBLK
  5
28E
330
28B
100
AcDbEntity
  8
0
  6
ByBlock
 62
     0
100
AcDbBlockEnd
  0
BLOCK
  5
2A7
330
2A6
100
AcDbEntity
  8
0
100
AcDbBlockBegin
  2
*D24
 70
     1
 10
0.0
 20
0.0
 30
0.0
  3
*D24
  1

  0
LINE
  5
2A8
330
2A6
100
AcDbEntity
  8
SK2
 62
     0
370
    -2
100
AcDbLine
 10
0.0001180000000038
 20
-31.49899985060111
 30
0.0
 11
-53.99976399999996
 21
-31.49899985060111
 31
0.0
  0
LINE
  5
2A9
330
2A6
100
AcDbEntity
  8
SK2
 62
     0
370
    -2
100
AcDbLine
 10
0.0001180000000038
 20
31.50100014939889
 30
0.0
 11
-53.99976399999995
 21
31.50100014939889
 31
0.0
  0
LINE
  5
2AA
330
2A6
100
AcDbEntity
  8
SK2
 62
     0
370
    -2
100
AcDbLine
 10
-48.99976399999996
 20
-26.92899985060111
 30
0.0
 11
-48.99976399999996
 21
-5.665666517267777
 31
0.0
  0
LINE
  5
2AB
330
2A6
100
AcDbEntity
  8
SK2
 62
     0
370
    -2
100
AcDbLine
 10
-48.99976399999995
 20
26.93100014939889
 30
0.0
 11
-48.99976399999995
 21
5.667666816065545
 31
0.0
  0
INSERT
  5
2AC
330
2A6
100
AcDbEntity
  8
SK2
 62
     0
370
    -2
100
AcDbBlockReference
  2
_ARROW_FILLED
 10
-48.99976399999996
 20
-31.49899985060111
 30
0.0
 41
4.57
 42
4.57
 43
4.57
 50
270.0
  0
INSERT
  5
2AD
330
2A6
100
AcDbEntity
  8
SK2
 62
     0
370
    -2
100
AcDbBlockReference
  2
_ARROW_FILLED
 10
-48.99976399999995
 20
31.50100014939889
 30
0.0
 41
4.57
 42
4.57
 43
4.57
 50
90.0
  0
MTEXT
  5
2AE
330
2A6
100
AcDbEntity
  8
SK2
 62
     7
100
AcDbMText
 10
-48.99976399999996
 20
0.0010001493988909
 30
0.0
 40
3.5
 41
0.0
 71
     5
 72
     1
  1
\A1;%%c63
 11
1.127845612317619E-16
 21
1.0
 31
0.0
 73
     1
 44
1.0
  0
POINT
  5
2AF
330
2A6
100
AcDbEntity
  8
Defpoints
 62
     0
100
AcDbPoint
 10
0.0001180000000038
 20
-31.49899985060111
 30
0.0
  0
POINT
  5
2B0
330
2A6
100
AcDbEntity
  8
Defpoints
 62
     0
100
AcDbPoint
 10
0.0001180000000038
 20
31.50100014939889
 30
0.0
  0
POINT
  5
2B1
330
2A6
100
AcDbEntity
  8
Defpoints
 62
     0
100
AcDbPoint
 10
-48.99976399999995
 20
31.50100014939889
 30
0.0
  0
ENDBLK
  5
2B2
330
2A6
100
AcDbEntity
  8
0
100
AcDbBlockEnd
  0
BLOCK
  5
2C5
330
2BB
100
AcDbEntity
  8
0
100
AcDbBlockBegin
  2
*D25
 70
     1
 10
0.0
 20
0.0
 30
0.0
  3
*D25
  1

  0
LINE
  5
2BC
330
2BB
100
AcDbEntity
  8
SK2
 62
     0
370
     0
100
AcDbLine
 10
-31.999882
 20
21.574501
 30
0.0
 11
-31.999882
 21
54.68917903763626
 31
0.0
  0
LINE
  5
2BD
330
2BB
100
AcDbEntity
  8
SK2
 62
     0
370
     0
100
AcDbLine
 10
0.0001180000000038
 20
31.50100014939889
 30
0.0
 11
0.0001180000000038
 21
54.68917903763626
 31
0.0
  0
LINE
  5
2BE
330
2BB
100
AcDbEntity
  8
SK2
 62
     0
370
     0
100
AcDbLine
 10
-28.499882
 20
49.68917903763626
 30
0.0
 11
-19.91654866666666
 21
49.68917903763626
 31
0.0
  0
LINE
  5
2BF
330
2BB
100
AcDbEntity
  8
SK2
 62
     0
370
     0
100
AcDbLine
 10
-3.499881999999996
 20
49.68917903763626
 30
0.0
 11
-12.08321533333333
 21
49.68917903763626
 31
0.0
  0
INSERT
  5
2C0
330
2BB
100
AcDbEntity
  8
SK2
 62
     0
370
     0
100
AcDbBlockReference
  2
_ARROW_FILLED
 10
-31.999882
 20
49.68917903763626
 30
0.0
 41
3.5
 42
3.5
 43
3.5
 50
180.0
  0
INSERT
  5
2C1
330
2BB
100
AcDbEntity
  8
SK2
 62
     0
370
     0
100
AcDbBlockReference
  2
_ARROW_FILLED
 10
0.0001180000000038
 20
49.68917903763626
 30
0.0
 41
3.5
 42
3.5
 43
3.5
  0
MTEXT
  5
2C2
330
2BB
100
AcDbEntity
  8
SK2
 62
     7
100
AcDbMText
 10
-15.999882
 20
49.68917903763626
 30
0.0
 40
3.5
 41
0.0
 71
     5
 72
     1
  1
\A1;32
 73
     1
 44
1.0
  0
POINT
  5
2C3
330
2BB
100
AcDbEntity
  8
Defpoints
 62
     0
100
AcDbPoint
 10
-31.999882
 20
21.574501
 30
0.0
  0
POINT
  5
2C4
330
2BB
100
AcDbEntity
  8
Defpoints
 62
     0
100
AcDbPoint
 10
0.0001180000000038
 20
31.50100014939889
 30
0.0
  0
POINT
  5
2D7
330
2BB
100
AcDbEntity
  8
Defpoints
 62
     0
100
AcDbPoint
 10
0.0001180000000038
 20
49.68917903763626
 30
0.0
  0
ENDBLK
  5
2C6
330
2BB
100
AcDbEntity
  8
0
100
AcDbBlockEnd
  0
BLOCK
  5
2D4
330
2CA
100
AcDbEntity
  8
0
100
AcDbBlockBegin
  2
*D26
 70
     1
 10
0.0
 20
0.0
 30
0.0
  3
*D26
  1

  0
LINE
  5
2CB
330
2CA
100
AcDbEntity
  8
SK2
 62
     0
370
     0
100
AcDbLine
 10
-31.999882
 20
21.574501
 30
0.0
 11
-31.99988200000001
 21
75.67743825420892
 31
0.0
  0
LINE
  5
2CC
330
2CA
100
AcDbEntity
  8
SK2
 62
     0
370
     0
100
AcDbLine
 10
200.000118
 20
16.001
 30
0.0
 11
200.000118
 21
75.67743825420892
 31
0.0
  0
LINE
  5
2CD
330
2CA
100
AcDbEntity
  8
SK2
 62
     0
370
     0
100
AcDbLine
 10
-28.49988200000001
 20
70.67743825420892
 30
0.0
 11
78.33345133333331
 21
70.67743825420892
 31
0.0
  0
LINE
  5
2CE
330
2CA
100
AcDbEntity
  8
SK2
 62
     0
370
     0
100
AcDbLine
 10
196.500118
 20
70.67743825420892
 30
0.0
 11
89.66678466666666
 21
70.67743825420892
 31
0.0
  0
INSERT
  5
2CF
330
2CA
100
AcDbEntity
  8
SK2
 62
     0
370
     0
100
AcDbBlockReference
  2
_ARROW_FILLED
 10
-31.99988200000001
 20
70.67743825420892
 30
0.0
 41
3.5
 42
3.5
 43
3.5
 50
180.0
  0
INSERT
  5
2D0
330
2CA
100
AcDbEntity
  8
SK2
 62
     0
370
     0
100
AcDbBlockReference
  2
_ARROW_FILLED
 10
200.000118
 20
70.67743825420892
 30
0.0
 41
3.5
 42
3.5
 43
3.5
  0
MTEXT
  5
2D1
330
2CA
100
AcDbEntity
  8
SK2
 62
     7
100
AcDbMText
 10
84.00011799999999
 20
70.67743825420892
 30
0.0
 40
3.5
 41
0.0
 71
     5
 72
     1
  1
\A1;232
 73
     1
 44
1.0
  0
POINT
  5
2D2
330
2CA
100
AcDbEntity
  8
Defpoints
 62
     0
100
AcDbPoint
 10
-31.999882
 20
21.574501
 30
0.0
  0
POINT
  5
2D3
330
2CA
100
AcDbEntity
  8
Defpoints
 62
     0
100
AcDbPoint
 10
200.000118
 20
16.001
 30
0.0
  0
POINT
  5
2D8
330
2CA
100
AcDbEntity
  8
Defpoints
 62
     0
100
AcDbPoint
 10
200.000118
 20
70.67743825420892
 30
0.0
  0
ENDBLK
  5
2D5
330
2CA
100
AcDbEntity
  8
0
100
AcDbBlockEnd
  0
BLOCK
  5
38E
330
384
100
AcDbEntity
  8
0
100
AcDbBlockBegin
  2
*D27
 70
     1
 10
0.0
 20
0.0
 30
0.0
  3
*D27
  1

  0
LINE
  5
385
330
384
100
AcDbEntity
  8
SK2
 62
     0
370
     0
100
AcDbLine
 10
200.000118
 20
16.001
 30
0.0
 11
200.000118
 21
43.76759143881812
 31
0.0
  0
LINE
  5
386
330
384
100
AcDbEntity
  8
SK2
 62
     0
370
     0
100
AcDbLine
 10
146.000118
 20
11.001
 30
0.0
 11
146.000118
 21
43.76759143881812
 31
0.0
  0
LINE
  5
387
330
384
100
AcDbEntity
  8
SK2
 62
     0
370
     0
100
AcDbLine
 10
196.500118
 20
38.76759143881812
 30
0.0
 11
149.500118
 21
38.76759143881812
 31
0.0
  0
INSERT
  5
388
330
384
100
AcDbEntity
  8
SK2
 62
     0
370
     0
100
AcDbBlockReference
  2
_ARROW_FILLED
 10
200.000118
 20
38.76759143881812
 30
0.0
 41
3.5
 42
3.5
 43
3.5
  0
INSERT
  5
389
330
384
100
AcDbEntity
  8
SK2
 62
     0
370
     0
100
AcDbBlockReference
  2
_ARROW_FILLED
 10
146.000118
 20
38.76759143881812
 30
0.0
 41
3.5
 42
3.5
 43
3.5
 50
180.0
  0
MTEXT
  5
38A
330
384
100
AcDbEntity
  8
SK2
 62
     7
100
AcDbMText
 10
173.000118
 20
41.51759143881812
 30
0.0
 40
3.5
 41
0.0
 71
     5
 72
     1
  1
\A1;54
 73
     1
 44
1.0
  0
POINT
  5
38B
330
384
100
AcDbEntity
  8
Defpoints
 62
     0
100
AcDbPoint
 10
200.000118
 20
16.001
 30
0.0
  0
POINT
  5
38C
330
384
100
AcDbEntity
  8
Defpoints
 62
     0
100
AcDbPoint
 10
146.000118
 20
11.001
 30
0.0
  0
POINT
  5
38D
330
384
100
AcDbEntity
  8
Defpoints
 62
     0
100
AcDbPoint
 10
146.000118
 20
38.76759143881812
 30
0.0
  0
ENDBLK
  5
38F
330
384
100
AcDbEntity
  8
0
100
AcDbBlockEnd
  0
BLOCK
  5
3A2
330
397
100
AcDbEntity
  8
0
100
AcDbBlockBegin
  2
*D28
 70
     1
 10
0.0
 20
0.0
 30
0.0
  3
*D28
  1

  0
LINE
  5
398
330
397
100
AcDbEntity
  8
SK2
 62
     0
370
     0
100
AcDbLine
 10
200.000118
 20
-9.999
 30
0.0
 11
225.741122415462
 21
-9.999000000000002
 31
0.0
  0
LINE
  5
399
330
397
100
AcDbEntity
  8
SK2
 62
     0
370
     0
100
AcDbLine
 10
200.000118
 20
10.001
 30
0.0
 11
225.741122415462
 21
10.001
 31
0.0
  0
LINE
  5
39A
330
397
100
AcDbEntity
  8
SK2
 62
     0
370
     0
100
AcDbLine
 10
220.741122415462
 20
-6.499000000000002
 30
0.0
 11
220.741122415462
 21
6.500999999999998
 31
0.0
  0
INSERT
  5
39B
330
397
100
AcDbEntity
  8
SK2
 62
     0
370
     0
100
AcDbBlockReference
  2
_ARROW_FILLED
 10
220.741122415462
 20
-9.999000000000002
 30
0.0
 41
3.5
 42
3.5
 43
3.5
 50
270.0
  0
INSERT
  5
39C
330
397
100
AcDbEntity
  8
SK2
 62
     0
370
     0
100
AcDbBlockReference
  2
_ARROW_FILLED
 10
220.741122415462
 20
10.001
 30
0.0
 41
3.5
 42
3.5
 43
3.5
 50
90.0
  0
MTEXT
  5
39D
330
397
100
AcDbEntity
  8
SK2
 62
     7
100
AcDbMText
 10
217.991122415462
 20
0.0009999999999977
 30
0.0
 40
3.5
 41
0.0
 71
     5
 72
     1
  1
\A1;Ø20
  7
BMG_Text
 11
0.0
 21
1.0
 31
0.0
 73
     1
 44
1.0
  0
POINT
  5
39E
330
397
100
AcDbEntity
  8
Defpoints
 62
     0
100
AcDbPoint
 10
200.000118
 20
-9.999
 30
0.0
  0
POINT
  5
39F
330
397
100
AcDbEntity
  8
Defpoints
 62
     0
100
AcDbPoint
 10
200.000118
 20
10.001
 30
0.0
  0
POINT
  5
3A0
330
397
100
AcDbEntity
  8
Defpoints
 62
     0
100
AcDbPoint
 10
220.741122415462
 20
10.001
 30
0.0
  0
ENDBLK
  5
3A3
330
397
100
AcDbEntity
  8
0
100
AcDbBlockEnd
  0
BLOCK
  5
3B4
330
3A9
100
AcDbEntity
  8
0
100
AcDbBlockBegin
  2
*D29
 70
     1
 10
0.0
 20
0.0
 30
0.0
  3
*D29
  1

  0
LINE
  5
3AA
330
3A9
100
AcDbEntity
  8
SK2
 62
     0
370
     0
100
AcDbLine
 10
0.000118
 20
-31.499
 30
0.0
 11
-50.46462525099273
 21
-31.499
 31
0.0
  0
LINE
  5
3AB
330
3A9
100
AcDbEntity
  8
SK2
 62
     0
370
     0
100
AcDbLine
 10
0.000118
 20
31.501
 30
0.0
 11
-50.46462525099273
 21
31.501
 31
0.0
  0
LINE
  5
3AC
330
3A9
100
AcDbEntity
  8
SK2
 62
     0
370
     0
100
AcDbLine
 10
-45.46462525099273
 20
-27.999
 30
0.0
 11
-45.46462525099273
 21
28.001
 31
0.0
  0
INSERT
  5
3AD
330
3A9
100
AcDbEntity
  8
SK2
 62
     0
370
     0
100
AcDbBlockReference
  2
_ARROW_FILLED
 10
-45.46462525099273
 20
-31.499
 30
0.0
 41
3.5
 42
3.5
 43
3.5
 50
270.0
  0
INSERT
  5
3AE
330
3A9
100
AcDbEntity
  8
SK2
 62
     0
370
     0
100
AcDbBlockReference
  2
_ARROW_FILLED
 10
-45.46462525099273
 20
31.501
 30
0.0
 41
3.5
 42
3.5
 43
3.5
 50
90.0
  0
MTEXT
  5
3AF
330
3A9
100
AcDbEntity
  8
SK2
 62
     7
370
     0
100
AcDbMText
 10
-48.21462525099273
 20
0.0010000000000051
 30
0.0
 40
3.5
 41
0.0
 71
     5
 72
     1
  1
\A1;Ø63
  7
BMG_Text
 11
1.127845612317619E-16
 21
1.0
 31
0.0
 73
     1
 44
1.0
  0
POINT
  5
3B0
330
3A9
100
AcDbEntity
  8
Defpoints
 62
     0
100
AcDbPoint
 10
0.000118
 20
-31.499
 30
0.0
  0
POINT
  5
3B1
330
3A9
100
AcDbEntity
  8
Defpoints
 62
     0
100
AcDbPoint
 10
0.000118
 20
31.501
 30
0.0
  0
POINT
  5
3B2
330
3A9
100
AcDbEntity
  8
Defpoints
 62
     0
100
AcDbPoint
 10
-45.46462525099273
 20
31.501
 30
0.0
  0
ENDBLK
  5
3B5
330
3A9
100
AcDbEntity
  8
0
100
AcDbBlockEnd
  0
BLOCK
  5
3C4
330
3BA
100
AcDbEntity
  8
0
100
AcDbBlockBegin
  2
*D30
 70
     1
 10
0.0
 20
0.0
 30
0.0
  3
*D30
  1

  0
LINE
  5
3BB
330
3BA
100
AcDbEntity
  8
SK2
 62
     0
370
     0
100
AcDbLine
 10
-31.999882
 20
21.574501
 30
0.0
 11
-31.999882
 21
47.22910508017253
 31
0.0
  0
LINE
  5
3BC
330
3BA
100
AcDbEntity
  8
SK2
 62
     0
370
     0
100
AcDbLine
 10
0.000118
 20
31.50099985060085
 30
0.0
 11
0.000118
 21
47.22910508017253
 31
0.0
  0
LINE
  5
3BD
330
3BA
100
AcDbEntity
  8
SK2
 62
     0
370
     0
100
AcDbLine
 10
-28.499882
 20
42.22910508017253
 30
0.0
 11
-3.499882
 21
42.22910508017253
 31
0.0
  0
INSERT
  5
3BE
330
3BA
100
AcDbEntity
  8
SK2
 62
     0
370
     0
100
AcDbBlockReference
  2
_ARROW_FILLED
 10
-31.999882
 20
42.22910508017253
 30
0.0
 41
3.5
 42
3.5
 43
3.5
 50
180.0
  0
INSERT
  5
3BF
330
3BA
100
AcDbEntity
  8
SK2
 62
     0
370
     0
100
AcDbBlockReference
  2
_ARROW_FILLED
 10
0.000118
 20
42.22910508017253
 30
0.0
 41
3.5
 42
3.5
 43
3.5
  0
MTEXT
  5
3C0
330
3BA
100
AcDbEntity
  8
SK2
 62
     7
370
     0
100
AcDbMText
 10
-15.999882
 20
44.97910508017253
 30
0.0
 40
3.5
 41
0.0
 71
     5
 72
     1
  1
\A1;32
  7
BMG_Text
 73
     1
 44
1.0
  0
POINT
  5
3C1
330
3BA
100
AcDbEntity
  8
Defpoints
 62
     0
100
AcDbPoint
 10
-31.999882
 20
21.574501
 30
0.0
  0
POINT
  5
3C2
330
3BA
100
AcDbEntity
  8
Defpoints
 62
     0
100
AcDbPoint
 10
0.000118
 20
31.50099985060085
 30
0.0
  0
POINT
  5
3C3
330
3BA
100
AcDbEntity
  8
Defpoints
 62
     0
100
AcDbPoint
 10
0.000118
 20
42.22910508017253
 30
0.0
  0
ENDBLK
  5
3C5
330
3BA
100
AcDbEntity
  8
0
100
AcDbBlockEnd
  0
BLOCK
  5
3D3
330
3C9
100
AcDbEntity
  8
0
100
AcDbBlockBegin
  2
*D31
 70
     1
 10
0.0
 20
0.0
 30
0.0
  3
*D31
  1

  0
LINE
  5
3CA
330
3C9
100
AcDbEntity
  8
SK2
 62
     0
370
     0
100
AcDbLine
 10
-31.999882
 20
21.574501
 30
0.0
 11
-31.99988200000002
 21
65.00068550753282
 31
0.0
  0
LINE
  5
3CB
330
3C9
100
AcDbEntity
  8
SK2
 62
     0
370
     0
100
AcDbLine
 10
200.000118
 20
16.001
 30
0.0
 11
200.000118
 21
65.00068550753282
 31
0.0
  0
LINE
  5
3CC
330
3C9
100
AcDbEntity
  8
SK2
 62
     0
370
     0
100
AcDbLine
 10
-28.49988200000001
 20
60.00068550753282
 30
0.0
 11
196.500118
 21
60.00068550753282
 31
0.0
  0
INSERT
  5
3CD
330
3C9
100
AcDbEntity
  8
SK2
 62
     0
370
     0
100
AcDbBlockReference
  2
_ARROW_FILLED
 10
-31.99988200000001
 20
60.00068550753282
 30
0.0
 41
3.5
 42
3.5
 43
3.5
 50
180.0
  0
INSERT
  5
3CE
330
3C9
100
AcDbEntity
  8
SK2
 62
     0
370
     0
100
AcDbBlockReference
  2
_ARROW_FILLED
 10
200.000118
 20
60.00068550753282
 30
0.0
 41
3.5
 42
3.5
 43
3.5
  0
MTEXT
  5
3CF
330
3C9
100
AcDbEntity
  8
SK2
 62
     7
370
     0
100
AcDbMText
 10
84.00011799999999
 20
62.75068550753282
 30
0.0
 40
3.5
 41
0.0
 71
     5
 72
     1
  1
\A1;232
  7
BMG_Text
 73
     1
 44
1.0
  0
POINT
  5
3D0
330
3C9
100
AcDbEntity
  8
Defpoints
 62
     0
100
AcDbPoint
 10
-31.999882
 20
21.574501
 30
0.0
  0
POINT
  5
3D1
330
3C9
100
AcDbEntity
  8
Defpoints
 62
     0
100
AcDbPoint
 10
200.000118
 20
16.001
 30
0.0
  0
POINT
  5
3D2
330
3C9
100
AcDbEntity
  8
Defpoints
 62
     0
100
AcDbPoint
 10
200.000118
 20
60.00068550753282
 30
0.0
  0
ENDBLK
  5
3D4
330
3C9
100
AcDbEntity
  8
0
100
AcDbBlockEnd
  0
BLOCK
  5
3E4
330
3DA
100
AcDbEntity
  8
0
100
AcDbBlockBegin
  2
*D32
 70
     1
 10
0.0
 20
0.0
 30
0.0
  3
*D32
  1

  0
LINE
  5
3DB
330
3DA
100
AcDbEntity
  8
2
 62
     0
370
     0
100
AcDbLine
 10
26.000118
 20
31.501
 30
0.0
 11
26.00011799999998
 21
49.6084194370348
 31
0.0
  0
LINE
  5
3DC
330
3DA
100
AcDbEntity
  8
2
 62
     0
370
     0
100
AcDbLine
 10
200.000118
 20
16.001
 30
0.0
 11
200.000118
 21
49.6084194370348
 31
0.0
  0
LINE
  5
3DD
330
3DA
100
AcDbEntity
  8
2
 62
     0
370
     0
100
AcDbLine
 10
29.50011799999999
 20
44.6084194370348
 30
0.0
 11
196.500118
 21
44.6084194370348
 31
0.0
  0
INSERT
  5
3DE
330
3DA
100
AcDbEntity
  8
2
 62
     0
370
     0
100
AcDbBlockReference
  2
_ARROW_FILLED
 10
26.00011799999999
 20
44.6084194370348
 30
0.0
 41
3.5
 42
3.5
 43
3.5
 50
180.0
  0
INSERT
  5
3DF
330
3DA
100
AcDbEntity
  8
2
 62
     0
370
     0
100
AcDbBlockReference
  2
_ARROW_FILLED
 10
200.000118
 20
44.6084194370348
 30
0.0
 41
3.5
 42
3.5
 43
3.5
  0
MTEXT
  5
3E0
330
3DA
100
AcDbEntity
  8
2
 62
     7
370
     0
100
AcDbMText
 10
113.000118
 20
47.3584194370348
 30
0.0
 40
3.5
 41
0.0
 71
     5
 72
     1
  1
\A1;174
  7
BMG_Text
 73
     1
 44
1.0
  0
POINT
  5
3E1
330
3DA
100
AcDbEntity
  8
Defpoints
 62
     0
100
AcDbPoint
 10
26.000118
 20
31.501
 30
0.0
  0
POINT
  5
3E2
330
3DA
100
AcDbEntity
  8
Defpoints
 62
     0
100
AcDbPoint
 10
200.000118
 20
16.001
 30
0.0
  0
POINT
  5
3E3
330
3DA
100
AcDbEntity
  8
Defpoints
 62
     0
100
AcDbPoint
 10
200.000118
 20
44.6084194370348
 30
0.0
  0
ENDBLK
  5
3E5
330
3DA
100
AcDbEntity
  8
0
100
AcDbBlockEnd
  0
BLOCK
  5
3F4
330
3EA
100
AcDbEntity
  8
0
100
AcDbBlockBegin
  2
*D33
 70
     1
 10
0.0
 20
0.0
 30
0.0
  3
*D33
  1

  0
LINE
  5
3EB
330
3EA
100
AcDbEntity
  8
2
 62
     0
370
     0
100
AcDbLine
 10
0.000118
 20
-31.499
 30
0.0
 11
0.0001179999999798
 21
-47.01634080371431
 31
0.0
  0
LINE
  5
3EC
330
3EA
100
AcDbEntity
  8
2
 62
     0
370
     0
100
AcDbLine
 10
200.000118
 20
-15.999
 30
0.0
 11
200.000118
 21
-47.01634080371431
 31
0.0
  0
LINE
  5
3ED
330
3EA
100
AcDbEntity
  8
2
 62
     0
370
     0
100
AcDbLine
 10
3.500117999999986
 20
-42.01634080371431
 30
0.0
 11
196.500118
 21
-42.01634080371431
 31
0.0
  0
INSERT
  5
3EE
330
3EA
100
AcDbEntity
  8
2
 62
     0
370
     0
100
AcDbBlockReference
  2
_ARROW_FILLED
 10
0.0001179999999863
 20
-42.01634080371431
 30
0.0
 41
3.5
 42
3.5
 43
3.5
 50
180.0
  0
INSERT
  5
3EF
330
3EA
100
AcDbEntity
  8
2
 62
     0
370
     0
100
AcDbBlockReference
  2
_ARROW_FILLED
 10
200.000118
 20
-42.01634080371431
 30
0.0
 41
3.5
 42
3.5
 43
3.5
  0
MTEXT
  5
3F0
330
3EA
100
AcDbEntity
  8
2
 62
     7
370
     0
100
AcDbMText
 10
100.000118
 20
-39.26634080371431
 30
0.0
 40
3.5
 41
0.0
 71
     5
 72
     1
  1
\A1;200
  7
BMG_Text
 73
     1
 44
1.0
  0
POINT
  5
3F1
330
3EA
100
AcDbEntity
  8
Defpoints
 62
     0
100
AcDbPoint
 10
0.000118
 20
-31.499
 30
0.0
  0
POINT
  5
3F2
330
3EA
100
AcDbEntity
  8
Defpoints
 62
     0
100
AcDbPoint
 10
200.000118
 20
-15.999
 30
0.0
  0
POINT
  5
3F3
330
3EA
100
AcDbEntity
  8
Defpoints
 62
     0
100
AcDbPoint
 10
200.000118
 20
-42.01634080371431
 30
0.0
  0
ENDBLK
  5
3F5
330
3EA
100
AcDbEntity
  8
0
100
AcDbBlockEnd
  0
BLOCK
  5
405
330
3FB
100
AcDbEntity
  8
0
100
AcDbBlockBegin
  2
*D34
 70
     1
 10
0.0
 20
0.0
 30
0.0
  3
*D34
  1

  0
LINE
  5
3FC
330
3FB
100
AcDbEntity
  8
SK2
 62
     0
370
     0
100
AcDbLine
 10
146.000118
 20
11.001
 30
0.0
 11
146.000118
 21
34.06038554766957
 31
0.0
  0
LINE
  5
3FD
330
3FB
100
AcDbEntity
  8
SK2
 62
     0
370
     0
100
AcDbLine
 10
200.000118
 20
16.001
 30
0.0
 11
200.000118
 21
34.06038554766957
 31
0.0
  0
LINE
  5
3FE
330
3FB
100
AcDbEntity
  8
SK2
 62
     0
370
     0
100
AcDbLine
 10
149.500118
 20
29.06038554766957
 30
0.0
 11
196.500118
 21
29.06038554766957
 31
0.0
  0
INSERT
  5
3FF
330
3FB
100
AcDbEntity
  8
SK2
 62
     0
370
     0
100
AcDbBlockReference
  2
_ARROW_FILLED
 10
146.000118
 20
29.06038554766957
 30
0.0
 41
3.5
 42
3.5
 43
3.5
 50
180.0
  0
INSERT
  5
400
330
3FB
100
AcDbEntity
  8
SK2
 62
     0
370
     0
100
AcDbBlockReference
  2
_ARROW_FILLED
 10
200.000118
 20
29.06038554766957
 30
0.0
 41
3.5
 42
3.5
 43
3.5
  0
MTEXT
  5
401
330
3FB
100
AcDbEntity
  8
SK2
 62
     7
370
     0
100
AcDbMText
 10
173.000118
 20
31.81038554766957
 30
0.0
 40
3.5
 41
0.0
 71
     5
 72
     1
  1
\A1;54
  7
BMG_Text
 73
     1
 44
1.0
  0
POINT
  5
402
330
3FB
100
AcDbEntity
  8
Defpoints
 62
     0
100
AcDbPoint
 10
146.000118
 20
11.001
 30
0.0
  0
POINT
  5
403
330
3FB
100
AcDbEntity
  8
Defpoints
 62
     0
100
AcDbPoint
 10
200.000118
 20
16.001
 30
0.0
  0
POINT
  5
404
330
3FB
100
AcDbEntity
  8
Defpoints
 62
     0
100
AcDbPoint
 10
200.000118
 20
29.06038554766957
 30
0.0
  0
ENDBLK
  5
406
330
3FB
100
AcDbEntity
  8
0
100
AcDbBlockEnd
  0
BLOCK
  5
416
330
40B
100
AcDbEntity
  8
0
100
AcDbBlockBegin
  2
*D35
 70
     1
 10
0.0
 20
0.0
 30
0.0
  3
*D35
  1

  0
LINE
  5
40C
330
40B
100
AcDbEntity
  8
2
 62
     0
370
     0
100
AcDbLine
 10
199.000118
 20
-16.999
 30
0.0
 11
237.5514294292848
 21
-16.999
 31
0.0
  0
LINE
  5
40D
330
40B
100
AcDbEntity
  8
2
 62
     0
370
     0
100
AcDbLine
 10
199.000118
 20
17.001
 30
0.0
 11
237.5514294292848
 21
17.001
 31
0.0
  0
LINE
  5
40E
330
40B
100
AcDbEntity
  8
2
 62
     0
370
     0
100
AcDbLine
 10
232.5514294292848
 20
-13.499
 30
0.0
 11
232.5514294292848
 21
13.501
 31
0.0
  0
INSERT
  5
40F
330
40B
100
AcDbEntity
  8
2
 62
     0
370
     0
100
AcDbBlockReference
  2
_ARROW_FILLED
 10
232.5514294292848
 20
-16.999
 30
0.0
 41
3.5
 42
3.5
 43
3.5
 50
270.0
  0
INSERT
  5
410
330
40B
100
AcDbEntity
  8
2
 62
     0
370
     0
100
AcDbBlockReference
  2
_ARROW_FILLED
 10
232.5514294292848
 20
17.001
 30
0.0
 41
3.5
 42
3.5
 43
3.5
 50
90.0
  0
MTEXT
  5
411
330
40B
100
AcDbEntity
  8
2
 62
     7
370
     0
100
AcDbMText
 10
229.8014294292848
 20
0.0009999999999977
 30
0.0
 40
3.5
 41
0.0
 71
     5
 72
     1
  1
\A1;Ø34
  7
BMG_Text
 11
0.0
 21
1.0
 31
0.0
 73
     1
 44
1.0
  0
POINT
  5
412
330
40B
100
AcDbEntity
  8
Defpoints
 62
     0
100
AcDbPoint
 10
199.000118
 20
-16.999
 30
0.0
  0
POINT
  5
413
330
40B
100
AcDbEntity
  8
Defpoints
 62
     0
100
AcDbPoint
 10
199.000118
 20
17.001
 30
0.0
  0
POINT
  5
414
330
40B
100
AcDbEntity
  8
Defpoints
 62
     0
100
AcDbPoint
 10
232.5514294292848
 20
17.001
 30
0.0
  0
ENDBLK
  5
417
330
40B
100
AcDbEntity
  8
0
100
AcDbBlockEnd
  0
BLOCK
  5
427
330
41C
100
AcDbEntity
  8
0
100
AcDbBlockBegin
  2
*D36
 70
     1
 10
0.0
 20
0.0
 30
0.0
  3
*D36
  1

  0
LINE
  5
41D
330
41C
100
AcDbEntity
  8
2
 62
     0
370
     0
100
AcDbLine
 10
26.9386386236116
 20
25.44319264602289
 30
0.0
 11
45.92451365873374
 21
25.44319264602289
 31
0.0
  0
LINE
  5
41E
330
41C
100
AcDbEntity
  8
2
 62
     0
370
     0
100
AcDbLine
 10
26.93864030622562
 20
-25.4411925423822
 30
0.0
 11
45.92451365873374
 21
-25.4411925423822
 31
0.0
  0
LINE
  5
41F
330
41C
100
AcDbEntity
  8
2
 62
     0
370
     0
100
AcDbLine
 10
40.92451365873374
 20
21.94319264602289
 30
0.0
 11
40.92451365873374
 21
-21.9411925423822
 31
0.0
  0
INSERT
  5
420
330
41C
100
AcDbEntity
  8
2
 62
     0
370
     0
100
AcDbBlockReference
  2
_ARROW_FILLED
 10
40.92451365873374
 20
25.44319264602289
 30
0.0
 41
3.5
 42
3.5
 43
3.5
 50
90.0
  0
INSERT
  5
421
330
41C
100
AcDbEntity
  8
2
 62
     0
370
     0
100
AcDbBlockReference
  2
_ARROW_FILLED
 10
40.92451365873374
 20
-25.4411925423822
 30
0.0
 41
3.5
 42
3.5
 43
3.5
 50
270.0
  0
MTEXT
  5
422
330
41C
100
AcDbEntity
  8
2
 62
     7
370
     0
100
AcDbMText
 10
38.17451365873374
 20
0.0010000518203448
 30
0.0
 40
3.5
 41
0.0
 71
     5
 72
     1
  1
\A1;Ø51
  7
BMG_Text
 11
0.0
 21
1.0
 31
0.0
 73
     1
 44
1.0
  0
POINT
  5
423
330
41C
100
AcDbEntity
  8
Defpoints
 62
     0
100
AcDbPoint
 10
26.9386386236116
 20
25.44319264602289
 30
0.0
  0
POINT
  5
424
330
41C
100
AcDbEntity
  8
Defpoints
 62
     0
100
AcDbPoint
 10
26.93864030622562
 20
-25.4411925423822
 30
0.0
  0
POINT
  5
425
330
41C
100
AcDbEntity
  8
Defpoints
 62
     0
100
AcDbPoint
 10
40.92451365873374
 20
-25.4411925423822
 30
0.0
  0
ENDBLK
  5
428
330
41C
100
AcDbEntity
  8
0
100
AcDbBlockEnd
  0
BLOCK
  5
4E1
330
4E0
100
AcDbEntity
  8
0
100
AcDbBlockBegin
  2
*D37
 70
     1
 10
0.0
 20
0.0
 30
0.0
  3
*D37
  1

  0
LINE
  5
4E2
330
4E0
100
AcDbEntity
  8
SK2
 62
     0
370
     0
100
AcDbLine
 10
204.730628094398
 20
136.9928546325031
 30
0.0
 11
230.47163250986
 21
136.9928546325031
 31
0.0
  0
LINE
  5
4E3
330
4E0
100
AcDbEntity
  8
SK2
 62
     0
370
     0
100
AcDbLine
 10
204.730628094398
 20
156.9928546325031
 30
0.0
 11
230.47163250986
 21
156.9928546325031
 31
0.0
  0
LINE
  5
4E4
330
4E0
100
AcDbEntity
  8
SK2
 62
     0
370
     0
100
AcDbLine
 10
225.47163250986
 20
140.4928546325031
 30
0.0
 11
225.47163250986
 21
153.4928546325031
 31
0.0
  0
INSERT
  5
4E5
330
4E0
100
AcDbEntity
  8
SK2
 62
     0
370
     0
100
AcDbBlockReference
  2
_ARROW_FILLED
 10
225.47163250986
 20
136.9928546325031
 30
0.0
 41
3.5
 42
3.5
 43
3.5
 50
270.0
  0
INSERT
  5
4E6
330
4E0
100
AcDbEntity
  8
SK2
 62
     0
370
     0
100
AcDbBlockReference
  2
_ARROW_FILLED
 10
225.47163250986
 20
156.9928546325031
 30
0.0
 41
3.5
 42
3.5
 43
3.5
 50
90.0
  0
MTEXT
  5
4E7
330
4E0
100
AcDbEntity
  8
SK2
 62
     7
100
AcDbMText
 10
222.72163250986
 20
146.9928546325031
 30
0.0
 40
3.5
 41
0.0
 71
     5
 72
     1
  1
\A1;Ø20
  7
BMG_Text
 11
0.0
 21
1.0
 31
0.0
 73
     1
 44
1.0
  0
POINT
  5
4E8
330
4E0
100
AcDbEntity
  8
Defpoints
 62
     0
100
AcDbPoint
 10
204.730628094398
 20
136.9928546325031
 30
0.0
  0
POINT
  5
4E9
330
4E0
100
AcDbEntity
  8
Defpoints
 62
     0
100
AcDbPoint
 10
204.730628094398
 20
156.9928546325031
 30
0.0
  0
POINT
  5
4EA
330
4E0
100
AcDbEntity
  8
Defpoints
 62
     0
100
AcDbPoint
 10
225.47163250986
 20
156.9928546325031
 30
0.0
  0
ENDBLK
  5
4EB
330
4E0
100
AcDbEntity
  8
0
100
AcDbBlockEnd
  0
BLOCK
  5
4EE
330
4ED
100
AcDbEntity
  8
0
100
AcDbBlockBegin
  2
*D38
 70
     1
 10
0.0
 20
0.0
 30
0.0
  3
*D38
  1

  0
LINE
  5
4EF
330
4ED
100
AcDbEntity
  8
SK2
 62
     0
370
     0
100
AcDbLine
 10
4.730628094398007
 20
115.4928546325031
 30
0.0
 11
-45.73411515659473
 21
115.4928546325031
 31
0.0
  0
LINE
  5
4F0
330
4ED
100
AcDbEntity
  8
SK2
 62
     0
370
     0
100
AcDbLine
 10
4.730628094398007
 20
178.4928546325031
 30
0.0
 11
-45.73411515659473
 21
178.4928546325031
 31
0.0
  0
LINE
  5
4F1
330
4ED
100
AcDbEntity
  8
SK2
 62
     0
370
     0
100
AcDbLine
 10
-40.73411515659473
 20
118.9928546325031
 30
0.0
 11
-40.73411515659473
 21
174.9928546325031
 31
0.0
  0
INSERT
  5
4F2
330
4ED
100
AcDbEntity
  8
SK2
 62
     0
370
     0
100
AcDbBlockReference
  2
_ARROW_FILLED
 10
-40.73411515659473
 20
115.4928546325031
 30
0.0
 41
3.5
 42
3.5
 43
3.5
 50
270.0
  0
INSERT
  5
4F3
330
4ED
100
AcDbEntity
  8
SK2
 62
     0
370
     0
100
AcDbBlockReference
  2
_ARROW_FILLED
 10
-40.73411515659473
 20
178.4928546325031
 30
0.0
 41
3.5
 42
3.5
 43
3.5
 50
90.0
  0
MTEXT
  5
4F4
330
4ED
100
AcDbEntity
  8
SK2
 62
     7
370
     0
100
AcDbMText
 10
-43.48411515659473
 20
146.9928546325031
 30
0.0
 40
3.5
 41
0.0
 71
     5
 72
     1
  1
\A1;Ø63
  7
BMG_Text
 11
1.127845612317620E-16
 21
1.0
 31
0.0
 73
     1
 44
1.0
  0
POINT
  5
4F5
330
4ED
100
AcDbEntity
  8
Defpoints
 62
     0
100
AcDbPoint
 10
4.730628094398007
 20
115.4928546325031
 30
0.0
  0
POINT
  5
4F6
330
4ED
100
AcDbEntity
  8
Defpoints
 62
     0
100
AcDbPoint
 10
4.730628094398007
 20
178.4928546325031
 30
0.0
  0
POINT
  5
4F7
330
4ED
100
AcDbEntity
  8
Defpoints
 62
     0
100
AcDbPoint
 10
-40.73411515659473
 20
178.4928546325031
 30
0.0
  0
ENDBLK
  5
4F8
330
4ED
100
AcDbEntity
  8
0
100
AcDbBlockEnd
  0
BLOCK
  5
4FB
330
4FA
100
AcDbEntity
  8
0
100
AcDbBlockBegin
  2
*D39
 70
     1
 10
0.0
 20
0.0
 30
0.0
  3
*D39
  1

  0
LINE
  5
4FC
330
4FA
100
AcDbEntity
  8
SK2
 62
     0
370
     0
100
AcDbLine
 10
-27.26937190560199
 20
168.5663556325031
 30
0.0
 11
-27.26937190560199
 21
194.2209597126757
 31
0.0
  0
LINE
  5
4FD
330
4FA
100
AcDbEntity
  8
SK2
 62
     0
370
     0
100
AcDbLine
 10
4.730628094398007
 20
178.492854483104
 30
0.0
 11
4.730628094398007
 21
194.2209597126757
 31
0.0
  0
LINE
  5
4FE
330
4FA
100
AcDbEntity
  8
SK2
 62
     0
370
     0
100
AcDbLine
 10
-23.76937190560199
 20
189.2209597126757
 30
0.0
 11
1.230628094398007
 21
189.2209597126757
 31
0.0
  0
INSERT
  5
4FF
330
4FA
100
AcDbEntity
  8
SK2
 62
     0
370
     0
100
AcDbBlockReference
  2
_ARROW_FILLED
 10
-27.26937190560199
 20
189.2209597126757
 30
0.0
 41
3.5
 42
3.5
 43
3.5
 50
180.0
  0
INSERT
  5
500
330
4FA
100
AcDbEntity
  8
SK2
 62
     0
370
     0
100
AcDbBlockReference
  2
_ARROW_FILLED
 10
4.730628094398007
 20
189.2209597126757
 30
0.0
 41
3.5
 42
3.5
 43
3.5
  0
MTEXT
  5
501
330
4FA
100
AcDbEntity
  8
SK2
 62
     7
370
     0
100
AcDbMText
 10
-11.26937190560199
 20
191.9709597126757
 30
0.0
 40
3.5
 41
0.0
 71
     5
 72
     1
  1
\A1;32
  7
BMG_Text
 73
     1
 44
1.0
  0
POINT
  5
502
330
4FA
100
AcDbEntity
  8
Defpoints
 62
     0
100
AcDbPoint
 10
-27.26937190560199
 20
168.5663556325031
 30
0.0
  0
POINT
  5
503
330
4FA
100
AcDbEntity
  8
Defpoints
 62
     0
100
AcDbPoint
 10
4.730628094398007
 20
178.492854483104
 30
0.0
  0
POINT
  5
504
330
4FA
100
AcDbEntity
  8
Defpoints
 62
     0
100
AcDbPoint
 10
4.730628094398007
 20
189.2209597126757
 30
0.0
  0
ENDBLK
  5
505
330
4FA
100
AcDbEntity
  8
0
100
AcDbBlockEnd
  0
BLOCK
  5
508
330
507
100
AcDbEntity
  8
0
100
AcDbBlockBegin
  2
*D40
 70
     1
 10
0.0
 20
0.0
 30
0.0
  3
*D40
  1

  0
LINE
  5
509
330
507
100
AcDbEntity
  8
SK2
 62
     0
370
     0
100
AcDbLine
 10
-27.26937190560199
 20
168.5663556325031
 30
0.0
 11
-27.26937190560199
 21
211.9925401400359
 31
0.0
  0
LINE
  5
50A
330
507
100
AcDbEntity
  8
SK2
 62
     0
370
     0
100
AcDbLine
 10
204.730628094398
 20
162.9928546325031
 30
0.0
 11
204.730628094398
 21
211.9925401400359
 31
0.0
  0
LINE
  5
50B
330
507
100
AcDbEntity
  8
SK2
 62
     0
370
     0
100
AcDbLine
 10
-23.76937190560199
 20
206.9925401400359
 30
0.0
 11
201.230628094398
 21
206.9925401400359
 31
0.0
  0
INSERT
  5
50C
330
507
100
AcDbEntity
  8
SK2
 62
     0
370
     0
100
AcDbBlockReference
  2
_ARROW_FILLED
 10
-27.26937190560199
 20
206.9925401400359
 30
0.0
 41
3.5
 42
3.5
 43
3.5
 50
180.0
  0
INSERT
  5
50D
330
507
100
AcDbEntity
  8
SK2
 62
     0
370
     0
100
AcDbBlockReference
  2
_ARROW_FILLED
 10
204.730628094398
 20
206.9925401400359
 30
0.0
 41
3.5
 42
3.5
 43
3.5
  0
MTEXT
  5
50E
330
507
100
AcDbEntity
  8
SK2
 62
     7
370
     0
100
AcDbMText
 10
88.730628094398
 20
209.7425401400359
 30
0.0
 40
3.5
 41
0.0
 71
     5
 72
     1
  1
\A1;232
  7
BMG_Text
 73
     1
 44
1.0
  0
POINT
  5
50F
330
507
100
AcDbEntity
  8
Defpoints
 62
     0
100
AcDbPoint
 10
-27.26937190560199
 20
168.5663556325031
 30
0.0
  0
POINT
  5
510
330
507
100
AcDbEntity
  8
Defpoints
 62
     0
100
AcDbPoint
 10
204.730628094398
 20
162.9928546325031
 30
0.0
  0
POINT
  5
511
330
507
100
AcDbEntity
  8
Defpoints
 62
     0
100
AcDbPoint
 10
204.730628094398
 20
206.9925401400359
 30
0.0
  0
ENDBLK
  5
512
330
507
100
AcDbEntity
  8
0
100
AcDbBlockEnd
  0
BLOCK
  5
515
330
514
100
AcDbEntity
  8
0
100
AcDbBlockBegin
  2
*D41
 70
     1
 10
0.0
 20
0.0
 30
0.0
  3
*D41
  1

  0
LINE
  5
516
330
514
100
AcDbEntity
  8
2
 62
     0
370
     0
100
AcDbLine
 10
30.73062809439801
 20
178.4928546325031
 30
0.0
 11
30.73062809439801
 21
196.6002740695379
 31
0.0
  0
LINE
  5
517
330
514
100
AcDbEntity
  8
2
 62
     0
370
     0
100
AcDbLine
 10
204.730628094398
 20
162.9928546325031
 30
0.0
 11
204.730628094398
 21
196.6002740695379
 31
0.0
  0
LINE
  5
518
330
514
100
AcDbEntity
  8
2
 62
     0
370
     0
100
AcDbLine
 10
34.23062809439801
 20
191.6002740695379
 30
0.0
 11
201.230628094398
 21
191.6002740695379
 31
0.0
  0
INSERT
  5
519
330
514
100
AcDbEntity
  8
2
 62
     0
370
     0
100
AcDbBlockReference
  2
_ARROW_FILLED
 10
30.73062809439801
 20
191.6002740695379
 30
0.0
 41
3.5
 42
3.5
 43
3.5
 50
180.0
  0
INSERT
  5
51A
330
514
100
AcDbEntity
  8
2
 62
     0
370
     0
100
AcDbBlockReference
  2
_ARROW_FILLED
 10
204.730628094398
 20
191.6002740695379
 30
0.0
 41
3.5
 42
3.5
 43
3.5
  0
MTEXT
  5
51B
330
514
100
AcDbEntity
  8
2
 62
     7
370
     0
100
AcDbMText
 10
117.730628094398
 20
194.3502740695379
 30
0.0
 40
3.5
 41
0.0
 71
     5
 72
     1
  1
\A1;174
  7
BMG_Text
 73
     1
 44
1.0
  0
POINT
  5
51C
330
514
100
AcDbEntity
  8
Defpoints
 62
     0
100
AcDbPoint
 10
30.73062809439801
 20
178.4928546325031
 30
0.0
  0
POINT
  5
51D
330
514
100
AcDbEntity
  8
Defpoints
 62
     0
100
AcDbPoint
 10
204.730628094398
 20
162.9928546325031
 30
0.0
  0
POINT
  5
51E
330
514
100
AcDbEntity
  8
Defpoints
 62
     0
100
AcDbPoint
 10
204.730628094398
 20
191.6002740695379
 30
0.0
  0
ENDBLK
  5
51F
330
514
100
AcDbEntity
  8
0
100
AcDbBlockEnd
  0
BLOCK
  5
522
330
521
100
AcDbEntity
  8
0
100
AcDbBlockBegin
  2
*D42
 70
     1
 10
0.0
 20
0.0
 30
0.0
  3
*D42
  1

  0
LINE
  5
523
330
521
100
AcDbEntity
  8
2
 62
     0
370
     0
100
AcDbLine
 10
4.730628094398007
 20
115.4928546325031
 30
0.0
 11
4.730628094398018
 21
99.97551382878882
 31
0.0
  0
LINE
  5
524
330
521
100
AcDbEntity
  8
2
 62
     0
370
     0
100
AcDbLine
 10
204.730628094398
 20
130.9928546325031
 30
0.0
 11
204.730628094398
 21
99.97551382878882
 31
0.0
  0
LINE
  5
525
330
521
100
AcDbEntity
  8
2
 62
     0
370
     0
100
AcDbLine
 10
8.230628094398014
 20
104.9755138287888
 30
0.0
 11
201.230628094398
 21
104.9755138287888
 31
0.0
  0
INSERT
  5
526
330
521
100
AcDbEntity
  8
2
 62
     0
370
     0
100
AcDbBlockReference
  2
_ARROW_FILLED
 10
4.730628094398014
 20
104.9755138287888
 30
0.0
 41
3.5
 42
3.5
 43
3.5
 50
180.0
  0
INSERT
  5
527
330
521
100
AcDbEntity
  8
2
 62
     0
370
     0
100
AcDbBlockReference
  2
_ARROW_FILLED
 10
204.730628094398
 20
104.9755138287888
 30
0.0
 41
3.5
 42
3.5
 43
3.5
  0
MTEXT
  5
528
330
521
100
AcDbEntity
  8
2
 62
     7
370
     0
100
AcDbMText
 10
104.730628094398
 20
107.7255138287888
 30
0.0
 40
3.5
 41
0.0
 71
     5
 72
     1
  1
\A1;200
  7
BMG_Text
 73
     1
 44
1.0
  0
POINT
  5
529
330
521
100
AcDbEntity
  8
Defpoints
 62
     0
100
AcDbPoint
 10
4.730628094398007
 20
115.4928546325031
 30
0.0
  0
POINT
  5
52A
330
521
100
AcDbEntity
  8
Defpoints
 62
     0
100
AcDbPoint
 10
204.730628094398
 20
130.9928546325031
 30
0.0
  0
POINT
  5
52B
330
521
100
AcDbEntity
  8
Defpoints
 62
     0
100
AcDbPoint
 10
204.730628094398
 20
104.9755138287888
 30
0.0
  0
ENDBLK
  5
52C
330
521
100
AcDbEntity
  8
0
100
AcDbBlockEnd
  0
BLOCK
  5
52F
330
52E
100
AcDbEntity
  8
0
100
AcDbBlockBegin
  2
*D43
 70
     1
 10
0.0
 20
0.0
 30
0.0
  3
*D43
  1

  0
LINE
  5
530
330
52E
100
AcDbEntity
  8
SK2
 62
     0
370
     0
100
AcDbLine
 10
150.730628094398
 20
157.9928546325031
 30
0.0
 11
150.730628094398
 21
181.0522401801727
 31
0.0
  0
LINE
  5
531
330
52E
100
AcDbEntity
  8
SK2
 62
     0
370
     0
100
AcDbLine
 10
204.730628094398
 20
162.9928546325031
 30
0.0
 11
204.730628094398
 21
181.0522401801727
 31
0.0
  0
LINE
  5
532
330
52E
100
AcDbEntity
  8
SK2
 62
     0
370
     0
100
AcDbLine
 10
154.230628094398
 20
176.0522401801727
 30
0.0
 11
201.230628094398
 21
176.0522401801727
 31
0.0
  0
INSERT
  5
533
330
52E
100
AcDbEntity
  8
SK2
 62
     0
370
     0
100
AcDbBlockReference
  2
_ARROW_FILLED
 10
150.730628094398
 20
176.0522401801727
 30
0.0
 41
3.5
 42
3.5
 43
3.5
 50
180.0
  0
INSERT
  5
534
330
52E
100
AcDbEntity
  8
SK2
 62
     0
370
     0
100
AcDbBlockReference
  2
_ARROW_FILLED
 10
204.730628094398
 20
176.0522401801727
 30
0.0
 41
3.5
 42
3.5
 43
3.5
  0
MTEXT
  5
535
330
52E
100
AcDbEntity
  8
SK2
 62
     7
370
     0
100
AcDbMText
 10
177.730628094398
 20
178.8022401801727
 30
0.0
 40
3.5
 41
0.0
 71
     5
 72
     1
  1
\A1;54
  7
BMG_Text
 73
     1
 44
1.0
  0
POINT
  5
536
330
52E
100
AcDbEntity
  8
Defpoints
 62
     0
100
AcDbPoint
 10
150.730628094398
 20
157.9928546325031
 30
0.0
  0
POINT
  5
537
330
52E
100
AcDbEntity
  8
Defpoints
 62
     0
100
AcDbPoint
 10
204.730628094398
 20
162.9928546325031
 30
0.0
  0
POINT
  5
538
330
52E
100
AcDbEntity
  8
Defpoints
 62
     0
100
AcDbPoint
 10
204.730628094398
 20
176.0522401801727
 30
0.0
  0
ENDBLK
  5
539
330
52E
100
AcDbEntity
  8
0
100
AcDbBlockEnd
  0
BLOCK
  5
53C
330
53B
100
AcDbEntity
  8
0
100
AcDbBlockBegin
  2
*D44
 70
     1
 10
0.0
 20
0.0
 30
0.0
  3
*D44
  1

  0
LINE
  5
53D
330
53B
100
AcDbEntity
  8
2
 62
     0
370
     0
100
AcDbLine
 10
203.730628094398
 20
129.9928546325031
 30
0.0
 11
242.2819395236828
 21
129.9928546325031
 31
0.0
  0
LINE
  5
53E
330
53B
100
AcDbEntity
  8
2
 62
     0
370
     0
100
AcDbLine
 10
203.730628094398
 20
163.9928546325031
 30
0.0
 11
242.2819395236828
 21
163.9928546325031
 31
0.0
  0
LINE
  5
53F
330
53B
100
AcDbEntity
  8
2
 62
     0
370
     0
100
AcDbLine
 10
237.2819395236828
 20
133.4928546325031
 30
0.0
 11
237.2819395236828
 21
160.4928546325031
 31
0.0
  0
INSERT
  5
540
330
53B
100
AcDbEntity
  8
2
 62
     0
370
     0
100
AcDbBlockReference
  2
_ARROW_FILLED
 10
237.2819395236828
 20
129.9928546325031
 30
0.0
 41
3.5
 42
3.5
 43
3.5
 50
270.0
  0
INSERT
  5
541
330
53B
100
AcDbEntity
  8
2
 62
     0
370
     0
100
AcDbBlockReference
  2
_ARROW_FILLED
 10
237.2819395236828
 20
163.9928546325031
 30
0.0
 41
3.5
 42
3.5
 43
3.5
 50
90.0
  0
MTEXT
  5
542
330
53B
100
AcDbEntity
  8
2
 62
     7
370
     0
100
AcDbMText
 10
234.5319395236828
 20
146.9928546325031
 30
0.0
 40
3.5
 41
0.0
 71
     5
 72
     1
  1
\A1;Ø34
  7
BMG_Text
 11
0.0
 21
1.0
 31
0.0
 73
     1
 44
1.0
  0
POINT
  5
543
330
53B
100
AcDbEntity
  8
Defpoints
 62
     0
100
AcDbPoint
 10
203.730628094398
 20
129.9928546325031
 30
0.0
  0
POINT
  5
544
330
53B
100
AcDbEntity
  8
Defpoints
 62
     0
100
AcDbPoint
 10
203.730628094398
 20
163.9928546325031
 30
0.0
  0
POINT
  5
545
330
53B
100
AcDbEntity
  8
Defpoints
 62
     0
100
AcDbPoint
 10
237.2819395236828
 20
163.9928546325031
 30
0.0
  0
ENDBLK
  5
546
330
53B
100
AcDbEntity
  8
0
100
AcDbBlockEnd
  0
BLOCK
  5
549
330
548
100
AcDbEntity
  8
0
100
AcDbBlockBegin
  2
*D45
 70
     1
 10
0.0
 20
0.0
 30
0.0
  3
*D45
  1

  0
LINE
  5
54A
330
548
100
AcDbEntity
  8
2
 62
     0
370
     0
100
AcDbLine
 10
31.66914871800961
 20
172.435047278526
 30
0.0
 11
50.65502375313174
 21
172.435047278526
 31
0.0
  0
LINE
  5
54B
330
548
100
AcDbEntity
  8
2
 62
     0
370
     0
100
AcDbLine
 10
31.66915040062362
 20
121.5506620901209
 30
0.0
 11
50.65502375313174
 21
121.5506620901209
 31
0.0
  0
LINE
  5
54C
330
548
100
AcDbEntity
  8
2
 62
     0
370
     0
100
AcDbLine
 10
45.65502375313174
 20
168.935047278526
 30
0.0
 11
45.65502375313174
 21
125.0506620901209
 31
0.0
  0
INSERT
  5
54D
330
548
100
AcDbEntity
  8
2
 62
     0
370
     0
100
AcDbBlockReference
  2
_ARROW_FILLED
 10
45.65502375313174
 20
172.435047278526
 30
0.0
 41
3.5
 42
3.5
 43
3.5
 50
90.0
  0
INSERT
  5
54E
330
548
100
AcDbEntity
  8
2
 62
     0
370
     0
100
AcDbBlockReference
  2
_ARROW_FILLED
 10
45.65502375313174
 20
121.5506620901209
 30
0.0
 41
3.5
 42
3.5
 43
3.5
 50
270.0
  0
MTEXT
  5
54F
330
548
100
AcDbEntity
  8
2
 62
     7
370
     0
100
AcDbMText
 10
42.90502375313174
 20
146.9928546843235
 30
0.0
 40
3.5
 41
0.0
 71
     5
 72
     1
  1
\A1;Ø51
  7
BMG_Text
 11
0.0
 21
1.0
 31
0.0
 73
     1
 44
1.0
  0
POINT
  5
550
330
548
100
AcDbEntity
  8
Defpoints
 62
     0
100
AcDbPoint
 10
31.66914871800961
 20
172.435047278526
 30
0.0
  0
POINT
  5
551
330
548
100
AcDbEntity
  8
Defpoints
 62
     0
100
AcDbPoint
 10
31.66915040062362
 20
121.5506620901209
 30
0.0
  0
POINT
  5
552
330
548
100
AcDbEntity
  8
Defpoints
 62
     0
100
AcDbPoint
 10
45.65502375313174
 20
121.5506620901209
 30
0.0
  0
ENDBLK
  5
553
330
548
100
AcDbEntity
  8
0
100
AcDbBlockEnd
  0
BLOCK
  5
642
330
641
100
AcDbEntity
  8
0
100
AcDbBlockBegin
  2
*D46
 70
     1
 10
0.0
 20
0.0
 30
0.0
  3
*D46
  1

  0
LINE
  5
643
330
641
100
AcDbEntity
  8
SK2
  6
Continuous
 62
     0
370
    -2
100
AcDbLine
 10
0.0
 20
-31.5
 30
0.0
 11
-53.99988200000001
 21
-31.5
 31
0.0
  0
LINE
  5
644
330
641
100
AcDbEntity
  8
SK2
  6
Continuous
 62
     0
370
    -2
100
AcDbLine
 10
0.0
 20
31.5
 30
0.0
 11
-53.999882
 21
31.5
 31
0.0
  0
LINE
  5
645
330
641
100
AcDbEntity
  8
SK2
  6
Continuous
 62
     0
370
    -2
100
AcDbLine
 10
-48.99988200000001
 20
-26.93
 30
0.0
 11
-48.99988200000001
 21
-5.416666666666668
 31
0.0
  0
LINE
  5
646
330
641
100
AcDbEntity
  8
SK2
  6
Continuous
 62
     0
370
    -2
100
AcDbLine
 10
-48.999882
 20
26.93
 30
0.0
 11
-48.999882
 21
5.416666666666661
 31
0.0
  0
INSERT
  5
647
330
641
100
AcDbEntity
  8
SK2
 62
     0
370
    -2
100
AcDbBlockReference
  2
_ARROW_FILLED
 10
-48.99988200000001
 20
-31.5
 30
0.0
 41
4.57
 42
4.57
 43
4.57
 50
270.0
  0
INSERT
  5
648
330
641
100
AcDbEntity
  8
SK2
 62
     0
370
    -2
100
AcDbBlockReference
  2
_ARROW_FILLED
 10
-48.999882
 20
31.5
 30
0.0
 41
4.57
 42
4.57
 43
4.57
 50
90.0
  0
MTEXT
  5
649
330
641
100
AcDbEntity
  8
SK2
 62
     7
100
AcDbMText
 10
-48.999882
 20
0.0000000000000036
 30
0.0
 40
3.5
 41
0.0
 71
     5
 72
     1
  1
\A1;%%c63
  7
BMG_Text
 11
1.127845612317619E-16
 21
1.0
 31
0.0
 73
     1
 44
1.0
  0
POINT
  5
64A
330
641
100
AcDbEntity
  8
Defpoints
 62
     0
100
AcDbPoint
 10
0.0
 20
-31.5
 30
0.0
  0
POINT
  5
64B
330
641
100
AcDbEntity
  8
Defpoints
 62
     0
100
AcDbPoint
 10
0.0
 20
31.5
 30
0.0
  0
POINT
  5
7C3
330
641
100
AcDbEntity
  8
Defpoints
 62
     0
100
AcDbPoint
 10
-48.999882
 20
31.5
 30
0.0
  0
ENDBLK
  5
64C
330
641
100
AcDbEntity
  8
0
100
AcDbBlockEnd
  0
BLOCK
  5
651
330
650
100
AcDbEntity
  8
0
100
AcDbBlockBegin
  2
*D47
 70
     1
 10
0.0
 20
0.0
 30
0.0
  3
*D47
  1

  0
LINE
  5
652
330
650
100
AcDbEntity
  8
SK2
  6
Continuous
 62
     0
370
    -2
100
AcDbLine
 10
-32.0
 20
21.573501
 30
0.0
 11
-32.0
 21
47.001
 31
0.0
  0
LINE
  5
653
330
650
100
AcDbEntity
  8
SK2
  6
Continuous
 62
     0
370
    -2
100
AcDbLine
 10
0.0
 20
31.5
 30
0.0
 11
0.0
 21
47.001
 31
0.0
  0
LINE
  5
654
330
650
100
AcDbEntity
  8
SK2
  6
Continuous
 62
     0
370
    -2
100
AcDbLine
 10
-27.43
 20
42.001
 30
0.0
 11
-19.83333333333333
 21
42.001
 31
0.0
  0
LINE
  5
655
330
650
100
AcDbEntity
  8
SK2
  6
Continuous
 62
     0
370
    -2
100
AcDbLine
 10
-4.57
 20
42.001
 30
0.0
 11
-12.16666666666667
 21
42.001
 31
0.0
  0
INSERT
  5
656
330
650
100
AcDbEntity
  8
SK2
 62
     0
370
    -2
100
AcDbBlockReference
  2
_ARROW_FILLED
 10
-32.0
 20
42.001
 30
0.0
 41
4.57
 42
4.57
 43
4.57
 50
180.0
  0
INSERT
  5
657
330
650
100
AcDbEntity
  8
SK2
 62
     0
370
    -2
100
AcDbBlockReference
  2
_ARROW_FILLED
 10
0.0
 20
42.001
 30
0.0
 41
4.57
 42
4.57
 43
4.57
  0
MTEXT
  5
658
330
650
100
AcDbEntity
  8
SK2
 62
     7
100
AcDbMText
 10
-16.0
 20
42.001
 30
0.0
 40
3.5
 41
0.0
 71
     5
 72
     1
  1
\A1;32
  7
BMG_Text
 73
     1
 44
1.0
  0
POINT
  5
659
330
650
100
AcDbEntity
  8
Defpoints
 62
     0
100
AcDbPoint
 10
-32.0
 20
21.573501
 30
0.0
  0
POINT
  5
65A
330
650
100
AcDbEntity
  8
Defpoints
 62
     0
100
AcDbPoint
 10
0.0
 20
31.5
 30
0.0
  0
POINT
  5
7C4
330
650
100
AcDbEntity
  8
Defpoints
 62
     0
100
AcDbPoint
 10
0.0
 20
42.001
 30
0.0
  0
ENDBLK
  5
65B
330
650
100
AcDbEntity
  8
0
100
AcDbBlockEnd
  0
BLOCK
  5
65E
330
65D
100
AcDbEntity
  8
0
100
AcDbBlockBegin
  2
*D48
 70
     1
 10
0.0
 20
0.0
 30
0.0
  3
*D48
  1

  0
LINE
  5
65F
330
65D
100
AcDbEntity
  8
SK2
  6
Continuous
 62
     0
370
    -2
100
AcDbLine
 10
-32.0
 20
21.573501
 30
0.0
 11
-32.0
 21
61.001
 31
0.0
  0
LINE
  5
660
330
65D
100
AcDbEntity
  8
SK2
  6
Continuous
 62
     0
370
    -2
100
AcDbLine
 10
90.0
 20
15.0
 30
0.0
 11
90.0
 21
61.001
 31
0.0
  0
LINE
  5
661
330
65D
100
AcDbEntity
  8
SK2
  6
Continuous
 62
     0
370
    -2
100
AcDbLine
 10
-27.43
 20
56.001
 30
0.0
 11
23.83333333333334
 21
56.001
 31
0.0
  0
LINE
  5
662
330
65D
100
AcDbEntity
  8
SK2
  6
Continuous
 62
     0
370
    -2
100
AcDbLine
 10
85.43
 20
56.001
 30
0.0
 11
34.16666666666667
 21
56.001
 31
0.0
  0
INSERT
  5
663
330
65D
100
AcDbEntity
  8
SK2
 62
     0
370
    -2
100
AcDbBlockReference
  2
_ARROW_FILLED
 10
-32.0
 20
56.001
 30
0.0
 41
4.57
 42
4.57
 43
4.57
 50
180.0
  0
INSERT
  5
664
330
65D
100
AcDbEntity
  8
SK2
 62
     0
370
    -2
100
AcDbBlockReference
  2
_ARROW_FILLED
 10
90.0
 20
56.001
 30
0.0
 41
4.57
 42
4.57
 43
4.57
  0
MTEXT
  5
665
330
65D
100
AcDbEntity
  8
SK2
 62
     7
100
AcDbMText
 10
29.0
 20
56.001
 30
0.0
 40
3.5
 41
0.0
 71
     5
 72
     1
  1
\A1;122
  7
BMG_Text
 73
     1
 44
1.0
  0
POINT
  5
666
330
65D
100
AcDbEntity
  8
Defpoints
 62
     0
100
AcDbPoint
 10
-32.0
 20
21.573501
 30
0.0
  0
POINT
  5
667
330
65D
100
AcDbEntity
  8
Defpoints
 62
     0
100
AcDbPoint
 10
90.0
 20
15.0
 30
0.0
  0
POINT
  5
7C5
330
65D
100
AcDbEntity
  8
Defpoints
 62
     0
100
AcDbPoint
 10
90.0
 20
56.001
 30
0.0
  0
ENDBLK
  5
675
330
65D
100
AcDbEntity
  8
0
100
AcDbBlockEnd
  0
BLOCK
  5
678
330
677
100
AcDbEntity
  8
0
100
AcDbBlockBegin
  2
*D49
 70
     1
 10
0.0
 20
0.0
 30
0.0
  3
*D49
  1

  0
LINE
  5
679
330
677
100
AcDbEntity
  8
2
  6
Continuous
 62
     0
370
    -2
100
AcDbLine
 10
90.0
 20
-15.0
 30
0.0
 11
90.0
 21
-53.999
 31
0.0
  0
LINE
  5
67A
330
677
100
AcDbEntity
  8
2
  6
Continuous
 62
     0
370
    -2
100
AcDbLine
 10
0.0
 20
-31.5
 30
0.0
 11
0.0
 21
-53.999
 31
0.0
  0
LINE
  5
67B
330
677
100
AcDbEntity
  8
2
  6
Continuous
 62
     0
370
    -2
100
AcDbLine
 10
85.43
 20
-48.999
 30
0.0
 11
48.83333333333333
 21
-48.999
 31
0.0
  0
LINE
  5
67C
330
677
100
AcDbEntity
  8
2
  6
Continuous
 62
     0
370
    -2
100
AcDbLine
 10
4.57
 20
-48.999
 30
0.0
 11
41.16666666666666
 21
-48.999
 31
0.0
  0
INSERT
  5
67D
330
677
100
AcDbEntity
  8
2
 62
     0
370
    -2
100
AcDbBlockReference
  2
_ARROW_FILLED
 10
90.0
 20
-48.999
 30
0.0
 41
4.57
 42
4.57
 43
4.57
  0
INSERT
  5
67E
330
677
100
AcDbEntity
  8
2
 62
     0
370
    -2
100
AcDbBlockReference
  2
_ARROW_FILLED
 10
0.0
 20
-48.999
 30
0.0
 41
4.57
 42
4.57
 43
4.57
 50
180.0
  0
MTEXT
  5
67F
330
677
100
AcDbEntity
  8
2
 62
     7
100
AcDbMText
 10
45.0
 20
-48.999
 30
0.0
 40
3.5
 41
0.0
 71
     5
 72
     1
  1
\A1;90
  7
BMG_Text
 73
     1
 44
1.0
  0
POINT
  5
680
330
677
100
AcDbEntity
  8
Defpoints
 62
     0
100
AcDbPoint
 10
90.0
 20
-15.0
 30
0.0
  0
POINT
  5
681
330
677
100
AcDbEntity
  8
Defpoints
 62
     0
100
AcDbPoint
 10
0.0
 20
-31.5
 30
0.0
  0
POINT
  5
7C2
330
677
100
AcDbEntity
  8
Defpoints
 62
     0
100
AcDbPoint
 10
0.0
 20
-48.999
 30
0.0
  0
ENDBLK
  5
68F
330
677
100
AcDbEntity
  8
0
100
AcDbBlockEnd
  0
BLOCK
  5
6A7
330
6A6
100
AcDbEntity
  8
0
100
AcDbBlockBegin
  2
*D50
 70
     1
 10
0.0
 20
0.0
 30
0.0
  3
*D50
  1

  0
LINE
  5
6A8
330
6A6
100
AcDbEntity
  8
2
  6
Continuous
 62
     0
370
    -2
100
AcDbLine
 10
90.0
 20
-6.0
 30
0.0
 11
110.000118
 21
-6.000000000000004
 31
0.0
  0
LINE
  5
6A9
330
6A6
100
AcDbEntity
  8
2
  6
Continuous
 62
     0
370
    -2
100
AcDbLine
 10
90.0
 20
6.0
 30
0.0
 11
110.000118
 21
5.999999999999999
 31
0.0
  0
LINE
  5
6AA
330
6A6
100
AcDbEntity
  8
2
  6
Continuous
 62
     0
370
    -2
100
AcDbLine
 10
105.000118
 20
5.999999999999999
 30
0.0
 11
105.000118
 21
10.57
 31
0.0
  0
LINE
  5
6AB
330
6A6
100
AcDbEntity
  8
2
  6
Continuous
 62
     0
370
    -2
100
AcDbLine
 10
105.000118
 20
-6.000000000000003
 30
0.0
 11
105.000118
 21
5.999999999999999
 31
0.0
  0
LINE
  5
6AC
330
6A6
100
AcDbEntity
  8
2
  6
Continuous
 62
     0
370
    -2
100
AcDbLine
 10
105.000118
 20
-10.57
 30
0.0
 11
105.000118
 21
-15.14
 31
0.0
  0
LINE
  5
6AD
330
6A6
100
AcDbEntity
  8
2
  6
Continuous
 62
     0
370
    -2
100
AcDbLine
 10
105.000118
 20
10.57
 30
0.0
 11
105.000118
 21
15.14
 31
0.0
  0
INSERT
  5
6AE
330
6A6
100
AcDbEntity
  8
2
 62
     0
370
    -2
100
AcDbBlockReference
  2
_ARROW_FILLED
 10
105.000118
 20
-6.000000000000003
 30
0.0
 41
4.57
 42
4.57
 43
4.57
 50
90.0
  0
INSERT
  5
6AF
330
6A6
100
AcDbEntity
  8
2
 62
     0
370
    -2
100
AcDbBlockReference
  2
_ARROW_FILLED
 10
105.000118
 20
5.999999999999999
 30
0.0
 41
4.57
 42
4.57
 43
4.57
 50
270.0
  0
MTEXT
  5
6B0
330
6A6
100
AcDbEntity
  8
2
 62
     7
100
AcDbMText
 10
105.000118
 20
15.65333333333333
 30
0.0
 40
3.5
 41
0.0
 71
     5
 72
     1
  1
\A1;%%c12
  7
BMG_Text
 11
0.0
 21
1.0
 31
0.0
 73
     1
 44
1.0
  0
POINT
  5
6B1
330
6A6
100
AcDbEntity
  8
Defpoints
 62
     0
100
AcDbPoint
 10
90.0
 20
-6.0
 30
0.0
  0
POINT
  5
7D8
330
6A6
100
AcDbEntity
  8
Defpoints
 62
     0
100
AcDbPoint
 10
90.0
 20
6.0
 30
0.0
  0
POINT
  5
7D9
330
6A6
100
AcDbEntity
  8
Defpoints
 62
     0
100
AcDbPoint
 10
105.000118
 20
5.999999999999999
 30
0.0
  0
ENDBLK
  5
6BE
330
6A6
100
AcDbEntity
  8
0
100
AcDbBlockEnd
  0
BLOCK
  5
6C1
330
6C0
100
AcDbEntity
  8
0
100
AcDbBlockBegin
  2
*D51
 70
     1
 10
0.0
 20
0.0
 30
0.0
  3
*D51
  1

  0
LINE
  5
6C2
330
6C0
100
AcDbEntity
  8
2
  6
Continuous
 62
     2
370
    -2
100
AcDbLine
 10
77.132959
 20
-21.0
 30
0.0
 11
120.800118
 21
-21.0
 31
0.0
  0
LINE
  5
6C3
330
6C0
100
AcDbEntity
  8
2
  6
Continuous
 62
     2
370
    -2
100
AcDbLine
 10
77.132959
 20
21.0
 30
0.0
 11
120.800118
 21
21.0
 31
0.0
  0
LINE
  5
6C4
330
6C0
100
AcDbEntity
  8
2
  6
Continuous
 62
     2
370
    -2
100
AcDbLine
 10
119.000118
 20
-17.5
 30
0.0
 11
119.000118
 21
17.5
 31
0.0
  0
SOLID
  5
6C5
330
6C0
100
AcDbEntity
  8
2
 62
     2
100
AcDbTrace
 10
118.4167846666667
 20
-17.5
 30
0.0
 11
119.5834513333333
 21
-17.5
 31
0.0
 12
119.000118
 22
-21.0
 32
0.0
 13
119.000118
 23
-21.0
 33
0.0
  0
SOLID
  5
6C6
330
6C0
100
AcDbEntity
  8
2
 62
     2
100
AcDbTrace
 10
119.5834513333333
 20
17.5
 30
0.0
 11
118.4167846666667
 21
17.5
 31
0.0
 12
119.000118
 22
21.0
 32
0.0
 13
119.000118
 23
21.0
 33
0.0
  0
MTEXT
  5
6C7
330
6C0
100
AcDbEntity
  8
2
 62
     3
100
AcDbMText
 10
115.750118
 20
-0.0000000000000036
 30
0.0
 40
3.5
 41
0.0
 71
     5
 72
     1
  1
\A1;%%c42
  7
LC-TXTSTYLE-150-400-0-0-Normschrift nach DIN 6776
 11
0.0
 21
1.0
 31
0.0
 73
     1
 44
1.0
  0
POINT
  5
6C8
330
6C0
100
AcDbEntity
  8
Defpoints
 62
     0
100
AcDbPoint
 10
77.132959
 20
-21.0
 30
0.0
  0
POINT
  5
6C9
330
6C0
100
AcDbEntity
  8
Defpoints
 62
     0
100
AcDbPoint
 10
77.132959
 20
21.0
 30
0.0
  0
POINT
  5
6CA
330
6C0
100
AcDbEntity
  8
Defpoints
 62
     0
100
AcDbPoint
 10
119.000118
 20
21.0
 30
0.0
  0
ENDBLK
  5
6D8
330
6C0
100
AcDbEntity
  8
0
100
AcDbBlockEnd
  0
BLOCK
  5
6DB
330
6DA
100
AcDbEntity
  8
0
100
AcDbBlockBegin
  2
*D52
 70
     1
 10
0.0
 20
0.0
 30
0.0
  3
*D52
  1

  0
LINE
  5
6DC
330
6DA
100
AcDbEntity
  8
2
  6
Continuous
 62
     0
370
    -2
100
AcDbLine
 10
41.0
 20
-6.5
 30
0.0
 11
41.0
 21
-39.999
 31
0.0
  0
LINE
  5
6DD
330
6DA
100
AcDbEntity
  8
2
  6
Continuous
 62
     0
370
    -2
100
AcDbLine
 10
90.0
 20
-15.0
 30
0.0
 11
90.0
 21
-39.999
 31
0.0
  0
LINE
  5
6DE
330
6DA
100
AcDbEntity
  8
2
  6
Continuous
 62
     0
370
    -2
100
AcDbLine
 10
45.57
 20
-34.999
 30
0.0
 11
61.7578125
 21
-34.999
 31
0.0
  0
LINE
  5
6DF
330
6DA
100
AcDbEntity
  8
2
  6
Continuous
 62
     0
370
    -2
100
AcDbLine
 10
85.43
 20
-34.999
 30
0.0
 11
69.2421875
 21
-34.999
 31
0.0
  0
INSERT
  5
6E0
330
6DA
100
AcDbEntity
  8
2
 62
     0
370
    -2
100
AcDbBlockReference
  2
_ARROW_FILLED
 10
41.0
 20
-34.999
 30
0.0
 41
4.57
 42
4.57
 43
4.57
 50
180.0
  0
INSERT
  5
6E1
330
6DA
100
AcDbEntity
  8
2
 62
     0
370
    -2
100
AcDbBlockReference
  2
_ARROW_FILLED
 10
90.0
 20
-34.999
 30
0.0
 41
4.57
 42
4.57
 43
4.57
  0
MTEXT
  5
6E2
330
6DA
100
AcDbEntity
  8
2
 62
     7
100
AcDbMText
 10
65.5
 20
-34.999
 30
0.0
 40
3.5
 41
0.0
 71
     5
 72
     1
  1
\A1;49
  7
BMG_Text
 73
     1
 44
1.0
  0
POINT
  5
6E3
330
6DA
100
AcDbEntity
  8
Defpoints
 62
     0
100
AcDbPoint
 10
41.0
 20
-6.5
 30
0.0
  0
POINT
  5
6E4
330
6DA
100
AcDbEntity
  8
Defpoints
 62
     0
100
AcDbPoint
 10
90.0
 20
-15.0
 30
0.0
  0
POINT
  5
7C1
330
6DA
100
AcDbEntity
  8
Defpoints
 62
     0
100
AcDbPoint
 10
90.0
 20
-34.999
 30
0.0
  0
ENDBLK
  5
6F2
330
6DA
100
AcDbEntity
  8
0
100
AcDbBlockEnd
  0
BLOCK
  5
700
330
6FF
100
AcDbEntity
  8
0
100
AcDbBlockBegin
  2
BLK14
 70
     0
 10
0.0
 20
0.0
 30
0.0
  3
BLK14
  1

  0
ENDBLK
  5
701
330
6FF
100
AcDbEntity
  8
0
100
AcDbBlockEnd
  0
BLOCK
  5
704
330
703
100
AcDbEntity
  8
0
100
AcDbBlockBegin
  2
*D54
 70
     1
 10
0.0
 20
0.0
 30
0.0
  3
*D54
  1

  0
LINE
  5
705
330
703
100
AcDbEntity
  8
SK2
  6
Continuous
 62
     0
370
    -2
100
AcDbLine
 10
90.0
 20
15.0
 30
0.0
 11
90.0
 21
47.930727
 31
0.0
  0
LINE
  5
706
330
703
100
AcDbEntity
  8
SK2
  6
Continuous
 62
     0
370
    -2
100
AcDbLine
 10
26.0
 20
31.5
 30
0.0
 11
26.0
 21
47.930727
 31
0.0
  0
LINE
  5
707
330
703
100
AcDbEntity
  8
SK2
  6
Continuous
 62
     0
370
    -2
100
AcDbLine
 10
85.43
 20
42.930727
 30
0.0
 11
61.92447916666666
 21
42.930727
 31
0.0
  0
LINE
  5
708
330
703
100
AcDbEntity
  8
SK2
  6
Continuous
 62
     0
370
    -2
100
AcDbLine
 10
30.57
 20
42.930727
 30
0.0
 11
54.07552083333334
 21
42.930727
 31
0.0
  0
INSERT
  5
709
330
703
100
AcDbEntity
  8
SK2
 62
     0
370
    -2
100
AcDbBlockReference
  2
_ARROW_FILLED
 10
90.0
 20
42.930727
 30
0.0
 41
4.57
 42
4.57
 43
4.57
  0
INSERT
  5
70A
330
703
100
AcDbEntity
  8
SK2
 62
     0
370
    -2
100
AcDbBlockReference
  2
_ARROW_FILLED
 10
26.0
 20
42.930727
 30
0.0
 41
4.57
 42
4.57
 43
4.57
 50
180.0
  0
MTEXT
  5
70B
330
703
100
AcDbEntity
  8
SK2
 62
     7
100
AcDbMText
 10
58.0
 20
42.930727
 30
0.0
 40
3.5
 41
0.0
 71
     5
 72
     1
  1
\A1;64
  7
BMG_Text
 73
     1
 44
1.0
  0
POINT
  5
70C
330
703
100
AcDbEntity
  8
Defpoints
 62
     0
100
AcDbPoint
 10
90.0
 20
15.0
 30
0.0
  0
POINT
  5
70D
330
703
100
AcDbEntity
  8
Defpoints
 62
     0
100
AcDbPoint
 10
26.0
 20
31.5
 30
0.0
  0
POINT
  5
7C0
330
703
100
AcDbEntity
  8
Defpoints
 62
     0
100
AcDbPoint
 10
26.0
 20
42.930727
 30
0.0
  0
ENDBLK
  5
71B
330
703
100
AcDbEntity
  8
0
100
AcDbBlockEnd
  0
BLOCK
  5
72B
330
72A
100
AcDbEntity
  8
0
100
AcDbBlockBegin
  2
*D55
 70
     1
 10
0.0
 20
0.0
 30
0.0
  3
*D55
  1

  0
LINE
  5
72C
330
72A
100
AcDbEntity
  8
2
  6
Continuous
 62
     0
370
    -2
100
AcDbLine
 10
41.0
 20
-5.0
 30
0.0
 11
54.000118
 21
-5.000000000000002
 31
0.0
  0
LINE
  5
72D
330
72A
100
AcDbEntity
  8
2
  6
Continuous
 62
     0
370
    -2
100
AcDbLine
 10
41.0
 20
5.0
 30
0.0
 11
54.000118
 21
4.999999999999998
 31
0.0
  0
LINE
  5
72E
330
72A
100
AcDbEntity
  8
2
  6
Continuous
 62
     0
370
    -2
100
AcDbLine
 10
49.000118
 20
9.57
 30
0.0
 11
49.000118
 21
14.14
 31
0.0
  0
LINE
  5
72F
330
72A
100
AcDbEntity
  8
2
  6
Continuous
 62
     0
370
    -2
100
AcDbLine
 10
49.000118
 20
-5.000000000000001
 30
0.0
 11
49.000118
 21
-14.14
 31
0.0
  0
INSERT
  5
730
330
72A
100
AcDbEntity
  8
2
 62
     0
370
    -2
100
AcDbBlockReference
  2
_ARROW_FILLED
 10
49.000118
 20
-5.000000000000001
 30
0.0
 41
4.57
 42
4.57
 43
4.57
 50
90.0
  0
INSERT
  5
731
330
72A
100
AcDbEntity
  8
2
 62
     0
370
    -2
100
AcDbBlockReference
  2
_ARROW_FILLED
 10
49.000118
 20
4.999999999999999
 30
0.0
 41
4.57
 42
4.57
 43
4.57
 50
270.0
  0
MTEXT
  5
732
330
72A
100
AcDbEntity
  8
2
 62
     7
100
AcDbMText
 10
49.000118
 20
19.64
 30
0.0
 40
3.5
 41
0.0
 71
     5
 72
     1
  1
\A1;M10
  7
BMG_Text
 11
0.0
 21
1.0
 31
0.0
 73
     1
 44
1.0
  0
POINT
  5
733
330
72A
100
AcDbEntity
  8
Defpoints
 62
     0
100
AcDbPoint
 10
41.0
 20
-5.0
 30
0.0
  0
POINT
  5
734
330
72A
100
AcDbEntity
  8
Defpoints
 62
     0
100
AcDbPoint
 10
41.0
 20
5.0
 30
0.0
  0
POINT
  5
735
330
72A
100
AcDbEntity
  8
Defpoints
 62
     0
100
AcDbPoint
 10
49.000118
 20
4.999999999999999
 30
0.0
  0
ENDBLK
  5
742
330
72A
100
AcDbEntity
  8
0
100
AcDbBlockEnd
  0
BLOCK
  5
894
330
893
100
AcDbEntity
  8
0
100
AcDbBlockBegin
  2
*D57
 70
     1
 10
0.0
 20
0.0
 30
0.0
  3
*D57
  1

  0
LINE
  5
895
330
893
100
AcDbEntity
  8
SK2
 62
     0
370
     0
100
AcDbLine
 10
200.0
 20
-10.0
 30
0.0
 11
225.741004415462
 21
-10.0
 31
0.0
  0
LINE
  5
896
330
893
100
AcDbEntity
  8
SK2
 62
     0
370
     0
100
AcDbLine
 10
200.0
 20
10.0
 30
0.0
 11
225.741004415462
 21
9.999999999999998
 31
0.0
  0
LINE
  5
897
330
893
100
AcDbEntity
  8
SK2
 62
     0
370
     0
100
AcDbLine
 10
220.741004415462
 20
-6.500000000000002
 30
0.0
 11
220.741004415462
 21
6.499999999999998
 31
0.0
  0
INSERT
  5
898
330
893
100
AcDbEntity
  8
SK2
 62
     0
370
     0
100
AcDbBlockReference
  2
_ARROW_FILLED
 10
220.741004415462
 20
-10.0
 30
0.0
 41
3.5
 42
3.5
 43
3.5
 50
270.0
  0
INSERT
  5
899
330
893
100
AcDbEntity
  8
SK2
 62
     0
370
     0
100
AcDbBlockReference
  2
_ARROW_FILLED
 10
220.741004415462
 20
9.999999999999998
 30
0.0
 41
3.5
 42
3.5
 43
3.5
 50
90.0
  0
MTEXT
  5
89A
330
893
100
AcDbEntity
  8
SK2
 62
     7
100
AcDbMText
 10
217.991004415462
 20
-0.0000000000000018
 30
0.0
 40
3.5
 41
0.0
 71
     5
 72
     1
  1
\A1;Ø20
  7
BMG_Text
 11
0.0
 21
1.0
 31
0.0
 73
     1
 44
1.0
  0
POINT
  5
89B
330
893
100
AcDbEntity
  8
Defpoints
 62
     0
100
AcDbPoint
 10
200.0
 20
-10.0
 30
0.0
  0
POINT
  5
89C
330
893
100
AcDbEntity
  8
Defpoints
 62
     0
100
AcDbPoint
 10
200.0
 20
10.0
 30
0.0
  0
POINT
  5
89D
330
893
100
AcDbEntity
  8
Defpoints
 62
     0
100
AcDbPoint
 10
220.741004415462
 20
9.999999999999998
 30
0.0
  0
ENDBLK
  5
89E
330
893
100
AcDbEntity
  8
0
100
AcDbBlockEnd
  0
BLOCK
  5
8A1
330
8A0
100
AcDbEntity
  8
0
100
AcDbBlockBegin
  2
*D58
 70
     1
 10
0.0
 20
0.0
 30
0.0
  3
*D58
  1

  0
LINE
  5
8A2
330
8A0
100
AcDbEntity
  8
SK2
 62
     0
370
     0
100
AcDbLine
 10
-0.0000000000000071
 20
-31.49999999999999
 30
0.0
 11
-50.46474325099275
 21
-31.49999999999998
 31
0.0
  0
LINE
  5
8A3
330
8A0
100
AcDbEntity
  8
SK2
 62
     0
370
     0
100
AcDbLine
 10
-0.0000000000000071
 20
31.5
 30
0.0
 11
-50.46474325099274
 21
31.5
 31
0.0
  0
LINE
  5
8A4
330
8A0
100
AcDbEntity
  8
SK2
 62
     0
370
     0
100
AcDbLine
 10
-45.46474325099275
 20
-27.99999999999998
 30
0.0
 11
-45.46474325099274
 21
28.0
 31
0.0
  0
INSERT
  5
8A5
330
8A0
100
AcDbEntity
  8
SK2
 62
     0
370
     0
100
AcDbBlockReference
  2
_ARROW_FILLED
 10
-45.46474325099275
 20
-31.49999999999998
 30
0.0
 41
3.5
 42
3.5
 43
3.5
 50
270.0
  0
INSERT
  5
8A6
330
8A0
100
AcDbEntity
  8
SK2
 62
     0
370
     0
100
AcDbBlockReference
  2
_ARROW_FILLED
 10
-45.46474325099274
 20
31.5
 30
0.0
 41
3.5
 42
3.5
 43
3.5
 50
90.0
  0
MTEXT
  5
8A7
330
8A0
100
AcDbEntity
  8
SK2
 62
     7
370
     0
100
AcDbMText
 10
-48.21474325099274
 20
0.000000000000011
 30
0.0
 40
3.5
 41
0.0
 71
     5
 72
     1
  1
\A1;Ø63
  7
BMG_Text
 11
1.127845612317620E-16
 21
1.0
 31
0.0
 73
     1
 44
1.0
  0
POINT
  5
8A8
330
8A0
100
AcDbEntity
  8
Defpoints
 62
     0
100
AcDbPoint
 10
-0.0000000000000071
 20
-31.49999999999999
 30
0.0
  0
POINT
  5
8A9
330
8A0
100
AcDbEntity
  8
Defpoints
 62
     0
100
AcDbPoint
 10
-0.0000000000000071
 20
31.5
 30
0.0
  0
POINT
  5
8AA
330
8A0
100
AcDbEntity
  8
Defpoints
 62
     0
100
AcDbPoint
 10
-45.46474325099274
 20
31.5
 30
0.0
  0
ENDBLK
  5
8AB
330
8A0
100
AcDbEntity
  8
0
100
AcDbBlockEnd
  0
BLOCK
  5
8AE
330
8AD
100
AcDbEntity
  8
0
100
AcDbBlockBegin
  2
*D59
 70
     1
 10
0.0
 20
0.0
 30
0.0
  3
*D59
  1

  0
LINE
  5
8AF
330
8AD
100
AcDbEntity
  8
SK2
 62
     0
370
     0
100
AcDbLine
 10
-32.00000000000001
 20
21.57350100000002
 30
0.0
 11
-32.00000000000001
 21
47.22810508017255
 31
0.0
  0
LINE
  5
8B0
330
8AD
100
AcDbEntity
  8
SK2
 62
     0
370
     0
100
AcDbLine
 10
-0.0000000000000071
 20
31.49999985060086
 30
0.0
 11
-0.0000000000000071
 21
47.22810508017255
 31
0.0
  0
LINE
  5
8B1
330
8AD
100
AcDbEntity
  8
SK2
 62
     0
370
     0
100
AcDbLine
 10
-28.50000000000001
 20
42.22810508017255
 30
0.0
 11
-3.500000000000007
 21
42.22810508017255
 31
0.0
  0
INSERT
  5
8B2
330
8AD
100
AcDbEntity
  8
SK2
 62
     0
370
     0
100
AcDbBlockReference
  2
_ARROW_FILLED
 10
-32.00000000000001
 20
42.22810508017255
 30
0.0
 41
3.5
 42
3.5
 43
3.5
 50
180.0
  0
INSERT
  5
8B3
330
8AD
100
AcDbEntity
  8
SK2
 62
     0
370
     0
100
AcDbBlockReference
  2
_ARROW_FILLED
 10
-0.0000000000000071
 20
42.22810508017255
 30
0.0
 41
3.5
 42
3.5
 43
3.5
  0
MTEXT
  5
8B4
330
8AD
100
AcDbEntity
  8
SK2
 62
     7
370
     0
100
AcDbMText
 10
-16.00000000000001
 20
44.97810508017255
 30
0.0
 40
3.5
 41
0.0
 71
     5
 72
     1
  1
\A1;32
  7
BMG_Text
 73
     1
 44
1.0
  0
POINT
  5
8B5
330
8AD
100
AcDbEntity
  8
Defpoints
 62
     0
100
AcDbPoint
 10
-32.00000000000001
 20
21.57350100000002
 30
0.0
  0
POINT
  5
8B6
330
8AD
100
AcDbEntity
  8
Defpoints
 62
     0
100
AcDbPoint
 10
-0.0000000000000071
 20
31.49999985060086
 30
0.0
  0
POINT
  5
8B7
330
8AD
100
AcDbEntity
  8
Defpoints
 62
     0
100
AcDbPoint
 10
-0.0000000000000071
 20
42.22810508017255
 30
0.0
  0
ENDBLK
  5
8B8
330
8AD
100
AcDbEntity
  8
0
100
AcDbBlockEnd
  0
BLOCK
  5
8BB
330
8BA
100
AcDbEntity
  8
0
100
AcDbBlockBegin
  2
*D60
 70
     1
 10
0.0
 20
0.0
 30
0.0
  3
*D60
  1

  0
LINE
  5
8BC
330
8BA
100
AcDbEntity
  8
SK2
 62
     0
370
     0
100
AcDbLine
 10
-32.00000000000001
 20
21.57350100000002
 30
0.0
 11
-32.0
 21
64.99968550753283
 31
0.0
  0
LINE
  5
8BD
330
8BA
100
AcDbEntity
  8
SK2
 62
     0
370
     0
100
AcDbLine
 10
200.0
 20
16.0
 30
0.0
 11
200.0
 21
64.99968550753283
 31
0.0
  0
LINE
  5
8BE
330
8BA
100
AcDbEntity
  8
SK2
 62
     0
370
     0
100
AcDbLine
 10
-28.5
 20
59.99968550753283
 30
0.0
 11
196.5
 21
59.99968550753283
 31
0.0
  0
INSERT
  5
8BF
330
8BA
100
AcDbEntity
  8
SK2
 62
     0
370
     0
100
AcDbBlockReference
  2
_ARROW_FILLED
 10
-32.0
 20
59.99968550753283
 30
0.0
 41
3.5
 42
3.5
 43
3.5
 50
180.0
  0
INSERT
  5
8C0
330
8BA
100
AcDbEntity
  8
SK2
 62
     0
370
     0
100
AcDbBlockReference
  2
_ARROW_FILLED
 10
200.0
 20
59.99968550753283
 30
0.0
 41
3.5
 42
3.5
 43
3.5
  0
MTEXT
  5
8C1
330
8BA
100
AcDbEntity
  8
SK2
 62
     7
370
     0
100
AcDbMText
 10
83.99999999999999
 20
62.74968550753283
 30
0.0
 40
3.5
 41
0.0
 71
     5
 72
     1
  1
\A1;232
  7
BMG_Text
 73
     1
 44
1.0
  0
POINT
  5
8C2
330
8BA
100
AcDbEntity
  8
Defpoints
 62
     0
100
AcDbPoint
 10
-32.00000000000001
 20
21.57350100000002
 30
0.0
  0
POINT
  5
8C3
330
8BA
100
AcDbEntity
  8
Defpoints
 62
     0
100
AcDbPoint
 10
200.0
 20
16.0
 30
0.0
  0
POINT
  5
8C4
330
8BA
100
AcDbEntity
  8
Defpoints
 62
     0
100
AcDbPoint
 10
200.0
 20
59.99968550753283
 30
0.0
  0
ENDBLK
  5
8C5
330
8BA
100
AcDbEntity
  8
0
100
AcDbBlockEnd
  0
BLOCK
  5
8C8
330
8C7
100
AcDbEntity
  8
0
100
AcDbBlockBegin
  2
*D61
 70
     1
 10
0.0
 20
0.0
 30
0.0
  3
*D61
  1

  0
LINE
  5
8C9
330
8C7
100
AcDbEntity
  8
2
 62
     0
370
     0
100
AcDbLine
 10
26.0
 20
31.5
 30
0.0
 11
26.0
 21
49.60741943703482
 31
0.0
  0
LINE
  5
8CA
330
8C7
100
AcDbEntity
  8
2
 62
     0
370
     0
100
AcDbLine
 10
200.0
 20
16.0
 30
0.0
 11
200.0
 21
49.60741943703482
 31
0.0
  0
LINE
  5
8CB
330
8C7
100
AcDbEntity
  8
2
 62
     0
370
     0
100
AcDbLine
 10
29.5
 20
44.60741943703482
 30
0.0
 11
196.5
 21
44.60741943703482
 31
0.0
  0
INSERT
  5
8CC
330
8C7
100
AcDbEntity
  8
2
 62
     0
370
     0
100
AcDbBlockReference
  2
_ARROW_FILLED
 10
26.0
 20
44.60741943703482
 30
0.0
 41
3.5
 42
3.5
 43
3.5
 50
180.0
  0
INSERT
  5
8CD
330
8C7
100
AcDbEntity
  8
2
 62
     0
370
     0
100
AcDbBlockReference
  2
_ARROW_FILLED
 10
200.0
 20
44.60741943703482
 30
0.0
 41
3.5
 42
3.5
 43
3.5
  0
MTEXT
  5
8CE
330
8C7
100
AcDbEntity
  8
2
 62
     7
370
     0
100
AcDbMText
 10
113.0
 20
47.35741943703482
 30
0.0
 40
3.5
 41
0.0
 71
     5
 72
     1
  1
\A1;174
  7
BMG_Text
 73
     1
 44
1.0
  0
POINT
  5
8CF
330
8C7
100
AcDbEntity
  8
Defpoints
 62
     0
100
AcDbPoint
 10
26.0
 20
31.5
 30
0.0
  0
POINT
  5
8D0
330
8C7
100
AcDbEntity
  8
Defpoints
 62
     0
100
AcDbPoint
 10
200.0
 20
16.0
 30
0.0
  0
POINT
  5
8D1
330
8C7
100
AcDbEntity
  8
Defpoints
 62
     0
100
AcDbPoint
 10
200.0
 20
44.60741943703482
 30
0.0
  0
ENDBLK
  5
8D2
330
8C7
100
AcDbEntity
  8
0
100
AcDbBlockEnd
  0
BLOCK
  5
8D5
330
8D4
100
AcDbEntity
  8
0
100
AcDbBlockBegin
  2
*D62
 70
     1
 10
0.0
 20
0.0
 30
0.0
  3
*D62
  1

  0
LINE
  5
8D6
330
8D4
100
AcDbEntity
  8
2
 62
     0
370
     0
100
AcDbLine
 10
-0.0000000000000071
 20
-31.49999999999999
 30
0.0
 11
0.0000000000000034
 21
-47.01734080371429
 31
0.0
  0
LINE
  5
8D7
330
8D4
100
AcDbEntity
  8
2
 62
     0
370
     0
100
AcDbLine
 10
200.0
 20
-16.0
 30
0.0
 11
200.0
 21
-47.01734080371429
 31
0.0
  0
LINE
  5
8D8
330
8D4
100
AcDbEntity
  8
2
 62
     0
370
     0
100
AcDbLine
 10
3.5
 20
-42.01734080371429
 30
0.0
 11
196.5
 21
-42.01734080371429
 31
0.0
  0
INSERT
  5
8D9
330
8D4
100
AcDbEntity
  8
2
 62
     0
370
     0
100
AcDbBlockReference
  2
_ARROW_FILLED
 10
0.0
 20
-42.01734080371429
 30
0.0
 41
3.5
 42
3.5
 43
3.5
 50
180.0
  0
INSERT
  5
8DA
330
8D4
100
AcDbEntity
  8
2
 62
     0
370
     0
100
AcDbBlockReference
  2
_ARROW_FILLED
 10
200.0
 20
-42.01734080371429
 30
0.0
 41
3.5
 42
3.5
 43
3.5
  0
MTEXT
  5
8DB
330
8D4
100
AcDbEntity
  8
2
 62
     7
370
     0
100
AcDbMText
 10
100.0
 20
-39.26734080371429
 30
0.0
 40
3.5
 41
0.0
 71
     5
 72
     1
  1
\A1;200
  7
BMG_Text
 73
     1
 44
1.0
  0
POINT
  5
8DC
330
8D4
100
AcDbEntity
  8
Defpoints
 62
     0
100
AcDbPoint
 10
-0.0000000000000071
 20
-31.49999999999999
 30
0.0
  0
POINT
  5
8DD
330
8D4
100
AcDbEntity
  8
Defpoints
 62
     0
100
AcDbPoint
 10
200.0
 20
-16.0
 30
0.0
  0
POINT
  5
8DE
330
8D4
100
AcDbEntity
  8
Defpoints
 62
     0
100
AcDbPoint
 10
200.0
 20
-42.01734080371429
 30
0.0
  0
ENDBLK
  5
8DF
330
8D4
100
AcDbEntity
  8
0
100
AcDbBlockEnd
  0
BLOCK
  5
8E2
330
8E1
100
AcDbEntity
  8
0
100
AcDbBlockBegin
  2
*D63
 70
     1
 10
0.0
 20
0.0
 30
0.0
  3
*D63
  1

  0
LINE
  5
8E3
330
8E1
100
AcDbEntity
  8
SK2
 62
     0
370
     0
100
AcDbLine
 10
146.0
 20
11.0
 30
0.0
 11
146.0
 21
34.05938554766959
 31
0.0
  0
LINE
  5
8E4
330
8E1
100
AcDbEntity
  8
SK2
 62
     0
370
     0
100
AcDbLine
 10
200.0
 20
16.0
 30
0.0
 11
200.0
 21
34.05938554766959
 31
0.0
  0
LINE
  5
8E5
330
8E1
100
AcDbEntity
  8
SK2
 62
     0
370
     0
100
AcDbLine
 10
149.5
 20
29.05938554766959
 30
0.0
 11
196.5
 21
29.05938554766959
 31
0.0
  0
INSERT
  5
8E6
330
8E1
100
AcDbEntity
  8
SK2
 62
     0
370
     0
100
AcDbBlockReference
  2
_ARROW_FILLED
 10
146.0
 20
29.05938554766959
 30
0.0
 41
3.5
 42
3.5
 43
3.5
 50
180.0
  0
INSERT
  5
8E7
330
8E1
100
AcDbEntity
  8
SK2
 62
     0
370
     0
100
AcDbBlockReference
  2
_ARROW_FILLED
 10
200.0
 20
29.05938554766959
 30
0.0
 41
3.5
 42
3.5
 43
3.5
  0
MTEXT
  5
8E8
330
8E1
100
AcDbEntity
  8
SK2
 62
     7
370
     0
100
AcDbMText
 10
173.0
 20
31.80938554766959
 30
0.0
 40
3.5
 41
0.0
 71
     5
 72
     1
  1
\A1;54
  7
BMG_Text
 73
     1
 44
1.0
  0
POINT
  5
8E9
330
8E1
100
AcDbEntity
  8
Defpoints
 62
     0
100
AcDbPoint
 10
146.0
 20
11.0
 30
0.0
  0
POINT
  5
8EA
330
8E1
100
AcDbEntity
  8
Defpoints
 62
     0
100
AcDbPoint
 10
200.0
 20
16.0
 30
0.0
  0
POINT
  5
8EB
330
8E1
100
AcDbEntity
  8
Defpoints
 62
     0
100
AcDbPoint
 10
200.0
 20
29.05938554766959
 30
0.0
  0
ENDBLK
  5
8EC
330
8E1
100
AcDbEntity
  8
0
100
AcDbBlockEnd
  0
BLOCK
  5
8EF
330
8EE
100
AcDbEntity
  8
0
100
AcDbBlockBegin
  2
*D64
 70
     1
 10
0.0
 20
0.0
 30
0.0
  3
*D64
  1

  0
LINE
  5
8F0
330
8EE
100
AcDbEntity
  8
2
 62
     0
370
     0
100
AcDbLine
 10
199.0
 20
-16.99999999999997
 30
0.0
 11
237.5513114292848
 21
-16.99999999999998
 31
0.0
  0
LINE
  5
8F1
330
8EE
100
AcDbEntity
  8
2
 62
     0
370
     0
100
AcDbLine
 10
199.0
 20
17.0
 30
0.0
 11
237.5513114292848
 21
17.0
 31
0.0
  0
LINE
  5
8F2
330
8EE
100
AcDbEntity
  8
2
 62
     0
370
     0
100
AcDbLine
 10
232.5513114292848
 20
-13.49999999999998
 30
0.0
 11
232.5513114292848
 21
13.5
 31
0.0
  0
INSERT
  5
8F3
330
8EE
100
AcDbEntity
  8
2
 62
     0
370
     0
100
AcDbBlockReference
  2
_ARROW_FILLED
 10
232.5513114292848
 20
-16.99999999999998
 30
0.0
 41
3.5
 42
3.5
 43
3.5
 50
270.0
  0
INSERT
  5
8F4
330
8EE
100
AcDbEntity
  8
2
 62
     0
370
     0
100
AcDbBlockReference
  2
_ARROW_FILLED
 10
232.5513114292848
 20
17.0
 30
0.0
 41
3.5
 42
3.5
 43
3.5
 50
90.0
  0
MTEXT
  5
8F5
330
8EE
100
AcDbEntity
  8
2
 62
     7
370
     0
100
AcDbMText
 10
229.8013114292848
 20
0.0000000000000107
 30
0.0
 40
3.5
 41
0.0
 71
     5
 72
     1
  1
\A1;Ø34
  7
BMG_Text
 11
0.0
 21
1.0
 31
0.0
 73
     1
 44
1.0
  0
POINT
  5
8F6
330
8EE
100
AcDbEntity
  8
Defpoints
 62
     0
100
AcDbPoint
 10
199.0
 20
-16.99999999999997
 30
0.0
  0
POINT
  5
8F7
330
8EE
100
AcDbEntity
  8
Defpoints
 62
     0
100
AcDbPoint
 10
199.0
 20
17.0
 30
0.0
  0
POINT
  5
8F8
330
8EE
100
AcDbEntity
  8
Defpoints
 62
     0
100
AcDbPoint
 10
232.5513114292848
 20
17.0
 30
0.0
  0
ENDBLK
  5
8F9
330
8EE
100
AcDbEntity
  8
0
100
AcDbBlockEnd
  0
BLOCK
  5
8FC
330
8FB
100
AcDbEntity
  8
0
100
AcDbBlockBegin
  2
*D65
 70
     1
 10
0.0
 20
0.0
 30
0.0
  3
*D65
  1

  0
LINE
  5
8FD
330
8FB
100
AcDbEntity
  8
2
 62
     0
370
     0
100
AcDbLine
 10
26.93852062361159
 20
25.4421926460229
 30
0.0
 11
45.92439565873373
 21
25.4421926460229
 31
0.0
  0
LINE
  5
8FE
330
8FB
100
AcDbEntity
  8
2
 62
     0
370
     0
100
AcDbLine
 10
26.93852230622561
 20
-25.44219254238219
 30
0.0
 11
45.92439565873373
 21
-25.44219254238219
 31
0.0
  0
LINE
  5
8FF
330
8FB
100
AcDbEntity
  8
2
 62
     0
370
     0
100
AcDbLine
 10
40.92439565873373
 20
21.9421926460229
 30
0.0
 11
40.92439565873373
 21
-21.94219254238219
 31
0.0
  0
INSERT
  5
900
330
8FB
100
AcDbEntity
  8
2
 62
     0
370
     0
100
AcDbBlockReference
  2
_ARROW_FILLED
 10
40.92439565873373
 20
25.4421926460229
 30
0.0
 41
3.5
 42
3.5
 43
3.5
 50
90.0
  0
INSERT
  5
901
330
8FB
100
AcDbEntity
  8
2
 62
     0
370
     0
100
AcDbBlockReference
  2
_ARROW_FILLED
 10
40.92439565873373
 20
-25.44219254238219
 30
0.0
 41
3.5
 42
3.5
 43
3.5
 50
270.0
  0
MTEXT
  5
902
330
8FB
100
AcDbEntity
  8
2
 62
     7
370
     0
100
AcDbMText
 10
38.17439565873373
 20
0.0000000518203578
 30
0.0
 40
3.5
 41
0.0
 71
     5
 72
     1
  1
\A1;Ø51
  7
BMG_Text
 11
0.0
 21
1.0
 31
0.0
 73
     1
 44
1.0
  0
POINT
  5
903
330
8FB
100
AcDbEntity
  8
Defpoints
 62
     0
100
AcDbPoint
 10
26.93852062361159
 20
25.4421926460229
 30
0.0
  0
POINT
  5
904
330
8FB
100
AcDbEntity
  8
Defpoints
 62
     0
100
AcDbPoint
 10
26.93852230622561
 20
-25.44219254238219
 30
0.0
  0
POINT
  5
905
330
8FB
100
AcDbEntity
  8
Defpoints
 62
     0
100
AcDbPoint
 10
40.92439565873373
 20
-25.44219254238219
 30
0.0
  0
ENDBLK
  5
906
330
8FB
100
AcDbEntity
  8
0
100
AcDbBlockEnd
  0
ENDSEC
  0
SECTION
  2
ENTITIES
  0
INSERT
  5
30
330
A
100
AcDbEntity
  8
0
  6
Continuous
 62
     0
100
AcDbBlockReference
  2
BLK1
 10
0.0
 20
0.0
 30
0.0
  0
INSERT
  5
35
102
{ACAD_REACTORS
330
1E1
102
}
330
A
100
AcDbEntity
  8
SK1
  6
Continuous
 62
     4
100
AcDbBlockReference
  2
BLK2
 10
0.0
 20
0.0
 30
0.0
  0
INSERT
  5
52
102
{ACAD_REACTORS
330
1E1
102
}
330
A
100
AcDbEntity
  8
SK1
  6
Continuous
 62
     4
100
AcDbBlockReference
  2
BLK3
 10
0.0
 20
0.0
 30
0.0
  0
INSERT
  5
73
102
{ACAD_REACTORS
330
1E1
102
}
330
A
100
AcDbEntity
  8
SK1
  6
Continuous
 62
     4
100
AcDbBlockReference
  2
BLK4
 10
0.0
 20
0.0
 30
0.0
  0
INSERT
  5
7C
102
{ACAD_REACTORS
330
1E1
102
}
330
A
100
AcDbEntity
  8
SK1
  6
Continuous
 62
     4
100
AcDbBlockReference
  2
BLK5
 10
0.0
 20
0.0
 30
0.0
  0
INSERT
  5
90
102
{ACAD_REACTORS
330
1E1
102
}
330
A
100
AcDbEntity
  8
SK1
  6
Continuous
 62
     4
100
AcDbBlockReference
  2
BLK6
 10
0.0
 20
0.0
 30
0.0
  0
INSERT
  5
B0
102
{ACAD_REACTORS
330
1E1
102
}
330
A
100
AcDbEntity
  8
SK1
  6
Continuous
 62
     4
100
AcDbBlockReference
  2
BLK7
 10
0.0
 20
0.0
 30
0.0
  0
INSERT
  5
EB
102
{ACAD_REACTORS
330
1E1
102
}
330
A
100
AcDbEntity
  8
SK1
  6
Continuous
 62
     4
100
AcDbBlockReference
  2
BLK8
 10
0.0
 20
0.0
 30
0.0
  0
INSERT
  5
10B
330
A
100
AcDbEntity
  8
0
  6
Continuous
 62
     0
100
AcDbBlockReference
  2
BLK9
 10
0.0
 20
0.0
 30
0.0
  0
INSERT
  5
10F
102
{ACAD_REACTORS
330
1D8
102
}
330
A
100
AcDbEntity
  8
SK1
  6
Continuous
 62
     4
100
AcDbBlockReference
  2
BLK10
 10
0.0
 20
0.0
 30
0.0
  0
INSERT
  5
123
102
{ACAD_REACTORS
330
1D8
102
}
330
A
100
AcDbEntity
  8
SK1
  6
Continuous
 62
     4
100
AcDbBlockReference
  2
BLK11
 10
0.0
 20
0.0
 30
0.0
  0
INSERT
  5
12A
102
{ACAD_REACTORS
330
1D8
102
}
330
A
100
AcDbEntity
  8
SK1
  6
Continuous
 62
     4
100
AcDbBlockReference
  2
BLK12
 10
0.0
 20
0.0
 30
0.0
  0
INSERT
  5
17C
102
{ACAD_REACTORS
330
1D8
102
}
330
A
100
AcDbEntity
  8
SK1
  6
Continuous
 62
     4
100
AcDbBlockReference
  2
BLK13
 10
0.0
 20
0.0
 30
0.0
  0
LINE
  5
246
330
A
100
AcDbEntity
  8
INFTOTAL
100
AcDbLine
 10
-55.25311041531714
 20
-67.93036257239405
 30
0.0
 11
-55.25311041531714
 21
94.9544112761056
 31
0.0
  0
LINE
  5
247
330
A
100
AcDbEntity
  8
INFTOTAL
100
AcDbLine
 10
-55.25311041531714
 20
94.9544112761056
 30
0.0
 11
256.2715200203815
 21
94.95441127610565
 31
0.0
  0
LINE
  5
248
330
A
100
AcDbEntity
  8
INFTOTAL
100
AcDbLine
 10
256.2715200203816
 20
-67.93036257239405
 30
0.0
 11
-55.25311041531714
 21
-67.93036257239405
 31
0.0
  0
LINE
  5
249
330
A
100
AcDbEntity
  8
INFTOTAL
100
AcDbLine
 10
256.2715200203815
 20
94.95441127610565
 30
0.0
 11
256.2715200203816
 21
-67.93036257239405
 31
0.0
  0
TEXT
  5
343
330
A
100
AcDbEntity
  8
INFTEXT63
100
AcDbText
 10
19.21954644829725
 20
-64.19262285842292
 30
0.0
 40
3.5
  1
Allgemeintoleranzen nach DIN ISO 2768 m
  7
BMG_Text
100
AcDbText
  0
INSERT
  5
7AA
330
A
100
AcDbEntity
  8
SK1
  6
Continuous
 62
     4
100
AcDbBlockReference
  2
BLK13
 10
0.000118
 20
0.001
 30
0.0
  0
INSERT
  5
7B0
330
A
100
AcDbEntity
  8
SK1
  6
Continuous
 62
     4
100
AcDbBlockReference
  2
BLK14
 10
0.000118
 20
0.001
 30
0.0
  0
LINE
  5
90A
330
A
100
AcDbEntity
  8
1
  6
Continuous
 62
     4
100
AcDbLine
 10
-0.0000000000000071
 20
31.5
 30
0.0
 11
14.46372899999999
 21
31.5
 31
0.0
  0
LINE
  5
90B
330
A
100
AcDbEntity
  8
1
  6
Continuous
 62
     4
100
AcDbLine
 10
-0.0000000000000071
 20
-31.49999999999999
 30
0.0
 11
14.46372899999999
 21
-31.49999999999999
 31
0.0
  0
LINE
  5
90C
330
A
100
AcDbEntity
  8
1
  6
Continuous
 62
     4
100
AcDbLine
 10
14.46372899999999
 20
31.5
 30
0.0
 11
16.125
 21
28.62259500000002
 31
0.0
  0
LINE
  5
90D
330
A
100
AcDbEntity
  8
1
  6
Continuous
 62
     4
100
AcDbLine
 10
21.53626999999999
 20
31.5
 30
0.0
 11
19.875
 21
28.62259500000002
 31
0.0
  0
LINE
  5
90E
330
A
100
AcDbEntity
  8
1
  6
Continuous
 62
     4
100
AcDbLine
 10
14.46372899999999
 20
-24.33618699999998
 30
0.0
 11
16.125
 21
-21.45878199999999
 31
0.0
  0
LINE
  5
90F
330
A
100
AcDbEntity
  8
1
  6
Continuous
 62
     4
100
AcDbLine
 10
16.125
 20
-27.84999999999998
 30
0.0
 11
19.875
 21
-27.84999999999998
 31
0.0
  0
LINE
  5
910
330
A
100
AcDbEntity
  8
1
  6
Continuous
 62
     4
100
AcDbLine
 10
19.875
 20
28.62259500000002
 30
0.0
 11
19.875
 21
8.050000000000011
 31
0.0
  0
LINE
  5
911
330
A
100
AcDbEntity
  8
1
  6
Continuous
 62
     4
100
AcDbLine
 10
16.125
 20
28.62259500000002
 30
0.0
 11
16.125
 21
8.050000000000011
 31
0.0
  0
LINE
  5
912
330
A
100
AcDbEntity
  8
1
  6
Continuous
 62
     4
100
AcDbLine
 10
-0.6000000000000085
 20
23.70000000000002
 30
0.0
 11
-0.0000000000000071
 21
23.70000000000002
 31
0.0
  0
LINE
  5
913
330
A
100
AcDbEntity
  8
1
  6
Continuous
 62
     4
100
AcDbLine
 10
-0.6000000000000085
 20
-23.69999999999999
 30
0.0
 11
-0.0000000000000071
 21
-23.69999999999999
 31
0.0
  0
LINE
  5
914
330
A
100
AcDbEntity
  8
1
  6
Continuous
 62
     4
100
AcDbLine
 10
19.875
 20
-28.62259499999999
 30
0.0
 11
19.875
 21
-21.45878199999999
 31
0.0
  0
LINE
  5
915
330
A
100
AcDbEntity
  8
1
  6
Continuous
 62
     4
100
AcDbLine
 10
21.53626999999999
 20
-31.49999999999999
 30
0.0
 11
21.53626999999999
 21
-24.33618699999998
 31
0.0
  0
LINE
  5
916
330
A
100
AcDbEntity
  8
1
  6
Continuous
 62
     4
100
AcDbLine
 10
14.46372899999999
 20
-31.49999999999999
 30
0.0
 11
14.46372899999999
 21
-24.33618699999998
 31
0.0
  0
LINE
  5
917
330
A
100
AcDbEntity
  8
1
  6
Continuous
 62
     4
100
AcDbLine
 10
14.46372899999999
 20
8.0
 30
0.0
 11
14.46372899999999
 21
31.5
 31
0.0
  0
LINE
  5
918
330
A
100
AcDbEntity
  8
1
  6
Continuous
 62
     4
100
AcDbLine
 10
21.53626999999999
 20
-8.0
 30
0.0
 11
21.53626999999999
 21
-19.99999999999999
 31
0.0
  0
LINE
  5
919
330
A
100
AcDbEntity
  8
1
  6
Continuous
 62
     4
100
AcDbLine
 10
16.125
 20
-8.0
 30
0.0
 11
16.125
 21
-19.99999999999999
 31
0.0
  0
LINE
  5
91A
330
A
100
AcDbEntity
  8
1
  6
Continuous
 62
     4
100
AcDbLine
 10
-31.00000000000001
 20
5.0
 30
0.0
 11
-32.00000000000001
 21
5.577350000000024
 31
0.0
  0
LINE
  5
91B
330
A
100
AcDbEntity
  8
1
  6
Continuous
 62
     4
100
AcDbLine
 10
-31.00000000000001
 20
-5.0
 30
0.0
 11
-32.00000000000001
 21
-5.577349999999967
 31
0.0
  0
LINE
  5
91C
330
A
100
AcDbEntity
  8
1
  6
Continuous
 62
     4
100
AcDbLine
 10
-31.00000000000001
 20
-5.0
 30
0.0
 11
-31.00000000000001
 21
-5.0
 31
0.0
  0
LINE
  5
91D
330
A
100
AcDbEntity
  8
1
  6
Continuous
 62
     4
100
AcDbLine
 10
-0.0000000000000071
 20
31.5
 30
0.0
 11
-0.0000000000000071
 21
-31.49999999999999
 31
0.0
  0
LINE
  5
91E
330
A
100
AcDbEntity
  8
1
  6
Continuous
 62
     4
100
AcDbLine
 10
19.875
 20
-8.0
 30
0.0
 11
19.875
 21
-19.99999999999999
 31
0.0
  0
LINE
  5
91F
330
A
100
AcDbEntity
  8
1
  6
Continuous
 62
     4
100
AcDbLine
 10
21.53626999999999
 20
31.5
 30
0.0
 11
21.53626999999999
 21
8.0
 31
0.0
  0
LINE
  5
920
330
A
100
AcDbEntity
  8
1
  6
Continuous
 62
     4
100
AcDbLine
 10
-0.6000000000000085
 20
24.28500000000003
 30
0.0
 11
-0.6000000000000085
 21
-24.28499999999998
 31
0.0
  0
LINE
  5
921
330
A
100
AcDbEntity
  8
1
  6
Continuous
 62
     4
100
AcDbLine
 10
26.0
 20
31.5
 30
0.0
 11
26.0
 21
-26.44030099999998
 31
0.0
  0
LINE
  5
922
330
A
100
AcDbEntity
  8
1
  6
Continuous
 62
     4
100
AcDbLine
 10
12.99999999999999
 20
-8.0
 30
0.0
 11
26.0
 21
-8.0
 31
0.0
  0
LINE
  5
923
330
A
100
AcDbEntity
  8
1
  6
Continuous
 62
     4
100
AcDbLine
 10
12.99999999999999
 20
8.0
 30
0.0
 11
26.0
 21
8.0
 31
0.0
  0
LINE
  5
924
330
A
100
AcDbEntity
  8
1
  6
Continuous
 62
     4
100
AcDbLine
 10
16.125
 20
-28.62259499999999
 30
0.0
 11
16.125
 21
-21.45878199999999
 31
0.0
  0
LINE
  5
925
330
A
100
AcDbEntity
  8
1
  6
Continuous
 62
     4
100
AcDbLine
 10
26.0
 20
31.5
 30
0.0
 11
21.53626999999999
 21
31.5
 31
0.0
  0
LINE
  5
926
330
A
100
AcDbEntity
  8
1
  6
Continuous
 62
     4
100
AcDbLine
 10
14.46372899999999
 20
31.5
 30
0.0
 11
14.46372899999999
 21
31.5
 31
0.0
  0
LINE
  5
927
330
A
100
AcDbEntity
  8
1
  6
Continuous
 62
     4
100
AcDbLine
 10
16.125
 20
28.13647900000001
 30
0.0
 11
19.875
 21
28.13647900000001
 31
0.0
  0
ARC
  5
928
330
A
100
AcDbEntity
  8
1
  6
Continuous
 62
     4
100
AcDbCircle
 10
12.99999999999999
 20
0.0
 30
0.0
 40
8.0
100
AcDbArc
 50
90.0
 51
270.0
  0
LINE
  5
929
330
A
100
AcDbEntity
  8
1
  6
Continuous
 62
     4
100
AcDbLine
 10
21.53626999999999
 20
-24.33618699999998
 30
0.0
 11
19.875
 21
-21.45878199999999
 31
0.0
  0
LINE
  5
92A
330
A
100
AcDbEntity
  8
1
  6
Continuous
 62
     4
100
AcDbLine
 10
21.53626999999999
 20
-31.49999999999999
 30
0.0
 11
26.0
 21
-31.49999999999999
 31
0.0
  0
ARC
  5
92B
330
A
100
AcDbEntity
  8
1
  6
Continuous
 62
     4
100
AcDbCircle
 10
-30.80000000000001
 20
21.57350100000002
 30
0.0
 40
1.2
100
AcDbArc
 50
92.86240500000004
 51
180.0
  0
LINE
  5
92C
330
A
100
AcDbEntity
  8
1
  6
Continuous
 62
     4
100
AcDbLine
 10
-32.00000000000001
 20
21.57350100000002
 30
0.0
 11
-32.00000000000001
 21
5.577350000000024
 31
0.0
  0
LINE
  5
92D
330
A
100
AcDbEntity
  8
1
  6
Continuous
 62
     4
100
AcDbLine
 10
-32.00000000000001
 20
-5.577349999999967
 30
0.0
 11
-32.00000000000001
 21
-21.57350099999998
 31
0.0
  0
ARC
  5
92E
330
A
100
AcDbEntity
  8
1
  6
Continuous
 62
     4
100
AcDbCircle
 10
-30.80000000000001
 20
-21.57350099999998
 30
0.0
 40
1.2
100
AcDbArc
 50
180.0
 51
267.1375949999999
  0
LINE
  5
92F
330
A
100
AcDbEntity
  8
1
  6
Continuous
 62
     4
100
AcDbLine
 10
-30.85992600000001
 20
-22.77200399999998
 30
0.0
 11
-0.6000000000000085
 21
-24.28499999999998
 31
0.0
  0
LINE
  5
930
330
A
100
AcDbEntity
  8
1
  6
Continuous
 62
     4
100
AcDbLine
 10
26.0
 20
-19.99999999999999
 30
0.0
 11
12.11171299999999
 21
-19.99999999999999
 31
0.0
  0
ARC
  5
931
330
A
100
AcDbEntity
  8
1
  6
Continuous
 62
     4
100
AcDbCircle
 10
12.11171299999999
 20
-27.99999999999999
 30
0.0
 40
8.0
100
AcDbArc
 50
90.0
 51
152.7433809999999
  0
LINE
  5
932
330
A
100
AcDbEntity
  8
1
  6
Continuous
 62
     4
100
AcDbLine
 10
16.125
 20
-28.62259499999999
 30
0.0
 11
14.46372899999999
 21
-31.49999999999999
 31
0.0
  0
LINE
  5
933
330
A
100
AcDbEntity
  8
1
  6
Continuous
 62
     4
100
AcDbLine
 10
19.875
 20
-28.62259499999999
 30
0.0
 11
21.53626999999999
 21
-31.49999999999999
 31
0.0
  0
LINE
  5
934
330
A
100
AcDbEntity
  8
1
  6
Continuous
 62
     4
100
AcDbLine
 10
16.125
 20
-21.45878199999999
 30
0.0
 11
19.875
 21
-21.45878199999999
 31
0.0
  0
LINE
  5
935
330
A
100
AcDbEntity
  8
1
  6
Continuous
 62
     4
100
AcDbLine
 10
14.46372899999999
 20
-8.0
 30
0.0
 11
14.46372899999999
 21
-19.99999999999999
 31
0.0
  0
ARC
  5
936
330
A
100
AcDbEntity
  8
1
  6
Continuous
 62
     4
100
AcDbCircle
 10
-27.50000000000001
 20
3.5
 30
0.0
 40
1.5
100
AcDbArc
 50
0.0
 51
90.0
  0
LINE
  5
937
330
A
100
AcDbEntity
  8
1
  6
Continuous
 62
     4
100
AcDbLine
 10
-31.00000000000001
 20
5.0
 30
0.0
 11
-27.50000000000001
 21
5.0
 31
0.0
  0
LINE
  5
938
330
A
100
AcDbEntity
  8
1
  6
Continuous
 62
     4
100
AcDbLine
 10
-26.00000000000001
 20
3.5
 30
0.0
 11
-26.00000000000001
 21
-3.5
 31
0.0
  0
ARC
  5
939
330
A
100
AcDbEntity
  8
1
  6
Continuous
 62
     4
100
AcDbCircle
 10
-27.50000000000001
 20
-3.5
 30
0.0
 40
1.5
100
AcDbArc
 50
270.0
 51
0.0
  0
LINE
  5
93A
330
A
100
AcDbEntity
  8
1
  6
Continuous
 62
     4
100
AcDbLine
 10
-31.00000000000001
 20
-5.0
 30
0.0
 11
-27.50000000000001
 21
-5.0
 31
0.0
  0
LINE
  5
93B
330
A
100
AcDbEntity
  8
1
  6
Continuous
 62
     4
100
AcDbLine
 10
-30.85992600000001
 20
22.77200400000001
 30
0.0
 11
-0.6000000000000085
 21
24.28500000000003
 31
0.0
  0
LINE
  5
93C
330
A
100
AcDbEntity
  8
1
  6
Continuous
 62
     4
100
AcDbLine
 10
14.46372899999999
 20
-24.33618699999998
 30
0.0
 11
4.999999999999993
 21
-24.33618699999998
 31
0.0
  0
LINE
  5
93D
330
A
100
AcDbEntity
  8
1
  6
Continuous
 62
     4
100
AcDbLine
 10
26.0
 20
-24.33618699999998
 30
0.0
 11
21.53626999999999
 21
-24.33618699999998
 31
0.0
  0
LINE
  5
93E
330
A
100
AcDbEntity
  8
SK3
  6
DASHED
 62
     1
100
AcDbLine
 10
11.99999999999999
 20
31.5
 30
0.0
 11
11.99999999999999
 21
26.90000000000003
 31
0.0
  0
LINE
  5
93F
330
A
100
AcDbEntity
  8
SK3
  6
DASHED
 62
     1
100
AcDbLine
 10
9.804259999999992
 20
26.90000000000003
 30
0.0
 11
6.999999999999993
 21
25.45471200000003
 31
0.0
  0
LINE
  5
940
330
A
100
AcDbEntity
  8
SK3
  6
DASHED
 62
     1
100
AcDbLine
 10
4.195738999999989
 20
26.90000000000003
 30
0.0
 11
6.999999999999993
 21
25.45471200000003
 31
0.0
  0
LINE
  5
941
330
A
100
AcDbEntity
  8
SK3
  6
DASHED
 62
     1
100
AcDbLine
 10
1.999999999999993
 20
31.5
 30
0.0
 11
1.999999999999993
 21
26.90000000000003
 31
0.0
  0
LINE
  5
942
330
A
100
AcDbEntity
  8
SK3
  6
DASHED
 62
     1
100
AcDbLine
 10
1.999999999999993
 20
26.90000000000003
 30
0.0
 11
11.99999999999999
 21
26.90000000000003
 31
0.0
  0
LINE
  5
943
330
A
100
AcDbEntity
  8
1
  6
Continuous
 62
     4
100
AcDbLine
 10
-31.00000000000001
 20
5.0
 30
0.0
 11
-31.00000000000001
 21
9.131664999999998
 31
0.0
  0
LINE
  5
944
330
A
100
AcDbEntity
  8
1
  6
Continuous
 62
     4
100
AcDbLine
 10
-31.00000000000001
 20
9.131664999999998
 30
0.0
 11
-32.00000000000001
 21
9.70901600000002
 31
0.0
  0
LINE
  5
945
330
A
100
AcDbEntity
  8
1
  6
Continuous
 62
     4
100
AcDbLine
 10
-26.00000000000001
 20
3.5
 30
0.0
 11
-26.00000000000001
 21
11.66875000000002
 31
0.0
  0
LINE
  5
946
330
A
100
AcDbEntity
  8
1
  6
Continuous
 62
     4
100
AcDbLine
 10
-31.00000000000001
 20
9.131664999999998
 30
0.0
 11
-26.00000000000001
 21
11.66875000000002
 31
0.0
  0
LINE
  5
947
330
A
100
AcDbEntity
  8
1
  6
Continuous
 62
     4
100
AcDbLine
 10
-31.00000000000001
 20
-5.0
 30
0.0
 11
-31.00000000000001
 21
-9.131664999999998
 31
0.0
  0
LINE
  5
948
330
A
100
AcDbEntity
  8
1
  6
Continuous
 62
     4
100
AcDbLine
 10
-31.00000000000001
 20
-9.131664999999998
 30
0.0
 11
-32.00000000000001
 21
-9.709015999999991
 31
0.0
  0
LINE
  5
949
330
A
100
AcDbEntity
  8
1
  6
Continuous
 62
     4
100
AcDbLine
 10
-31.00000000000001
 20
-9.131664999999998
 30
0.0
 11
-26.00000000000001
 21
-11.66874999999999
 31
0.0
  0
LINE
  5
94A
330
A
100
AcDbEntity
  8
1
  6
Continuous
 62
     4
100
AcDbLine
 10
-26.00000000000001
 20
-3.5
 30
0.0
 11
-26.00000000000001
 21
-11.66874999999999
 31
0.0
  0
CIRCLE
  5
94B
330
A
100
AcDbEntity
  8
1
  6
Continuous
 62
     4
100
AcDbCircle
 10
-9.000000000000007
 20
0.0
 30
0.0
 40
3.75
  0
LINE
  5
94C
330
A
100
AcDbEntity
  8
SK3
100
AcDbLine
 10
200.0
 20
10.0
 30
0.0
 11
151.0
 21
10.0
 31
0.0
  0
LINE
  5
94D
330
A
100
AcDbEntity
  8
SK3
100
AcDbLine
 10
181.5
 20
-10.0
 30
0.0
 11
181.5
 21
-16.99999999999997
 31
0.0
  0
LINE
  5
94E
330
A
100
AcDbEntity
  8
SK3
100
AcDbLine
 10
168.5
 20
-10.0
 30
0.0
 11
168.5
 21
-16.99999999999997
 31
0.0
  0
LINE
  5
94F
330
A
100
AcDbEntity
  8
SK3
100
AcDbLine
 10
167.0
 20
-16.99999999999997
 30
0.0
 11
167.0
 21
-10.0
 31
0.0
  0
LINE
  5
950
330
A
100
AcDbEntity
  8
SK3
100
AcDbLine
 10
183.0
 20
-10.0
 30
0.0
 11
183.0
 21
-16.99999999999997
 31
0.0
  0
ARC
  5
951
330
A
100
AcDbEntity
  8
SK3
100
AcDbCircle
 10
150.0
 20
-11.0
 30
0.0
 40
1.0
100
AcDbArc
 50
270.0
 51
0.0
  0
ARC
  5
952
330
A
100
AcDbEntity
  8
SK3
100
AcDbCircle
 10
147.0
 20
-11.0
 30
0.0
 40
1.0
100
AcDbArc
 50
180.0
 51
270.0
  0
ARC
  5
953
330
A
100
AcDbEntity
  8
SK3
100
AcDbCircle
 10
147.0
 20
11.0
 30
0.0
 40
1.0
100
AcDbArc
 50
90.0
 51
180.0
  0
ARC
  5
954
330
A
100
AcDbEntity
  8
SK3
100
AcDbCircle
 10
150.0
 20
11.0
 30
0.0
 40
1.0
100
AcDbArc
 50
0.0
 51
90.0
  0
LINE
  5
955
330
A
100
AcDbEntity
  8
SK3
100
AcDbLine
 10
151.0
 20
-11.0
 30
0.0
 11
151.0
 21
-10.0
 31
0.0
  0
LINE
  5
956
330
A
100
AcDbEntity
  8
SK3
100
AcDbLine
 10
147.0
 20
-12.0
 30
0.0
 11
150.0
 21
-12.0
 31
0.0
  0
LINE
  5
957
330
A
100
AcDbEntity
  8
SK3
100
AcDbLine
 10
146.0
 20
11.0
 30
0.0
 11
146.0
 21
-11.0
 31
0.0
  0
LINE
  5
958
330
A
100
AcDbEntity
  8
SK3
100
AcDbLine
 10
150.0
 20
12.0
 30
0.0
 11
147.0
 21
12.0
 31
0.0
  0
LINE
  5
959
330
A
100
AcDbEntity
  8
SK3
100
AcDbLine
 10
151.0
 20
10.0
 30
0.0
 11
151.0
 21
11.0
 31
0.0
  0
LINE
  5
95A
330
A
100
AcDbEntity
  8
SK3
100
AcDbLine
 10
151.0
 20
-10.0
 30
0.0
 11
200.0
 21
-10.0
 31
0.0
  0
LINE
  5
95B
330
A
100
AcDbEntity
  8
SK3
100
AcDbLine
 10
151.0
 20
10.0
 30
0.0
 11
151.0
 21
-10.0
 31
0.0
  0
LINE
  5
95C
330
A
100
AcDbEntity
  8
1
100
AcDbLine
 10
200.0
 20
-16.0
 30
0.0
 11
200.0
 21
16.0
 31
0.0
  0
LINE
  5
95D
330
A
100
AcDbEntity
  8
1
  6
Continuous
 62
     4
100
AcDbLine
 10
164.0
 20
17.0
 30
0.0
 11
199.0
 21
17.0
 31
0.0
  0
LINE
  5
95E
330
A
100
AcDbEntity
  8
1
  6
Continuous
 62
     4
100
AcDbLine
 10
164.0
 20
-16.99999999999997
 30
0.0
 11
199.0
 21
-16.99999999999997
 31
0.0
  0
LINE
  5
95F
330
A
100
AcDbEntity
  8
1
100
AcDbLine
 10
164.0
 20
-16.99999999999997
 30
0.0
 11
164.0
 21
17.0
 31
0.0
  0
LINE
  5
960
330
A
100
AcDbEntity
  8
SK1
  6
Continuous
 62
     4
100
AcDbLine
 10
164.0
 20
17.0
 30
0.0
 11
26.93852199999999
 21
25.44219200000003
 31
0.0
  0
LINE
  5
961
330
A
100
AcDbEntity
  8
SK1
  6
Continuous
 62
     4
100
AcDbLine
 10
164.0
 20
-16.99999999999997
 30
0.0
 11
26.93852199999999
 21
-25.44219199999998
 31
0.0
  0
LINE
  5
962
330
A
100
AcDbEntity
  8
1
  6
Continuous
 62
     4
100
AcDbLine
 10
199.0
 20
17.0
 30
0.0
 11
200.0
 21
16.0
 31
0.0
  0
LINE
  5
963
330
A
100
AcDbEntity
  8
1
  6
Continuous
 62
     4
100
AcDbLine
 10
199.0
 20
-16.99999999999997
 30
0.0
 11
200.0
 21
-16.0
 31
0.0
  0
LINE
  5
964
330
A
100
AcDbEntity
  8
1
  6
Continuous
 62
     4
100
AcDbLine
 10
199.0
 20
17.0
 30
0.0
 11
199.0
 21
-16.99999999999997
 31
0.0
  0
LINE
  5
965
330
A
100
AcDbEntity
  8
SK4
  6
DASHDOT
100
AcDbLine
 10
175.0
 20
-5.0
 30
0.0
 11
175.0
 21
-21.99999999999999
 31
0.0
  0
LINE
  5
966
330
A
100
AcDbEntity
  8
1
  6
Continuous
 62
     4
100
AcDbLine
 10
26.0
 20
-26.44030099999998
 30
0.0
 11
26.0
 21
-31.49999999999999
 31
0.0
  0
ARC
  5
967
330
A
100
AcDbEntity
  8
1
  6
Continuous
 62
     4
100
AcDbCircle
 10
27.0
 20
-26.44030099999998
 30
0.0
 40
1.0
100
AcDbArc
 50
93.52463500000047
 51
180.0
  0
ARC
  5
968
330
A
100
AcDbEntity
  8
1
  6
Continuous
 62
     4
100
AcDbCircle
 10
27.0
 20
26.44030100000003
 30
0.0
 40
1.0
100
AcDbArc
 50
180.0
 51
266.4753649999995
  0
LINE
  5
969
330
A
100
AcDbEntity
  8
NOCUT
100
AcDbLine
 10
-0.0000000000000071
 20
31.5
 30
0.0
 11
-0.0000008012108381
 21
0.0
 31
0.0
  0
LINE
  5
96A
330
A
100
AcDbEntity
  8
NOCUT
 62
     7
370
     0
100
AcDbLine
 10
-0.0000000000000071
 20
31.5
 30
0.0
 11
14.46372899999999
 21
31.5
 31
0.0
  0
LINE
  5
96B
330
A
100
AcDbEntity
  8
NOCUT
 62
     7
370
     0
100
AcDbLine
 10
14.46372899999999
 20
31.5
 30
0.0
 11
16.125
 21
28.62259500000002
 31
0.0
  0
LINE
  5
96C
330
A
100
AcDbEntity
  8
NOCUT
 62
     7
370
     0
100
AcDbLine
 10
16.125
 20
28.62259500000002
 30
0.0
 11
16.125
 21
28.13647900000001
 31
0.0
  0
LINE
  5
96D
330
A
100
AcDbEntity
  8
NOCUT
 62
     7
370
     0
100
AcDbLine
 10
16.125
 20
28.13647900000001
 30
0.0
 11
19.875
 21
28.13647900000001
 31
0.0
  0
LINE
  5
96E
330
A
100
AcDbEntity
  8
NOCUT
 62
     7
370
     0
100
AcDbLine
 10
19.875
 20
28.13647900000001
 30
0.0
 11
19.875
 21
28.62259500000002
 31
0.0
  0
LINE
  5
96F
330
A
100
AcDbEntity
  8
NOCUT
 62
     7
370
     0
100
AcDbLine
 10
19.875
 20
28.62259500000002
 30
0.0
 11
21.53626999999999
 21
31.5
 31
0.0
  0
LINE
  5
970
330
A
100
AcDbEntity
  8
NOCUT
 62
     7
370
     0
100
AcDbLine
 10
21.53626999999999
 20
31.5
 30
0.0
 11
26.0
 21
31.5
 31
0.0
  0
LINE
  5
971
330
A
100
AcDbEntity
  8
NOCUT
 62
     7
370
     0
100
AcDbLine
 10
26.0
 20
31.5
 30
0.0
 11
26.0
 21
26.44030100000003
 31
0.0
  0
LINE
  5
972
330
A
100
AcDbEntity
  8
NOCUT
 62
     7
370
     0
100
AcDbLine
 10
26.0
 20
26.44030100000003
 30
0.0
 11
26.27148174567331
 21
25.75527461137489
 31
0.0
  0
LINE
  5
973
330
A
100
AcDbEntity
  8
NOCUT
 62
     7
370
     0
100
AcDbLine
 10
26.27148174567331
 20
25.75527461137489
 30
0.0
 11
26.93852199999999
 21
25.44219200000003
 31
0.0
  0
LINE
  5
974
330
A
100
AcDbEntity
  8
NOCUT
 62
     7
370
     0
100
AcDbLine
 10
26.93852199999999
 20
25.44219200000003
 30
0.0
 11
164.0
 21
17.0
 31
0.0
  0
LINE
  5
975
330
A
100
AcDbEntity
  8
NOCUT
 62
     7
370
     0
100
AcDbLine
 10
164.0
 20
17.0
 30
0.0
 11
199.0
 21
17.0
 31
0.0
  0
LINE
  5
976
330
A
100
AcDbEntity
  8
NOCUT
 62
     7
370
     0
100
AcDbLine
 10
199.0
 20
17.0
 30
0.0
 11
200.0
 21
16.0
 31
0.0
  0
LINE
  5
977
330
A
100
AcDbEntity
  8
NOCUT
 62
     7
370
     0
100
AcDbLine
 10
200.0
 20
16.0
 30
0.0
 11
200.0
 21
0.0
 31
0.0
  0
LINE
  5
978
330
A
100
AcDbEntity
  8
NOCUT
 62
     7
370
     0
100
AcDbLine
 10
200.0
 20
0.0
 30
0.0
 11
-0.0000008012108381
 21
0.0
 31
0.0
  0
TEXT
  5
979
330
A
100
AcDbEntity
  8
INFTEXT63
100
AcDbText
 10
-29.27104749913502
 20
16.48498911642869
 30
0.0
 40
3.5
  1
HSK-A63
  7
BMG_Text
100
AcDbText
  0
LINE
  5
97A
330
A
100
AcDbEntity
  8
SK4
100
AcDbLine
 10
-38.31301666556217
 20
0.0
 30
0.0
 11
206.965150609526
 21
0.0
 31
0.0
  0
DIMENSION
  5
97B
330
A
100
AcDbEntity
  8
SK2
100
AcDbDimension
  2
*D57
 10
220.741004415462
 20
9.999999999999998
 30
0.0
 11
217.991004415462
 21
-0.0000000000000018
 31
0.0
 70
    32
  1
Ø20
 71
     5
 42
20.0
  3
BMG
100
AcDbAlignedDimension
 13
200.0
 23
-10.0
 33
0.0
 14
200.0
 24
10.0
 34
0.0
 50
90.0
100
AcDbRotatedDimension
1001
ACAD
1000
DSTYLE
1002
{
1070
   340
1005
329
1070
    41
1040
3.5
1070
   371
1070
     0
1070
   372
1070
     0
1070
    77
1070
     1
1070
   140
1040
3.5
1002
}
  0
DIMENSION
  5
97C
330
A
100
AcDbEntity
  8
SK2
370
     0
100
AcDbDimension
  2
*D58
 10
-45.46474325099274
 20
31.5
 30
0.0
 11
-48.21474325099274
 21
0.000000000000011
 31
0.0
 70
    32
  1
Ø63
 71
     5
 42
62.99999999999999
  3
BMG
100
AcDbAlignedDimension
 13
-0.0000000000000071
 23
-31.49999999999999
 33
0.0
 14
-0.0000000000000071
 24
31.5
 34
0.0
 50
90.0
100
AcDbRotatedDimension
1001
ACAD
1000
DSTYLE
1002
{
1070
   340
1005
329
1070
    41
1040
3.5
1070
   371
1070
     0
1070
   372
1070
     0
1070
    77
1070
     1
1070
   140
1040
3.5
1002
}
  0
DIMENSION
  5
97D
330
A
100
AcDbEntity
  8
SK2
370
     0
100
AcDbDimension
  2
*D59
 10
-0.0000000000000071
 20
42.22810508017255
 30
0.0
 11
-16.00000000000001
 21
44.97810508017255
 31
0.0
 70
    32
 71
     5
 42
32.0
  3
BMG
100
AcDbAlignedDimension
 13
-32.00000000000001
 23
21.57350100000002
 33
0.0
 14
-0.0000000000000071
 24
31.49999985060086
 34
0.0
100
AcDbRotatedDimension
1001
ACAD
1000
DSTYLE
1002
{
1070
   340
1005
329
1070
    41
1040
3.5
1070
   371
1070
     0
1070
   372
1070
     0
1070
    77
1070
     1
1070
   140
1040
3.5
1002
}
  0
DIMENSION
  5
97E
330
A
100
AcDbEntity
  8
SK2
370
     0
100
AcDbDimension
  2
*D60
 10
200.0
 20
59.99968550753283
 30
0.0
 11
83.99999999999999
 21
62.74968550753283
 31
0.0
 70
    32
 71
     5
 42
232.0
  3
BMG
100
AcDbAlignedDimension
 13
-32.00000000000001
 23
21.57350100000002
 33
0.0
 14
200.0
 24
16.0
 34
0.0
100
AcDbRotatedDimension
1001
ACAD
1000
DSTYLE
1002
{
1070
   340
1005
329
1070
    41
1040
3.5
1070
   371
1070
     0
1070
   372
1070
     0
1070
    77
1070
     1
1070
   140
1040
3.5
1002
}
  0
DIMENSION
  5
97F
330
A
100
AcDbEntity
  8
2
370
     0
100
AcDbDimension
  2
*D61
 10
200.0
 20
44.60741943703482
 30
0.0
 11
113.0
 21
47.35741943703482
 31
0.0
 70
    32
 71
     5
 42
174.0
  3
BMG
100
AcDbAlignedDimension
 13
26.0
 23
31.5
 33
0.0
 14
200.0
 24
16.0
 34
0.0
100
AcDbRotatedDimension
1001
ACAD
1000
DSTYLE
1002
{
1070
   340
1005
329
1070
    41
1040
3.5
1070
   371
1070
     0
1070
   372
1070
     0
1070
    77
1070
     1
1070
   140
1040
3.5
1002
}
  0
DIMENSION
  5
980
330
A
100
AcDbEntity
  8
2
370
     0
100
AcDbDimension
  2
*D62
 10
200.0
 20
-42.01734080371429
 30
0.0
 11
100.0
 21
-39.26734080371429
 31
0.0
 70
    32
 71
     5
 42
200.0
  3
BMG
100
AcDbAlignedDimension
 13
-0.0000000000000071
 23
-31.49999999999999
 33
0.0
 14
200.0
 24
-16.0
 34
0.0
100
AcDbRotatedDimension
1001
ACAD
1000
DSTYLE
1002
{
1070
   340
1005
329
1070
    41
1040
3.5
1070
   371
1070
     0
1070
   372
1070
     0
1070
    77
1070
     1
1070
   140
1040
3.5
1002
}
  0
DIMENSION
  5
981
330
A
100
AcDbEntity
  8
SK2
370
     0
100
AcDbDimension
  2
*D63
 10
200.0
 20
29.05938554766959
 30
0.0
 11
173.0
 21
31.80938554766959
 31
0.0
 70
    32
 71
     5
 42
54.0
  3
BMG
100
AcDbAlignedDimension
 13
146.0
 23
11.0
 33
0.0
 14
200.0
 24
16.0
 34
0.0
100
AcDbRotatedDimension
1001
ACAD
1000
DSTYLE
1002
{
1070
   340
1005
329
1070
    41
1040
3.5
1070
   371
1070
     0
1070
   372
1070
     0
1070
    77
1070
     1
1070
   140
1040
3.5
1002
}
  0
DIMENSION
  5
982
330
A
100
AcDbEntity
  8
2
370
     0
100
AcDbDimension
  2
*D64
 10
232.5513114292848
 20
17.0
 30
0.0
 11
229.8013114292848
 21
0.0000000000000107
 31
0.0
 70
    32
  1
Ø34
 71
     5
 42
33.99999999999997
  3
BMG
100
AcDbAlignedDimension
 13
199.0
 23
-16.99999999999997
 33
0.0
 14
199.0
 24
17.0
 34
0.0
 50
90.0
100
AcDbRotatedDimension
1001
ACAD
1000
DSTYLE
1002
{
1070
   340
1005
329
1070
    41
1040
3.5
1070
   371
1070
     0
1070
   372
1070
     0
1070
    77
1070
     1
1070
   140
1040
3.5
1002
}
  0
DIMENSION
  5
983
330
A
100
AcDbEntity
  8
2
370
     0
100
AcDbDimension
  2
*D65
 10
40.92439565873373
 20
-25.44219254238219
 30
0.0
 11
38.17439565873373
 21
0.0000000518203578
 31
0.0
 70
    32
  1
Ø51
 71
     5
 42
50.8843851884051
  3
BMG
100
AcDbAlignedDimension
 13
26.93852062361159
 23
25.4421926460229
 33
0.0
 14
26.93852230622561
 24
-25.44219254238219
 34
0.0
 50
90.0
100
AcDbRotatedDimension
1001
ACAD
1000
DSTYLE
1002
{
1070
   340
1005
329
1070
    41
1040
3.5
1070
   371
1070
     0
1070
   372
1070
     0
1070
    77
1070
     1
1070
   140
1040
3.5
1002
}
  0
TEXT
  5
9A4
330
A
100
AcDbEntity
  8
SK6
  6
Continuous
 62
     5
100
AcDbText
 10
-46.94
 20
-59.96
 30
0.0
 40
3.5
  1
93.05.031.516
  7
BMG_Text
100
AcDbText
  0
VIEWPORT
  5
1D6
330
B
100
AcDbEntity
 67
     1
  8
LC-000
100
AcDbViewport
 10
210.0
 20
148.5
 30
0.0
 40
420.0
 41
297.0
 68
     1
 69
     1
 12
210.0
 22
148.5
 13
0.0
 23
0.0
 14
1.0
 24
1.0
 15
0.0
 25
0.0
 16
0.0
 26
0.0
 36
1.0
 17
0.0
 27
0.0
 37
0.0
 42
50.0
 43
0.0
 44
0.0
 45
297.0
 50
0.0
 51
0.0
 72
   100
 90
    32928
  1

281
     0
 71
     0
 74
     1
110
0.0
120
0.0
130
0.0
111
1.0
121
0.0
131
0.0
112
0.0
122
1.0
132
0.0
 79
     0
146
0.0
  0
VIEWPORT
  5
1D7
330
B
100
AcDbEntity
 67
     1
  8
0
100
AcDbViewport
 10
0.0
 20
0.0
 30
0.0
 40
0.0
 41
0.0
 68
     2
 69
     2
 12
0.0
 22
0.0
 13
0.0
 23
0.0
 14
0.5
 24
0.5
 15
0.5
 25
0.5
 16
0.0
 26
0.0
 36
1.0
 17
0.0
 27
0.0
 37
0.0
 42
50.0
 43
0.0
 44
0.0
 45
297.0
 50
0.0
 51
0.0
 72
   100
 90
    32800
  1

281
     0
 71
     0
 74
     1
110
0.0
120
0.0
130
0.0
111
1.0
121
0.0
131
0.0
112
0.0
122
1.0
132
0.0
 79
     0
146
0.0
  0
ENDSEC
  0
SECTION
  2
OBJECTS
  0
DICTIONARY
  5
19
330
0
100
AcDbDictionary
281
     1
  3
ACAD_GROUP
350
1A
  3
ACAD_IMAGE_VARS
350
21F
  3
ACAD_LAYOUT
350
1E
  3
ACAD_MLINESTYLE
350
1B
  3
ACAD_PLOTSETTINGS
350
22
  3
ACAD_PLOTSTYLENAME
350
1F
  3
ACAD_SCALELIST
350
1E5
  3
AcDbVariableDictionary
350
27F
  3
APPDATA
350
21E
  3
DWGPROPS
350
9A5
  0
DICTIONARY
  5
26B
330
2
100
AcDbDictionary
280
     1
281
     1
  3
ACAD_LAYERSTATES
360
26C
  3
ACLYDICTIONARY
360
37C
  0
DICTIONARY
  5
1A
102
{ACAD_REACTORS
330
19
102
}
330
19
100
AcDbDictionary
281
     1
  3
12
350
1DC
  3
12
350
1E4
  3
22
350
1DF
  3
22
350
1E0
  3
3
350
1DB
  3
3
350
1DD
  3
33
350
1D9
  3
33
350
1DE
  3
4
350
1E3
  3
6
350
1DA
  3
9
350
1E2
  3
S:\01-TDM\03-NORMTEILE\1835B20KLEIN
350
1D8
  3
S:01-TDM\KEGEL\HSK_A63
350
1E1
  0
RASTERVARIABLES
  5
21F
102
{ACAD_REACTORS
330
19
102
}
330
19
100
AcDbRasterVariables
 90
        0
 70
     1
 71
     1
 72
     0
  0
DICTIONARY
  5
1E
102
{ACAD_REACTORS
330
19
102
}
330
19
100
AcDbDictionary
281
     1
  3
Layout1
350
21
  3
Model
350
20
  0
DICTIONARY
  5
1B
102
{ACAD_REACTORS
330
19
102
}
330
19
100
AcDbDictionary
281
     1
  3
Standard
350
1C
  0
DICTIONARY
  5
22
102
{ACAD_REACTORS
330
19
102
}
330
19
100
AcDbDictionary
281
     1
  0
ACDBDICTIONARYWDFLT
  5
1F
102
{ACAD_REACTORS
330
19
102
}
330
19
100
AcDbDictionary
281
     1
  3
Normal
350
1D
100
AcDbDictionaryWithDefault
340
1D
  0
DICTIONARY
  5
1E5
102
{ACAD_REACTORS
330
19
102
}
330
19
100
AcDbDictionary
281
     1
  3
A0
350
1E6
  3
A1
350
1E7
  3
A2
350
1E8
  3
A3
350
1E9
  3
A4
350
1EA
  3
A5
350
1EB
  3
A6
350
1EC
  3
A7
350
1ED
  3
A8
350
1EE
  3
A9
350
1EF
  3
B0
350
1F0
  3
B1
350
1F1
  3
B2
350
1F2
  3
B3
350
1F3
  3
B4
350
1F4
  3
B5
350
1F5
  3
B6
350
1F6
  3
B7
350
1F7
  3
B8
350
1F8
  3
B9
350
1F9
  3
C0
350
1FA
  3
C1
350
1FB
  3
C2
350
1FC
  3
C3
350
1FD
  3
C4
350
1FE
  3
C5
350
1FF
  3
C6
350
200
  3
C7
350
201
  3
C8
350
202
  3
C9
350
203
  3
D0
350
204
  3
D1
350
205
  3
D2
350
206
  0
DICTIONARY
  5
27F
102
{ACAD_REACTORS
330
19
102
}
330
19
100
AcDbDictionary
281
     1
  3
CANNOSCALE
350
9A6
  0
DICTIONARY
  5
21E
102
{ACAD_REACTORS
330
19
102
}
330
19
100
AcDbDictionary
281
     1
  0
XRECORD
  5
9A5
102
{ACAD_REACTORS
330
19
102
}
330
19
100
AcDbXrecord
280
     1
  1
DWGPROPS COOKIE
  2

  3

  4

  6

  7

  8
KutluO
  9

300
=
301
=
302
=
303
=
304
=
305
=
306
=
307
=
308
=
309
=
 40
0.0
 41
0.0
 42
2456646.505412234
  1

 90
        0
  0
DICTIONARY
  5
26C
102
{ACAD_REACTORS
330
26B
102
}
330
26B
100
AcDbDictionary
281
     1
  3
ARGON_LAYERP_1
350
26D
  3
ARGON_LAYERP_10
350
376
  3
ARGON_LAYERP_11
350
377
  3
ARGON_LAYERP_12
350
378
  3
ARGON_LAYERP_13
350
379
  3
ARGON_LAYERP_14
350
37A
  3
ARGON_LAYERP_15
350
37B
  3
ARGON_LAYERP_16
350
380
  3
ARGON_LAYERP_17
350
3D6
  3
ARGON_LAYERP_18
350
3F7
  3
ARGON_LAYERP_19
350
407
  3
ARGON_LAYERP_2
350
2B7
  3
ARGON_LAYERP_20
350
7C6
  3
ARGON_LAYERP_3
350
345
  3
ARGON_LAYERP_4
350
346
  3
ARGON_LAYERP_5
350
347
  3
ARGON_LAYERP_6
350
348
  3
ARGON_LAYERP_7
350
36C
  3
ARGON_LAYERP_8
350
36E
  3
ARGON_LAYERP_9
350
375
  0
DICTIONARY
  5
37C
102
{ACAD_REACTORS
330
26B
102
}
330
26B
100
AcDbDictionary
281
     1
1001
ACAD
1000
<All
  0
GROUP
  5
1DC
102
{ACAD_REACTORS
330
1A
102
}
330
1A
100
AcDbGroup
300
12-LCMaster-S:\01-TDM\03-NORMTEILE\1835B20KLEIN
 70
     0
 71
     1
  0
GROUP
  5
1E4
102
{ACAD_REACTORS
330
1A
102
}
330
1A
100
AcDbGroup
300
12-LCMaster-S:01-TDM\KEGEL\HSK_A63
 70
     0
 71
     1
  0
GROUP
  5
1DF
102
{ACAD_REACTORS
330
1A
102
}
330
1A
100
AcDbGroup
300
22-LCMaster-S:\01-TDM\03-NORMTEILE\1835B20KLEIN
 70
     0
 71
     1
  0
GROUP
  5
1E0
102
{ACAD_REACTORS
330
1A
102
}
330
1A
100
AcDbGroup
300
22-LCMaster-S:01-TDM\KEGEL\HSK_A63
 70
     0
 71
     1
  0
GROUP
  5
1DB
102
{ACAD_REACTORS
330
1A
102
}
330
1A
100
AcDbGroup
300
3-LCMaster-S:01-TDM\KEGEL\HSK_A63
 70
     0
 71
     1
  0
GROUP
  5
1DD
102
{ACAD_REACTORS
330
1A
102
}
330
1A
100
AcDbGroup
300
3-LCMaster-S:\01-TDM\03-NORMTEILE\1835B20KLEIN
 70
     0
 71
     1
  0
GROUP
  5
1D9
102
{ACAD_REACTORS
330
1A
102
}
330
1A
100
AcDbGroup
300
33-LCMaster-S:01-TDM\KEGEL\HSK_A63
 70
     0
 71
     1
  0
GROUP
  5
1DE
102
{ACAD_REACTORS
330
1A
102
}
330
1A
100
AcDbGroup
300
33-LCMaster-S:\01-TDM\03-NORMTEILE\1835B20KLEIN
 70
     0
 71
     1
  0
GROUP
  5
1E3
102
{ACAD_REACTORS
330
1A
102
}
330
1A
100
AcDbGroup
300
4-LCMaster-S:01-TDM\KEGEL\HSK_A63
 70
     0
 71
     1
  0
GROUP
  5
1DA
102
{ACAD_REACTORS
330
1A
102
}
330
1A
100
AcDbGroup
300
6-LCMaster-S:01-TDM\KEGEL\HSK_A63
 70
     0
 71
     1
  0
GROUP
  5
1E2
102
{ACAD_REACTORS
330
1A
102
}
330
1A
100
AcDbGroup
300
9-LCMaster-S:01-TDM\KEGEL\HSK_A63
 70
     0
 71
     1
  0
GROUP
  5
1D8
102
{ACAD_REACTORS
330
1A
102
}
330
1A
100
AcDbGroup
300
S:\01-TDM\03-NORMTEILE\1835B20KLEIN
 70
     0
 71
     1
340
10F
340
123
340
12A
340
17C
  0
GROUP
  5
1E1
102
{ACAD_REACTORS
330
1A
102
}
330
1A
100
AcDbGroup
300
S:01-TDM\KEGEL\HSK_A63
 70
     0
 71
     1
340
35
340
52
340
73
340
7C
340
90
340
B0
340
EB
  0
LAYOUT
  5
21
102
{ACAD_REACTORS
330
1E
102
}
330
1E
100
AcDbPlotSettings
  1

  2

  4

  6

 40
0.0
 41
0.0
 42
0.0
 43
0.0
 44
0.0
 45
0.0
 46
0.0
 47
0.0
 48
0.0
 49
0.0
140
0.0
141
0.0
142
1.0
143
1.0
 70
     0
 72
     0
 73
     0
 74
     0
  7

 75
     0
147
1.0
148
0.0
149
0.0
100
AcDbLayout
  1
Layout1
 70
     0
 71
     0
 10
0.0
 20
0.0
 11
0.0
 21
0.0
 12
0.0
 22
0.0
 32
0.0
 14
0.0
 24
0.0
 34
0.0
 15
0.0
 25
0.0
 35
0.0
146
0.0
 13
0.0
 23
0.0
 33
0.0
 16
0.0
 26
0.0
 36
0.0
 17
0.0
 27
0.0
 37
0.0
 76
     0
330
B
331
1D6
  0
LAYOUT
  5
20
102
{ACAD_REACTORS
330
1E
102
}
330
1E
100
AcDbPlotSettings
  1

  2

  4

  6

 40
0.0
 41
0.0
 42
0.0
 43
0.0
 44
0.0
 45
0.0
 46
0.0
 47
0.0
 48
0.0
 49
0.0
140
0.0
141
0.0
142
1.0
143
1.0
 70
  1024
 72
     0
 73
     0
 74
     0
  7

 75
     0
147
1.0
148
0.0
149
0.0
100
AcDbLayout
  1
Model
 70
     0
 71
     1
 10
0.0
 20
0.0
 11
0.0
 21
0.0
 12
0.0
 22
0.0
 32
0.0
 14
0.0
 24
0.0
 34
0.0
 15
0.0
 25
0.0
 35
0.0
146
0.0
 13
0.0
 23
0.0
 33
0.0
 16
0.0
 26
0.0
 36
0.0
 17
0.0
 27
0.0
 37
0.0
 76
     0
330
A
331
15
  0
MLINESTYLE
  5
1C
102
{ACAD_REACTORS
330
1B
102
}
330
1B
100
AcDbMlineStyle
  2
Standard
 70
     0
  3

 62
     0
 51
90.0
 52
90.0
 71
     2
 49
0.5
 62
   256
  6
BYLAYER
 49
-0.5
 62
   256
  6
BYLAYER
  0
ACDBPLACEHOLDER
  5
1D
102
{ACAD_REACTORS
330
1F
102
}
330
1F
  0
SCALE
  5
1E6
102
{ACAD_REACTORS
330
1E5
102
}
330
1E5
100
AcDbScale
 70
     0
300
1:1
140
1.0
141
1.0
290
     1
  0
SCALE
  5
1E7
102
{ACAD_REACTORS
330
1E5
102
}
330
1E5
100
AcDbScale
 70
     0
300
1:2
140
1.0
141
2.0
290
     0
  0
SCALE
  5
1E8
102
{ACAD_REACTORS
330
1E5
102
}
330
1E5
100
AcDbScale
 70
     0
300
1:4
140
1.0
141
4.0
290
     0
  0
SCALE
  5
1E9
102
{ACAD_REACTORS
330
1E5
102
}
330
1E5
100
AcDbScale
 70
     0
300
1:5
140
1.0
141
5.0
290
     0
  0
SCALE
  5
1EA
102
{ACAD_REACTORS
330
1E5
102
}
330
1E5
100
AcDbScale
 70
     0
300
1:8
140
1.0
141
8.0
290
     0
  0
SCALE
  5
1EB
102
{ACAD_REACTORS
330
1E5
102
}
330
1E5
100
AcDbScale
 70
     0
300
1:10
140
1.0
141
10.0
290
     0
  0
SCALE
  5
1EC
102
{ACAD_REACTORS
330
1E5
102
}
330
1E5
100
AcDbScale
 70
     0
300
1:16
140
1.0
141
16.0
290
     0
  0
SCALE
  5
1ED
102
{ACAD_REACTORS
330
1E5
102
}
330
1E5
100
AcDbScale
 70
     0
300
1:20
140
1.0
141
20.0
290
     0
  0
SCALE
  5
1EE
102
{ACAD_REACTORS
330
1E5
102
}
330
1E5
100
AcDbScale
 70
     0
300
1:30
140
1.0
141
30.0
290
     0
  0
SCALE
  5
1EF
102
{ACAD_REACTORS
330
1E5
102
}
330
1E5
100
AcDbScale
 70
     0
300
1:40
140
1.0
141
40.0
290
     0
  0
SCALE
  5
1F0
102
{ACAD_REACTORS
330
1E5
102
}
330
1E5
100
AcDbScale
 70
     0
300
1:50
140
1.0
141
50.0
290
     0
  0
SCALE
  5
1F1
102
{ACAD_REACTORS
330
1E5
102
}
330
1E5
100
AcDbScale
 70
     0
300
1:100
140
1.0
141
100.0
290
     0
  0
SCALE
  5
1F2
102
{ACAD_REACTORS
330
1E5
102
}
330
1E5
100
AcDbScale
 70
     0
300
2:1
140
2.0
141
1.0
290
     0
  0
SCALE
  5
1F3
102
{ACAD_REACTORS
330
1E5
102
}
330
1E5
100
AcDbScale
 70
     0
300
4:1
140
4.0
141
1.0
290
     0
  0
SCALE
  5
1F4
102
{ACAD_REACTORS
330
1E5
102
}
330
1E5
100
AcDbScale
 70
     0
300
8:1
140
8.0
141
1.0
290
     0
  0
SCALE
  5
1F5
102
{ACAD_REACTORS
330
1E5
102
}
330
1E5
100
AcDbScale
 70
     0
300
10:1
140
10.0
141
1.0
290
     0
  0
SCALE
  5
1F6
102
{ACAD_REACTORS
330
1E5
102
}
330
1E5
100
AcDbScale
 70
     0
300
100:1
140
100.0
141
1.0
290
     0
  0
SCALE
  5
1F7
102
{ACAD_REACTORS
330
1E5
102
}
330
1E5
100
AcDbScale
 70
     0
300
1/128" = 1'-0"
140
0.0078125
141
12.0
290
     0
  0
SCALE
  5
1F8
102
{ACAD_REACTORS
330
1E5
102
}
330
1E5
100
AcDbScale
 70
     0
300
1/64" = 1'-0"
140
0.015625
141
12.0
290
     0
  0
SCALE
  5
1F9
102
{ACAD_REACTORS
330
1E5
102
}
330
1E5
100
AcDbScale
 70
     0
300
1/32" = 1'-0"
140
0.03125
141
12.0
290
     0
  0
SCALE
  5
1FA
102
{ACAD_REACTORS
330
1E5
102
}
330
1E5
100
AcDbScale
 70
     0
300
1/16" = 1'-0"
140
0.0625
141
12.0
290
     0
  0
SCALE
  5
1FB
102
{ACAD_REACTORS
330
1E5
102
}
330
1E5
100
AcDbScale
 70
     0
300
3/32" = 1'-0"
140
0.09375
141
12.0
290
     0
  0
SCALE
  5
1FC
102
{ACAD_REACTORS
330
1E5
102
}
330
1E5
100
AcDbScale
 70
     0
300
1/8" = 1'-0"
140
0.125
141
12.0
290
     0
  0
SCALE
  5
1FD
102
{ACAD_REACTORS
330
1E5
102
}
330
1E5
100
AcDbScale
 70
     0
300
3/16" = 1'-0"
140
0.1875
141
12.0
290
     0
  0
SCALE
  5
1FE
102
{ACAD_REACTORS
330
1E5
102
}
330
1E5
100
AcDbScale
 70
     0
300
1/4" = 1'-0"
140
0.25
141
12.0
290
     0
  0
SCALE
  5
1FF
102
{ACAD_REACTORS
330
1E5
102
}
330
1E5
100
AcDbScale
 70
     0
300
3/8" = 1'-0"
140
0.375
141
12.0
290
     0
  0
SCALE
  5
200
102
{ACAD_REACTORS
330
1E5
102
}
330
1E5
100
AcDbScale
 70
     0
300
1/2" = 1'-0"
140
0.5
141
12.0
290
     0
  0
SCALE
  5
201
102
{ACAD_REACTORS
330
1E5
102
}
330
1E5
100
AcDbScale
 70
     0
300
3/4" = 1'-0"
140
0.75
141
12.0
290
     0
  0
SCALE
  5
202
102
{ACAD_REACTORS
330
1E5
102
}
330
1E5
100
AcDbScale
 70
     0
300
1" = 1'-0"
140
1.0
141
12.0
290
     0
  0
SCALE
  5
203
102
{ACAD_REACTORS
330
1E5
102
}
330
1E5
100
AcDbScale
 70
     0
300
1-1/2" = 1'-0"
140
1.5
141
12.0
290
     0
  0
SCALE
  5
204
102
{ACAD_REACTORS
330
1E5
102
}
330
1E5
100
AcDbScale
 70
     0
300
3" = 1'-0"
140
3.0
141
12.0
290
     0
  0
SCALE
  5
205
102
{ACAD_REACTORS
330
1E5
102
}
330
1E5
100
AcDbScale
 70
     0
300
6" = 1'-0"
140
6.0
141
12.0
290
     0
  0
SCALE
  5
206
102
{ACAD_REACTORS
330
1E5
102
}
330
1E5
100
AcDbScale
 70
     0
300
1'-0" = 1'-0"
140
12.0
141
12.0
290
     0
  0
DICTIONARYVAR
  5
9A6
102
{ACAD_REACTORS
330
27F
102
}
330
27F
100
DictionaryVariables
280
     0
  1
1:1
  0
XRECORD
  5
26D
102
{ACAD_REACTORS
330
26C
102
}
330
26C
100
AcDbXrecord
280
     1
 91
     1023
301

290
     0
302
0
330
14
 90
        8
 62
     7
370
    -3
331
13
  1
Color_7
330
29
 90
       11
 62
     1
370
    -3
331
13
  1
Color_1
330
34
 90
        8
 62
     4
370
    -3
331
13
  1
Color_4
330
36
 90
        8
 62
     4
370
    -3
331
13
  1
Color_4
330
54
 90
        8
 62
     2
370
    -3
331
53
  1
Color_2
330
0
 90
        8
 62
     5
370
    -3
331
13
  1
Color_5
330
7E
 90
        8
 62
     1
370
    -3
331
7D
  1
Color_1
330
93
 90
        8
 62
     7
370
    -3
331
13
  1
Color_7
330
B2
 90
        8
 62
     2
370
    -3
331
55
  1
Color_2
330
EE
 90
        8
 62
     7
370
    -3
331
13
  1
Color_7
330
1D5
 90
        8
 62
     7
370
    -3
331
13
  1
Color_7
330
223
 90
        0
 62
     9
370
    18
331
13
  1
Color_9
330
24B
 90
        8
 62
     7
370
    25
331
13
  1
Color_7
  0
XRECORD
  5
376
102
{ACAD_REACTORS
330
26C
102
}
330
26C
100
AcDbXrecord
280
     1
 91
     1023
301

290
     0
302
SK6
330
14
 90
        8
 62
     7
370
    -3
331
13
  1
Color_7
330
29
 90
       11
 62
     1
370
    -3
331
13
  1
Color_1
330
34
 90
        8
 62
     4
370
    -3
331
13
  1
Color_4
330
36
 90
        8
 62
     4
370
    -3
331
13
  1
Color_4
330
54
 90
        8
 62
     2
370
    -3
331
34C
  1
Color_2
330
0
 90
        8
 62
     5
370
    -3
331
13
  1
Color_5
330
7E
 90
        8
 62
     1
370
    -3
331
7D
  1
Color_1
330
93
 90
        8
 62
     7
370
    -3
331
13
  1
Color_7
330
B2
 90
        8
 62
     2
370
    -3
331
55
  1
Color_2
330
EE
 90
        8
 62
     7
370
    -3
331
13
  1
Color_7
330
1D5
 90
        8
 62
     7
370
    -3
331
13
  1
Color_7
330
223
 90
        0
 62
     9
370
    18
331
13
  1
Color_9
330
24B
 90
        8
 62
     7
370
    25
331
13
  1
Color_7
330
27D
 90
        0
 62
     7
370
    -3
331
13
  1
Color_7
330
2DD
 90
        8
 62
     5
370
    -3
331
13
  1
Color_5
  0
XRECORD
  5
377
102
{ACAD_REACTORS
330
26C
102
}
330
26C
100
AcDbXrecord
280
     1
 91
     1023
301

290
     0
302
SK6
330
14
 90
        8
 62
     7
370
    -3
331
13
  1
Color_7
330
29
 90
       11
 62
     1
370
    -3
331
13
  1
Color_1
330
34
 90
        8
 62
     4
370
    -3
331
13
  1
Color_4
330
36
 90
        8
 62
     4
370
    -3
331
13
  1
Color_4
330
54
 90
        8
 62
     2
370
    -3
331
34C
  1
Color_2
330
0
 90
        9
 62
     5
370
    -3
331
13
  1
Color_5
330
7E
 90
        8
 62
     1
370
    -3
331
7D
  1
Color_1
330
93
 90
        8
 62
     7
370
    -3
331
13
  1
Color_7
330
B2
 90
        8
 62
     2
370
    -3
331
55
  1
Color_2
330
EE
 90
        8
 62
     7
370
    -3
331
13
  1
Color_7
330
1D5
 90
        8
 62
     7
370
    -3
331
13
  1
Color_7
330
223
 90
        0
 62
     9
370
    18
331
13
  1
Color_9
330
24B
 90
        8
 62
     7
370
    25
331
13
  1
Color_7
330
27D
 90
        0
 62
     7
370
    -3
331
13
  1
Color_7
330
2DD
 90
        8
 62
     5
370
    -3
331
13
  1
Color_5
  0
XRECORD
  5
378
102
{ACAD_REACTORS
330
26C
102
}
330
26C
100
AcDbXrecord
280
     1
 91
     1023
301

290
     0
302
SK6
330
14
 90
        8
 62
     7
370
    -3
331
13
  1
Color_7
330
29
 90
       11
 62
     1
370
    -3
331
13
  1
Color_1
330
34
 90
        8
 62
     4
370
    -3
331
13
  1
Color_4
330
36
 90
        8
 62
     4
370
    -3
331
13
  1
Color_4
330
54
 90
        8
 62
     2
370
    -3
331
34C
  1
Color_2
330
0
 90
        8
 62
     5
370
    -3
331
13
  1
Color_5
330
7E
 90
        8
 62
     1
370
    -3
331
7D
  1
Color_1
330
93
 90
        8
 62
     7
370
    -3
331
13
  1
Color_7
330
B2
 90
        8
 62
     2
370
    -3
331
55
  1
Color_2
330
EE
 90
        8
 62
     7
370
    -3
331
13
  1
Color_7
330
1D5
 90
        8
 62
     7
370
    -3
331
13
  1
Color_7
330
223
 90
        0
 62
     9
370
    18
331
13
  1
Color_9
330
24B
 90
        8
 62
     7
370
    25
331
13
  1
Color_7
330
27D
 90
        0
 62
     7
370
    -3
331
13
  1
Color_7
330
2DD
 90
        8
 62
     5
370
    -3
331
13
  1
Color_5
  0
XRECORD
  5
379
102
{ACAD_REACTORS
330
26C
102
}
330
26C
100
AcDbXrecord
280
     1
 91
     1023
301

290
     0
302
SK6
330
14
 90
        8
 62
     7
370
    -3
331
13
  1
Color_7
330
29
 90
       11
 62
     1
370
    -3
331
13
  1
Color_1
330
34
 90
        8
 62
     4
370
    -3
331
13
  1
Color_4
330
36
 90
        8
 62
     4
370
    -3
331
13
  1
Color_4
330
54
 90
        8
 62
     2
370
    -3
331
34C
  1
Color_2
330
0
 90
        8
 62
     5
370
    -3
331
13
  1
Color_5
330
7E
 90
        8
 62
     1
370
    -3
331
7D
  1
Color_1
330
93
 90
        8
 62
     7
370
    -3
331
13
  1
Color_7
330
B2
 90
        8
 62
     2
370
    -3
331
55
  1
Color_2
330
EE
 90
        8
 62
     7
370
    -3
331
13
  1
Color_7
330
1D5
 90
        8
 62
     7
370
    -3
331
13
  1
Color_7
330
223
 90
        0
 62
     9
370
    18
331
13
  1
Color_9
330
24B
 90
        8
 62
     7
370
    25
331
13
  1
Color_7
330
27D
 90
        0
 62
     7
370
    -3
331
13
  1
Color_7
330
2DD
 90
        8
 62
     5
370
    -3
331
13
  1
Color_5
  0
XRECORD
  5
37A
102
{ACAD_REACTORS
330
26C
102
}
330
26C
100
AcDbXrecord
280
     1
 91
     1023
301

290
     0
302
SK6
330
14
 90
        8
 62
     7
370
    -3
331
13
  1
Color_7
330
29
 90
       11
 62
     1
370
    -3
331
13
  1
Color_1
330
34
 90
        8
 62
     4
370
    -3
331
13
  1
Color_4
330
36
 90
        8
 62
     4
370
    -3
331
13
  1
Color_4
330
54
 90
        8
 62
     2
370
    -3
331
34C
  1
Color_2
330
0
 90
        8
 62
     5
370
    -3
331
13
  1
Color_5
330
7E
 90
        8
 62
     1
370
    -3
331
7D
  1
Color_1
330
93
 90
        8
 62
     7
370
    -3
331
13
  1
Color_7
330
B2
 90
        8
 62
     2
370
    -3
331
55
  1
Color_2
330
EE
 90
        8
 62
     7
370
    -3
331
13
  1
Color_7
330
1D5
 90
        8
 62
     7
370
    -3
331
13
  1
Color_7
330
223
 90
        0
 62
     9
370
    18
331
13
  1
Color_9
330
24B
 90
        8
 62
     7
370
    25
331
13
  1
Color_7
330
27D
 90
        0
 62
     7
370
    -3
331
13
  1
Color_7
330
2DD
 90
        8
 62
     5
370
    -3
331
13
  1
Color_5
  0
XRECORD
  5
37B
102
{ACAD_REACTORS
330
26C
102
}
330
26C
100
AcDbXrecord
280
     1
 91
     1023
301

290
     0
302
NOCUT
330
14
 90
        8
 62
     7
370
    -3
331
13
  1
Color_7
330
29
 90
       11
 62
     1
370
    -3
331
13
  1
Color_1
330
34
 90
        8
 62
     4
370
    -3
331
13
  1
Color_4
330
36
 90
        8
 62
     4
370
    -3
331
13
  1
Color_4
330
54
 90
        8
 62
     2
370
    -3
331
34C
  1
Color_2
330
0
 90
        8
 62
     5
370
    -3
331
13
  1
Color_5
330
7E
 90
        8
 62
     1
370
    -3
331
7D
  1
Color_1
330
93
 90
        8
 62
     7
370
    -3
331
13
  1
Color_7
330
B2
 90
        8
 62
     2
370
    -3
331
55
  1
Color_2
330
EE
 90
        8
 62
     7
370
    -3
331
13
  1
Color_7
330
1D5
 90
        8
 62
     7
370
    -3
331
13
  1
Color_7
330
223
 90
        0
 62
     9
370
    18
331
13
  1
Color_9
330
24B
 90
        8
 62
     7
370
    25
331
13
  1
Color_7
330
27D
 90
        0
 62
     7
370
    -3
331
13
  1
Color_7
330
2DD
 90
        8
 62
     5
370
    -3
331
13
  1
Color_5
  0
XRECORD
  5
380
102
{ACAD_REACTORS
330
26C
102
}
330
26C
100
AcDbXrecord
280
     1
 91
     1023
301

290
     0
302
NOCUT
330
14
 90
        8
 62
     7
370
    -3
331
13
  1
Color_7
330
29
 90
       11
 62
     1
370
    -3
331
13
  1
Color_1
330
34
 90
        8
 62
     4
370
    -3
331
13
  1
Color_4
330
36
 90
        8
 62
     4
370
    -3
331
13
  1
Color_4
330
54
 90
        8
 62
     2
370
    -3
331
34C
  1
Color_2
330
7E
 90
        8
 62
     1
370
    -3
331
7D
  1
Color_1
330
93
 90
        8
 62
     7
370
    -3
331
13
  1
Color_7
330
B2
 90
        8
 62
     2
370
    -3
331
55
  1
Color_2
330
EE
 90
        8
 62
     7
370
    -3
331
13
  1
Color_7
330
1D5
 90
        8
 62
     7
370
    -3
331
13
  1
Color_7
330
223
 90
        0
 62
     9
370
    18
331
13
  1
Color_9
330
24B
 90
        8
 62
     7
370
    25
331
13
  1
Color_7
330
27D
 90
        0
 62
     7
370
    -3
331
13
  1
Color_7
330
2DD
 90
        8
 62
     5
370
    -3
331
13
  1
Color_5
  0
XRECORD
  5
3D6
102
{ACAD_REACTORS
330
26C
102
}
330
26C
100
AcDbXrecord
280
     1
 91
     1023
301

290
     0
302
SK2
330
14
 90
        8
 62
     7
370
    -3
331
13
  1
Color_7
330
29
 90
       11
 62
     1
370
    -3
331
13
  1
Color_1
330
34
 90
        8
 62
     4
370
    -3
331
13
  1
Color_4
330
36
 90
        8
 62
     4
370
    -3
331
13
  1
Color_4
330
54
 90
        8
 62
     2
370
    -3
331
34C
  1
Color_2
330
7E
 90
        8
 62
     1
370
    -3
331
7D
  1
Color_1
330
93
 90
        8
 62
     7
370
    -3
331
13
  1
Color_7
330
B2
 90
        8
 62
     2
370
    -3
331
55
  1
Color_2
330
EE
 90
        8
 62
     7
370
    -3
331
13
  1
Color_7
330
1D5
 90
        8
 62
     7
370
    -3
331
13
  1
Color_7
330
223
 90
        0
 62
     9
370
    18
331
13
  1
Color_9
330
24B
 90
        8
 62
     7
370
    25
331
13
  1
Color_7
330
27D
 90
        0
 62
     7
370
    -3
331
13
  1
Color_7
330
2DD
 90
        8
 62
     5
370
    -3
331
13
  1
Color_5
  0
XRECORD
  5
3F7
102
{ACAD_REACTORS
330
26C
102
}
330
26C
100
AcDbXrecord
280
     1
 91
     1023
301

290
     0
302
2
330
14
 90
        8
 62
     7
370
    -3
331
13
  1
Color_7
330
29
 90
       11
 62
     1
370
    -3
331
13
  1
Color_1
330
34
 90
        8
 62
     4
370
    -3
331
13
  1
Color_4
330
36
 90
        8
 62
     4
370
    -3
331
13
  1
Color_4
330
54
 90
        8
 62
     2
370
    -3
331
34C
  1
Color_2
330
7E
 90
        8
 62
     1
370
    -3
331
7D
  1
Color_1
330
93
 90
        8
 62
     7
370
    -3
331
13
  1
Color_7
330
B2
 90
        8
 62
     2
370
    -3
331
55
  1
Color_2
330
EE
 90
        8
 62
     7
370
    -3
331
13
  1
Color_7
330
1D5
 90
        8
 62
     7
370
    -3
331
13
  1
Color_7
330
223
 90
        0
 62
     9
370
    18
331
13
  1
Color_9
330
24B
 90
        8
 62
     7
370
    25
331
13
  1
Color_7
330
27D
 90
        0
 62
     7
370
    -3
331
13
  1
Color_7
330
2DD
 90
        8
 62
     5
370
    -3
331
13
  1
Color_5
  0
XRECORD
  5
407
102
{ACAD_REACTORS
330
26C
102
}
330
26C
100
AcDbXrecord
280
     1
 91
     1023
301

290
     0
302
SK2
330
14
 90
        8
 62
     7
370
    -3
331
13
  1
Color_7
330
29
 90
       11
 62
     1
370
    -3
331
13
  1
Color_1
330
34
 90
        8
 62
     4
370
    -3
331
13
  1
Color_4
330
36
 90
        8
 62
     4
370
    -3
331
13
  1
Color_4
330
54
 90
        8
 62
     2
370
    -3
331
34C
  1
Color_2
330
7E
 90
        8
 62
     1
370
    -3
331
7D
  1
Color_1
330
93
 90
        8
 62
     7
370
    -3
331
13
  1
Color_7
330
B2
 90
        8
 62
     2
370
    -3
331
55
  1
Color_2
330
EE
 90
        8
 62
     7
370
    -3
331
13
  1
Color_7
330
1D5
 90
        8
 62
     7
370
    -3
331
13
  1
Color_7
330
223
 90
        0
 62
     9
370
    18
331
13
  1
Color_9
330
24B
 90
        8
 62
     7
370
    25
331
13
  1
Color_7
330
27D
 90
        0
 62
     7
370
    -3
331
13
  1
Color_7
330
2DD
 90
        8
 62
     5
370
    -3
331
13
  1
Color_5
  0
XRECORD
  5
2B7
102
{ACAD_REACTORS
330
26C
102
}
330
26C
100
AcDbXrecord
280
     1
 91
     1023
301

290
     0
302
NOCUT
330
14
 90
        8
 62
     7
370
    -3
331
13
  1
Color_7
330
29
 90
       11
 62
     1
370
    -3
331
13
  1
Color_1
330
34
 90
        8
 62
     4
370
    -3
331
13
  1
Color_4
330
36
 90
        8
 62
     4
370
    -3
331
13
  1
Color_4
330
54
 90
        8
 62
     2
370
    -3
331
53
  1
Color_2
330
0
 90
        8
 62
     5
370
    -3
331
13
  1
Color_5
330
7E
 90
        8
 62
     1
370
    -3
331
7D
  1
Color_1
330
93
 90
        8
 62
     7
370
    -3
331
13
  1
Color_7
330
B2
 90
        8
 62
     2
370
    -3
331
55
  1
Color_2
330
EE
 90
        8
 62
     7
370
    -3
331
13
  1
Color_7
330
1D5
 90
        8
 62
     7
370
    -3
331
13
  1
Color_7
330
223
 90
        0
 62
     9
370
    18
331
13
  1
Color_9
330
24B
 90
        8
 62
     7
370
    25
331
13
  1
Color_7
330
27D
 90
        0
 62
     7
370
    -3
331
13
  1
Color_7
  0
XRECORD
  5
7C6
102
{ACAD_REACTORS
330
26C
102
}
330
26C
100
AcDbXrecord
280
     1
 91
     1023
301

290
     0
302
2
330
14
 90
        8
 62
     7
370
    -3
331
13
  1
Color_7
330
29
 90
       11
 62
     1
370
    -3
331
13
  1
Color_1
330
34
 90
        8
 62
     4
370
    -3
331
13
  1
Color_4
330
36
 90
        8
 62
     4
370
    -3
331
13
  1
Color_4
330
54
 90
        8
 62
     2
370
    -3
331
34C
  1
Color_2
330
7E
 90
        8
 62
     1
370
    -3
331
7D
  1
Color_1
330
93
 90
        8
 62
     7
370
    -3
331
13
  1
Color_7
330
B2
 90
        8
 62
     2
370
    -3
331
55
  1
Color_2
330
EE
 90
        8
 62
     7
370
    -3
331
13
  1
Color_7
330
1D5
 90
        8
 62
     7
370
    -3
331
13
  1
Color_7
330
223
 90
        0
 62
     9
370
    18
331
13
  1
Color_9
330
24B
 90
        8
 62
     7
370
    25
331
13
  1
Color_7
330
27D
 90
        0
 62
     7
370
    -3
331
13
  1
Color_7
330
2DD
 90
        8
 62
     5
370
    -3
331
13
  1
Color_5
330
5D7
 90
        8
 62
     5
370
    -3
331
13
  1
Color_5
  0
XRECORD
  5
345
102
{ACAD_REACTORS
330
26C
102
}
330
26C
100
AcDbXrecord
280
     1
 91
     1023
301

290
     0
302
SK2
330
14
 90
        8
 62
     7
370
    -3
331
13
  1
Color_7
330
29
 90
       11
 62
     1
370
    -3
331
13
  1
Color_1
330
34
 90
        8
 62
     4
370
    -3
331
13
  1
Color_4
330
36
 90
        8
 62
     4
370
    -3
331
13
  1
Color_4
330
54
 90
        8
 62
     2
370
    -3
331
53
  1
Color_2
330
0
 90
        8
 62
     5
370
    -3
331
13
  1
Color_5
330
7E
 90
        8
 62
     1
370
    -3
331
7D
  1
Color_1
330
93
 90
        8
 62
     7
370
    -3
331
13
  1
Color_7
330
B2
 90
        8
 62
     2
370
    -3
331
55
  1
Color_2
330
EE
 90
        8
 62
     7
370
    -3
331
13
  1
Color_7
330
1D5
 90
        8
 62
     7
370
    -3
331
13
  1
Color_7
330
223
 90
        0
 62
     9
370
    18
331
13
  1
Color_9
330
24B
 90
        8
 62
     7
370
    25
331
13
  1
Color_7
330
27D
 90
        0
 62
     7
370
    -3
331
13
  1
Color_7
330
2DD
 90
        8
 62
     5
370
    -3
331
13
  1
Color_5
  0
XRECORD
  5
346
102
{ACAD_REACTORS
330
26C
102
}
330
26C
100
AcDbXrecord
280
     1
 91
     1023
301

290
     0
302
SK2
330
14
 90
        8
 62
     7
370
    -3
331
13
  1
Color_7
330
29
 90
       11
 62
     1
370
    -3
331
13
  1
Color_1
330
34
 90
        8
 62
     4
370
    -3
331
13
  1
Color_4
330
36
 90
        8
 62
     4
370
    -3
331
13
  1
Color_4
330
54
 90
        9
 62
     2
370
    -3
331
53
  1
Color_2
330
0
 90
        8
 62
     5
370
    -3
331
13
  1
Color_5
330
7E
 90
        8
 62
     1
370
    -3
331
7D
  1
Color_1
330
93
 90
        8
 62
     7
370
    -3
331
13
  1
Color_7
330
B2
 90
        8
 62
     2
370
    -3
331
55
  1
Color_2
330
EE
 90
        8
 62
     7
370
    -3
331
13
  1
Color_7
330
1D5
 90
        8
 62
     7
370
    -3
331
13
  1
Color_7
330
223
 90
        0
 62
     9
370
    18
331
13
  1
Color_9
330
24B
 90
        8
 62
     7
370
    25
331
13
  1
Color_7
330
27D
 90
        0
 62
     7
370
    -3
331
13
  1
Color_7
330
2DD
 90
        8
 62
     5
370
    -3
331
13
  1
Color_5
  0
XRECORD
  5
347
102
{ACAD_REACTORS
330
26C
102
}
330
26C
100
AcDbXrecord
280
     1
 91
     1023
301

290
     0
302
SK2
330
14
 90
        8
 62
     7
370
    -3
331
13
  1
Color_7
330
29
 90
       11
 62
     1
370
    -3
331
13
  1
Color_1
330
34
 90
        8
 62
     4
370
    -3
331
13
  1
Color_4
330
36
 90
        8
 62
     4
370
    -3
331
13
  1
Color_4
330
54
 90
        8
 62
     2
370
    -3
331
53
  1
Color_2
330
0
 90
        8
 62
     5
370
    -3
331
13
  1
Color_5
330
7E
 90
        8
 62
     1
370
    -3
331
7D
  1
Color_1
330
93
 90
        8
 62
     7
370
    -3
331
13
  1
Color_7
330
B2
 90
        8
 62
     2
370
    -3
331
55
  1
Color_2
330
EE
 90
        8
 62
     7
370
    -3
331
13
  1
Color_7
330
1D5
 90
        8
 62
     7
370
    -3
331
13
  1
Color_7
330
223
 90
        0
 62
     9
370
    18
331
13
  1
Color_9
330
24B
 90
        8
 62
     7
370
    25
331
13
  1
Color_7
330
27D
 90
        0
 62
     7
370
    -3
331
13
  1
Color_7
330
2DD
 90
        8
 62
     5
370
    -3
331
13
  1
Color_5
  0
XRECORD
  5
348
102
{ACAD_REACTORS
330
26C
102
}
330
26C
100
AcDbXrecord
280
     1
 91
     1023
301

290
     0
302
SK2
330
14
 90
        8
 62
     7
370
    -3
331
13
  1
Color_7
330
29
 90
       11
 62
     1
370
    -3
331
13
  1
Color_1
330
34
 90
        8
 62
     4
370
    -3
331
13
  1
Color_4
330
36
 90
        8
 62
     4
370
    -3
331
13
  1
Color_4
330
54
 90
        9
 62
     2
370
    -3
331
53
  1
Color_2
330
0
 90
        8
 62
     5
370
    -3
331
13
  1
Color_5
330
7E
 90
        8
 62
     1
370
    -3
331
7D
  1
Color_1
330
93
 90
        8
 62
     7
370
    -3
331
13
  1
Color_7
330
B2
 90
        8
 62
     2
370
    -3
331
55
  1
Color_2
330
EE
 90
        8
 62
     7
370
    -3
331
13
  1
Color_7
330
1D5
 90
        8
 62
     7
370
    -3
331
13
  1
Color_7
330
223
 90
        0
 62
     9
370
    18
331
13
  1
Color_9
330
24B
 90
        8
 62
     7
370
    25
331
13
  1
Color_7
330
27D
 90
        0
 62
     7
370
    -3
331
13
  1
Color_7
330
2DD
 90
        8
 62
     5
370
    -3
331
13
  1
Color_5
  0
XRECORD
  5
36C
102
{ACAD_REACTORS
330
26C
102
}
330
26C
100
AcDbXrecord
280
     1
 91
     1023
301

290
     0
302
SK2
330
14
 90
        8
 62
     7
370
    -3
331
13
  1
Color_7
330
29
 90
       11
 62
     1
370
    -3
331
13
  1
Color_1
330
34
 90
        8
 62
     4
370
    -3
331
13
  1
Color_4
330
36
 90
        8
 62
     4
370
    -3
331
13
  1
Color_4
330
54
 90
        8
 62
     2
370
    -3
331
53
  1
Color_2
330
0
 90
        8
 62
     5
370
    -3
331
13
  1
Color_5
330
7E
 90
        8
 62
     1
370
    -3
331
7D
  1
Color_1
330
93
 90
        8
 62
     7
370
    -3
331
13
  1
Color_7
330
B2
 90
        8
 62
     2
370
    -3
331
55
  1
Color_2
330
EE
 90
        8
 62
     7
370
    -3
331
13
  1
Color_7
330
1D5
 90
        8
 62
     7
370
    -3
331
13
  1
Color_7
330
223
 90
        0
 62
     9
370
    18
331
13
  1
Color_9
330
24B
 90
        8
 62
     7
370
    25
331
13
  1
Color_7
330
27D
 90
        0
 62
     7
370
    -3
331
13
  1
Color_7
330
2DD
 90
        8
 62
     5
370
    -3
331
13
  1
Color_5
  0
XRECORD
  5
36E
102
{ACAD_REACTORS
330
26C
102
}
330
26C
100
AcDbXrecord
280
     1
 91
     1023
301

290
     0
302
SK2
330
14
 90
        8
 62
     7
370
    -3
331
13
  1
Color_7
330
29
 90
       11
 62
     1
370
    -3
331
13
  1
Color_1
330
34
 90
        8
 62
     4
370
    -3
331
13
  1
Color_4
330
36
 90
        8
 62
     4
370
    -3
331
13
  1
Color_4
330
54
 90
        8
 62
     2
370
    -3
331
53
  1
Color_2
330
0
 90
        8
 62
     5
370
    -3
331
13
  1
Color_5
330
7E
 90
        8
 62
     1
370
    -3
331
7D
  1
Color_1
330
93
 90
        8
 62
     7
370
    -3
331
13
  1
Color_7
330
B2
 90
        8
 62
     2
370
    -3
331
55
  1
Color_2
330
EE
 90
        8
 62
     7
370
    -3
331
13
  1
Color_7
330
1D5
 90
        8
 62
     7
370
    -3
331
13
  1
Color_7
330
223
 90
        0
 62
     9
370
    18
331
13
  1
Color_9
330
24B
 90
        8
 62
     7
370
    25
331
13
  1
Color_7
330
27D
 90
        0
 62
     7
370
    -3
331
13
  1
Color_7
330
2DD
 90
        8
 62
     5
370
    -3
331
13
  1
Color_5
  0
XRECORD
  5
375
102
{ACAD_REACTORS
330
26C
102
}
330
26C
100
AcDbXrecord
280
     1
 91
     1023
301

290
     0
302
SK2
330
14
 90
        8
 62
     7
370
    -3
331
13
  1
Color_7
330
29
 90
       11
 62
     1
370
    -3
331
13
  1
Color_1
330
34
 90
        8
 62
     4
370
    -3
331
13
  1
Color_4
330
36
 90
        8
 62
     4
370
    -3
331
13
  1
Color_4
330
54
 90
        8
 62
     2
370
    -3
331
34C
  1
Color_2
330
0
 90
        8
 62
     5
370
    -3
331
13
  1
Color_5
330
7E
 90
        8
 62
     1
370
    -3
331
7D
  1
Color_1
330
93
 90
        8
 62
     7
370
    -3
331
13
  1
Color_7
330
B2
 90
        8
 62
     2
370
    -3
331
55
  1
Color_2
330
EE
 90
        8
 62
     7
370
    -3
331
13
  1
Color_7
330
1D5
 90
        8
 62
     7
370
    -3
331
13
  1
Color_7
330
223
 90
        0
 62
     9
370
    18
331
13
  1
Color_9
330
24B
 90
        8
 62
     7
370
    25
331
13
  1
Color_7
330
27D
 90
        0
 62
     7
370
    -3
331
13
  1
Color_7
330
2DD
 90
        8
 62
     5
370
    -3
331
13
  1
Color_5
  0
ENDSEC
  0
EOF
